#TITLE:Jet World+Drop Out+PARANOiA Type-2;
#SUBTITLE:;
#ARTIST:Non Stop Mix Special(?);
#TITLETRANSLIT:;
#SUBTITLETRANSLIT:;
#ARTISTTRANSLIT:;
#CREDIT:;
#BANNER:BANNER!.jpg;
#BACKGROUND:Jet World_bg.jpg;
#LYRICSPATH:;
#CDTITLE:;
#MUSIC:JetWorld+DropOut+PARANOiAType2.mp3;
#OFFSET:1.300;
#SAMPLESTART:50.000;
#SAMPLELENGTH:12.000;
#SELECTABLE:YES;
#BPMS:0.000=138.000,88.000=552.000,89.000=276.000,89.500=138.000,90.000=260.000,154.000=130.000,155.000=260.000,188.000=130.000,192.000=520.001,256.000=1040.002,384.000=260.005,392.000=520.001,394.500=260.000,396.000=219.999,464.000=110.000,466.000=219.999,467.000=879.997,468.000=439.998,516.000=110.000,524.000=219.999;
#STOPS:427.500=0.400
,429.500=0.200
;
#BGCHANGES:0.000=Jet World_bg.jpg=1.000=0=0=1,
88.000=DROP OUT_bg.jpg=1.000=0=0=1,
88.500=Jet World_bg.jpg=1.000=0=0=1,
89.000=DROP OUT_bg.jpg=1.000=0=0=1,
89.500=Jet World_bg.jpg=1.000=0=0=1,
90.000=DROP OUT_bg.jpg=1.000=0=0=1,
90.500=Jet World_bg.jpg=1.000=0=0=1,
91.000=DROP OUT_bg.jpg=1.000=0=0=1,
91.500=Jet World_bg.jpg=1.000=0=0=1,
92.000=DROP OUT_bg.jpg=1.000=0=0=1,
392.000=PARANOiA Type-2_bg.jpg=1.000=0=0=1,
393.000=DROP OUT_bg.jpg=1.000=0=0=1,
394.000=PARANOiA Type-2_bg.jpg=1.000=0=0=1,
394.500=DROP OUT_bg.jpg=1.000=0=0=1,
395.000=PARANOiA Type-2_bg.jpg=1.000=0=0=1,
395.500=DROP OUT_bg.jpg=1.000=0=0=1,
396.000=PARANOiA Type-2_bg.jpg=1.000=0=0=1,
520.000=PARANOiA Type-2_bg.jpg=1.000=0=0=1,
520.000=Jet World_bg.jpg=1.000=0=0=1,
99999=-nosongbg-=1.000=0=0=0 // don't automatically add -songbackground-
;
// cache tags:
#FIRSTBEAT:4.000;
#LASTBEAT:520.000;
#SONGFILENAME:Songs/new cc/JetWorld+DropOut+PARANOiAType2/JetWorld+DropOut+PARANOiAType2.sm;
#HASMUSIC:1;
#HASBANNER:1;
#MUSICLENGTH:111.079;
// end cache tags

//---------------dance-single - ----------------
#NOTES:
     dance-single:
     :
     Challenge:
     15:
     1.000,1.000,1.000,0.441,0.315,584.000,155.000,49.000,4.000,12.000:
0000
0000
0000
0000
,
1002
0110
0000
0003
,
2001
0110
0000
3000
,
1000
0000
0100
0000
0000
0010
0000
0000
0001
0000
0100
0000
1000
0000
0100
0000
,
0001
0000
0010
0000
0000
0100
0000
0000
1000
0000
0010
0000
0001
0000
0010
0000
,
0001
0010
0100
1000
0100
0010
0001
0010
0100
0000
1000
0000
0100
0000
1010
0000
,
0100
1000
0001
0010
0001
1000
0100
1000
0001
0000
0220
0000
0000
0000
0330
0000
,
0001
1000
0001
0100
0001
1000
0010
1000
0001
0000
0100
0000
0001
0000
2000
0000
,
0000
0000
0000
0000
0000
0000
0000
0000
3100
0010
0100
0001
0010
0001
1000
0100
,
2001
0000
0001
0000
0101
0000
0101
3000
,
1000
0000
0100
1000
0100
0000
0100
0010
0000
0010
0100
0000
0010
0100
0010
0000
,
1002
0000
1000
0000
1010
0000
1010
0003
,
0001
0000
0010
0001
0010
0000
0010
0100
0000
0100
0010
0001
0100
0010
0100
0000
,
2002
0000
0000
0000
3103
1000
0100
0010
0100
1000
0100
0010
0001
1000
0010
1000
,
0220
0000
0000
0000
0331
0100
0001
1000
0001
0100
0001
1000
0010
0100
1000
0100
,
0220
0000
0000
0000
0331
0100
0001
1000
0001
0100
0001
1000
0010
0100
1000
0100
,
0220
0000
0000
0000
0331
0010
0001
1000
0001
0010
0001
1000
0100
0010
1000
0010
,
2000
0001
0010
0001
0010
0100
0011
3000
,
0200
0010
1000
0010
1000
0001
1010
0300
,
1000
0100
0000
0100
0010
0000
0010
0001
0000
0001
1000
0000
1000
0100
2000
3000
,
0110
0001
0000
0001
1000
0000
1000
0010
0000
0010
0100
0000
0100
0001
0200
0300
,
1000
0100
1000
0000
1100
0000
0010
0100
0010
0000
1100
0000
0011
0000
1000
0100
,
1000
0000
0000
0000
,
1100
0011
1100
0000
,
2002
0000
0000
3003
,
0001
0010
0001
0000
1100
0000
0000
0000
,
2200
0000
0000
0000
0000
0000
0000
3300
,
0010
0100
0000
0100
0010
0000
0000
0000
,
2002
0000
0000
0000
0000
0000
0000
3003
,
1000
0100
0010
0001
0010
0000
0000
0000
,
0220
0000
0000
0000
0000
0000
0000
0330
,
1100
0010
1100
0010
2200
0000
3300
0000
,
0101
1000
0101
1000
0202
0000
0303
0000
,
0101
1000
0101
1000
0202
0000
0303
0000
,
1001
1100
2002
3003
,
0101
1000
0101
1000
0202
0000
0303
0000
,
0011
0100
0011
0100
0022
0000
0033
0000
,
0011
0100
0011
0100
0022
0000
0033
0000
,
0110
0000
0101
0000
0220
0000
0000
0330
,
1100
0100
1100
0100
,
1100
0010
0011
0001
,
0011
0001
0011
0110
,
100M
0100
M010
0001
M010
0100
100M
0000
,
0101
1100
0010
0110
,
0001
0101
1100
0001
,
0110
1000
0101
0001
,
0110
0001
1100
0100
,
1000
0100
0010
0001
0010
0100
1000
0000
0100
0000
0000
0000
0001
0000
0000
0000
,
1000
0100
0001
0100
,
1000
0100
0001
0100
,
1000
0001
0010
1000
,
0100
0001
0010
1000
,
0100
0010
1000
0100
,
0001
0010
0100
0001
,
0010
0100
1000
0001
,
0100
0001
0010
0100
,
1000
0001
0010
0001
,
0100
1000
0001
0100
,
0010
0001
1000
0010
,
0100
0001
0100
0010
,
1000
0100
0010
0001
,
0010
0100
0001
0100
,
0001
1000
0100
0010
,
1000
0001
0100
0010
,
1000
0000
0100
0000
,
0010
0000
0001
0000
,
0010
0000
0100
0000
,
1000
0000
0100
0000
,
0010
0000
1000
0000
,
0010
0000
0100
0000
,
0001
0000
0010
0000
,
0100
0000
1000
0000
,
0001
0000
0100
0000
,
0010
0000
0100
0000
,
0001
0000
0010
0000
,
1000
0000
0100
0000
,
0010
0000
0001
0000
,
0010
0000
0100
0000
,
1000
0000
0100
0000
,
0010
0000
0001
0000
,
0010
0000
0100
0000
,
1000
0000
0100
0000
,
0010
0000
0001
0000
,
0100
0000
0010
0000
,
0100
0000
0001
0000
,
1000
0000
0100
0000
,
0010
0000
1000
0000
,
0001
0000
0100
0000
,
0001
0000
0100
0000
,
0010
0000
1000
0000
,
0001
0000
0100
0000
,
0010
0000
1000
0000
,
0001
0000
0100
0000
,
0010
0000
1000
0000
,
0001
0000
0100
0000
,
0010
0000
1000
0000
,
0001
1100
0000
0011
0000
1100
0000
1001
,
0000
0011
0000
1001
0000
1100
0000
1001
,
0000
0000
0000
0000
,
1000
0100
0010
0001
0010
0100
1000
0000
,
1100
1100
0000
0000
,
0001
0010
0100
1000
0100
0010
0001
0000
,
0011
0011
0000
0000
,
0001
0010
1000
0010
0001
0010
1000
0010
,
1001
1001
0000
0000
,
0010
1000
0100
1000
0010
1000
0100
1000
,
0110
0000
0000
0000
0000
0000
0000
1100
,
0011
0000
1100
0000
0110
0000
0101
0000
1000
0100
0000
1000
0100
0000
0100
1000
,
0100
0001
0010
0100
1010
0100
0010
0001
,
0110
0001
0010
0100
1010
0100
1000
0100
,
1010
0001
0010
0100
1010
0100
0001
0010
,
0101
0000
0000
1100
0000
0011
0100
0000
,
1100
0000
0020
0030
0200
0300
0000
0000
1000
0000
0100
0000
1100
0000
0000
0000
,
0001
0010
1000
0001
1100
0001
1000
0010
,
1001
0010
1000
0001
1100
0001
0100
0001
,
1100
0010
1000
0001
1100
0001
0010
1000
,
2002
0000
3003
0000
,
1100
0101
0011
1100
,
0101
1100
0101
1010
,
0011
1100
1100
1001
,
1100
1001
1001
0011
,
0101
0011
1001
1100
,
1001
0011
1001
1100
,
1001
0011
1001
0101
,
0011
1010
0101
0011
,
0101
0011
1100
1010
,
0101
0101
0110
0101
,
0110
0110
1010
0011
,
1010
0110
0101
0110
,
2002
0000
0000
0000
,
3003
0000
0000
0000
;
