#TITLE:Zap Your Channel;
#SUBTITLE:;
#ARTIST:DJ Sharpnel;
#TITLETRANSLIT:;
#SUBTITLETRANSLIT:;
#ARTISTTRANSLIT:;
#CREDIT:;
#BANNER:zap your bn.png;
#BACKGROUND:zap your bg.png;
#LYRICSPATH:;
#CDTITLE:;
#MUSIC:Zap Your Channel.ogg;
#OFFSET:0.009;
#SAMPLESTART:76.981;
#SAMPLELENGTH:18.112;
#SELECTABLE:YES;
#BPMS:0.000=212.000;
#STOPS:;
#BGCHANGES:;
// cache tags:
#FIRSTBEAT:16.000;
#LASTBEAT:660.000;
#SONGFILENAME:Songs/SHARPNELSTREAMZ v2/Zap Your Channel/Zap your channel.sm;
#HASMUSIC:1;
#HASBANNER:1;
#MUSICLENGTH:187.101;
// end cache tags

//---------------dance-single - 17- (Aoreo)----------------
#NOTES:
     dance-single:
     17- (Aoreo):
     Challenge:
     17:
     1.000,1.000,0.048,0.738,1.000,1914.000,9.000,138.000,19.000,8.000:
0000
0000
0000
0000
,
0000
0000
0000
0000
,
0000
0000
0000
0000
,
0000
0000
0000
0000
,
0001
0000
0100
0000
0001
0000
1000
0100
0010
0100
1000
0000
0001
0000
0100
0000
,
0010
0000
0100
0000
0001
0000
0010
0100
1000
0001
0100
0000
0001
0000
0010
0000
,
0001
0000
1000
0000
0100
0000
1000
0001
0100
0010
0100
0000
0001
0000
0010
0000
,
0100
0000
1000
0000
0001
0000
0100
0010
0100
0001
1000
0000
0100
0000
1000
0000
,
0001
0100
0001
1000
0010
0100
0001
1000
0100
0010
0001
1000
0100
1000
0001
0100
,
0010
0100
0001
1000
0001
0010
0100
1000
0001
0100
0001
1000
0010
0100
0010
1000
,
0001
0100
0010
0100
0001
1000
0100
1000
0001
0010
0100
1000
0001
0100
0010
0100
,
0001
1000
0100
1000
0001
0100
0001
1000
0100
0010
0100
1000
0001
0100
0010
0100
,
0001
1000
0001
0010
0100
1000
0001
1000
0010
0100
0010
1000
0001
0100
0001
1000
,
0010
0100
0010
1000
0001
1000
0100
0010
0001
1000
0100
1000
0001
0100
0010
0100
,
0001
1000
0010
0100
0010
1000
0001
0100
0001
1000
0100
0010
0001
0000
1000
0000
,
0000
0000
0000
0000
0000
0000
0000
0000
0001
0000
1000
0100
1000
0000
0001
0000
,
0100
0010
0100
0001
1000
0100
0010
0100
1000
0001
0100
0010
0100
0001
1000
0010
,
0100
0001
1000
0100
1000
0001
0010
0100
1000
0001
0100
0010
0100
0001
1000
0100
,
1000
0001
0100
0010
0100
0001
1000
0100
1000
0001
0010
0100
1000
0001
0100
0010
,
0100
0001
1000
0100
1000
0001
0100
0010
1000
0001
1000
0100
0010
0000
0100
0000
,
1000
0100
0010
0001
1000
0010
0100
0001
1000
0100
0010
0001
1000
0010
0100
0001
,
1000
0001
0100
0010
0100
0001
1000
0010
0100
0001
1000
0001
0010
0100
1000
0001
,
1000
0010
0100
0001
1000
0100
0010
0001
1000
0100
1000
0001
0100
0010
0100
0001
,
1000
0000
0100
0000
0010
0000
0100
0000
1000
0000
0001
0100
0001
0000
0100
0000
,
0202
0303
0000
0000
0100
0000
0001
0000
0100
0000
0010
0000
0100
0000
0000
0000
,
0100
0000
0100
0000
0001
0010
0100
1000
,
0001
0000
0001
0100
0001
1000
0001
0000
,
0001
0000
0001
0000
0001
0000
1000
0100
,
0010
0100
1000
0010
0100
0001
0100
0010
,
1000
0001
0010
0100
1000
0010
0100
0100
,
0001
0010
0100
1000
0001
0100
0010
0100
,
0001
1000
0100
0010
0001
1000
0010
0100
,
0001
0100
0001
1000
0010
0100
0010
1000
0001
0010
0100
1000
0001
0100
0001
1000
,
0100
0010
0001
1000
0010
0100
0001
1000
0010
0100
0010
1000
0001
0010
0100
1000
,
0001
0100
0001
1000
0001
0100
0010
0100
0001
1000
0100
0010
0001
1000
0100
1000
,
0001
0000
2000
0000
3001
0100
0010
0100
,
0001
1000
0100
1000
0001
0010
0100
1000
0001
0100
0010
0100
0001
1000
0100
1000
,
0001
0100
0010
1000
0001
0010
0100
1000
0001
0100
0010
0100
0001
1000
0100
0010
,
0001
1000
0001
0100
0010
0100
0001
1000
0001
0010
0100
1000
0001
0100
0001
1000
,
0001
0000
2000
0000
3010
0100
0001
0010
,
0100
0000
1000
0000
0001
0000
0100
0010
0100
0000
0001
0000
0010
0000
0100
0000
,
1000
0000
0001
0100
0001
0000
1000
0100
0010
0000
0100
1000
0001
0000
1000
0000
,
0001
0000
0100
0000
0010
0000
0100
0001
1000
0000
0100
0000
0010
0000
0100
0000
,
1000
0000
0001
0100
0001
0000
1000
0010
0100
0000
0001
0010
0100
0000
1000
0000
,
0001
0000
0100
0000
0010
0000
1000
0100
0010
0000
0100
0000
1000
0000
0001
0000
,
0100
0000
0010
1000
0010
0000
0100
0001
1000
0000
0001
0010
0100
0000
1000
0000
,
0001
0000
0100
0000
0010
0000
1000
0100
1000
0000
0001
0000
0100
0000
0010
0000
,
1000
0000
0100
1000
0001
0000
0010
0100
1000
0000
0001
0100
0001
0000
1000
0000
,
0001
0100
0010
0100
0001
1000
0100
0010
0001
1000
0100
1000
0001
0100
0010
0100
,
0001
1000
0001
0010
0100
1000
0001
1000
0010
0100
0010
1000
0001
0010
0100
1000
,
0001
1000
0100
1000
0001
0100
0010
0100
0001
1000
0001
0010
0100
1000
0001
0100
,
0010
0100
0001
1000
0100
0010
0001
1000
0001
0100
0010
0100
0001
1000
0100
1000
,
0001
0010
0100
1000
0001
0100
0010
0100
0001
1000
0100
1000
0001
0100
0010
0100
,
0001
1000
0001
0010
0100
1000
0001
0100
0001
1000
0100
1000
0001
0100
0001
1000
,
0010
0100
0010
1000
0001
0010
0100
1000
0001
0010
0001
1000
0100
1000
0001
0100
,
0002
0003
2000
3000
0020
0030
0200
0300
0002
0003
0020
0030
0200
0300
2000
3000
,
0100
M000
0100
0000
0001
0000
1000
0000
0100
0000
0100
0000
0010
0000
1000
0000
,
0100
0100
0001
1000
0100
0100
0001
0000
,
0010
0010
1000
0100
2000
0000
3001
0100
,
0010
0010
0001
1000
0010
0010
0001
0000
,
0100
0100
1000
0001
0200
0000
0301
1000
,
0100
0100
0001
1000
0100
0100
0001
0000
,
1000
0100
1000
0010
0100
0001
0010
0100
,
1000
0001
0100
0020
0000
1030
0100
0000
,
2000
0001
3001
0020
0100
0130
2000
0001
,
3001
0000
0200
0000
0010
0000
0310
0000
1000
0000
0001
0100
0001
0000
0010
0000
,
0100
0000
1000
0000
0001
0000
1000
0000
0001
0100
0010
0100
0001
1000
0001
0000
,
1000
0100
0010
0001
1000
0010
0100
0010
1000
0001
0010
0100
1000
0001
1000
0000
,
0001
0100
0001
1000
0010
0100
0010
1000
0001
0010
0100
1000
0001
0100
0010
0100
,
0001
1000
0100
1000
0001
0100
0010
0100
0001
1000
0001
0010
0100
1000
0001
0100
,
0001
1000
0100
1000
0001
0100
0010
0100
0001
1000
0100
0010
0001
1000
0001
0100
,
0002
0003
0000
0000
0020
0030
0000
0000
0200
0300
0000
0000
2000
3000
0000
0000
0002
0003
0000
0000
0200
0300
0000
0000
0020
0030
0000
0000
2000
3000
0000
0000
0002
0003
0000
0000
0020
0030
0000
0000
0200
0300
0000
0000
2000
3000
0000
0000
0002
0003
0000
0000
0200
0300
0000
0000
0020
0030
0000
0000
2000
3000
0000
0000
,
0001
0100
0010
0100
0001
1000
0100
0010
0001
1000
0100
1000
0001
0100
0010
1000
,
0010
0100
0001
1000
0001
0010
0100
1000
0001
0100
0010
0100
0001
1000
0100
0010
,
0001
1000
0100
1000
0001
0100
0010
1000
0001
0100
0001
1000
0100
0010
0001
1000
,
0001
0000
0100
0000
0001
0000
0000
1000
0100
0000
1000
0000
0001
0000
0100
0000
,
0001
0010
0100
1000
0001
0100
0010
0100
0001
1000
0100
0010
0001
1000
0001
0100
,
0001
1000
0010
1000
0100
0010
0001
0100
0010
0100
0001
0010
0100
1000
0001
1000
,
0010
0100
0001
1000
0100
0010
0001
1000
0001
0100
0010
0100
0001
1000
0001
0010
,
0100
1000
0010
0100
0010
1000
0001
0010
0100
0010
0001
0100
0010
1000
0100
1000
,
0010
0100
0010
1000
0001
0100
0001
1000
0100
0010
0001
1000
0010
0100
0010
1000
,
0100
0010
0001
1000
0001
0100
0001
1000
0010
0100
0010
1000
0001
0100
0010
1000
,
0100
1000
0001
0100
0010
0100
0001
1000
0001
0010
0100
1000
0001
0100
0010
1000
,
0001
0000
0000
0000
0100
0000
0000
0000
0010
0000
0000
0000
0100
0000
0000
0000
0001
0000
0000
0000
0010
0000
0000
0000
0200
0300
0000
0000
0000
0000
0000
0000
,
2000
0001
3001
0200
0001
0301
0020
0130
,
0000
0000
2000
3100
0020
0130
2000
3001
,
0200
0301
0000
2000
0001
3001
0020
0100
,
0130
0000
2000
3001
0000
0000
0000
1000
,
0002
0010
0013
0200
1000
1300
0002
0103
,
0000
0000
0002
0103
0020
1030
0200
0310
,
0002
1003
0000
0002
0203
0310
0000
0002
,
0203
0310
0000
0002
0203
0310
0000
1000
,
0002
0010
0013
0200
1000
1300
0020
0130
,
0000
0000
0002
0013
0200
1300
0020
0130
,
0002
0000
1003
0000
0000
0000
0002
0000
2003
0000
3100
0000
0020
0030
0100
0000
,
1000
0000
0001
0000
0200
0300
0010
0000
0000
0000
0000
0000
0000
0000
2000
3000
,
0002
0000
0100
0000
0103
0000
0020
0000
1000
0000
1030
0000
0200
0300
0010
0000
,
0000
0000
0002
0013
0200
1300
0020
0130
,
0002
1003
0000
0002
0203
0310
0000
0002
,
0203
0310
0000
0002
0203
0310
1000
0100
,
0010
0100
1000
0001
0100
0010
0100
0001
,
0000
0000
1101
0000
1101
0000
1000
0100
,
0010
0100
1000
0001
0100
0010
0100
0001
,
0000
0000
1101
0000
1101
0000
1000
0001
,
0100
0010
0100
0001
0010
0100
1000
0001
,
0000
0000
1101
0000
1101
0000
1000
0100
,
1000
0010
0100
0001
0010
0100
1000
0001
,
0100
0001
1101
0000
1101
0000
1000
0000
,
0001
0100
0001
0010
0100
1000
0010
0100
,
0001
1000
0100
0010
0100
1000
0001
0001
,
1000
0100
0010
0100
1000
0001
0100
0010
,
0200
0301
0020
0130
2000
3010
0200
0301
,
1000
0100
0010
0100
1000
0001
0100
0010
,
0100
0001
1000
0001
0010
0100
1000
1000
,
0001
0100
0010
0100
0001
1000
0001
0010
,
0100
0000
0000
0000
0000
0000
0000
0000
0000
0000
0000
0000
0000
0000
0000
0000
1000
0000
0000
0000
0000
0000
0000
0000
0000
0000
0000
0000
0000
0000
0000
0000
0001
0000
0000
0000
0000
0000
0000
0000
0000
0000
0000
0000
0000
0000
0000
0000
0200
0300
0000
0000
0000
0000
0000
0000
0000
0000
0000
0000
0000
0000
0000
0000
,
0001
0100
0010
1000
0010
0100
0001
1000
0100
0010
0001
1000
0100
1000
0001
0100
,
0010
0100
0001
1000
0001
0010
0100
1000
0001
0100
0010
0100
0001
1000
0100
1000
,
0001
0100
0001
1000
0010
0100
0010
1000
0001
0010
0100
1000
0001
0010
0001
1000
,
0001
0100
0010
0100
0001
1000
0100
0010
0100
1000
0001
0100
0010
0100
0001
1000
,
0001
0100
0001
1000
0010
0100
0010
1000
0001
1000
0100
0010
0100
1000
0001
0010
,
0100
1000
0001
0100
0010
0100
0001
1000
0001
1000
0100
1000
0001
0010
0100
1000
,
0001
1000
0010
0100
0010
1000
0001
0100
0001
1000
0100
0010
0100
1000
0001
0100
,
0020
0000
0000
0030
0000
0000
0000
0000
0000
0000
0000
0000
0000
0000
0000
0000
0000
0000
0000
0000
0000
0000
0000
0000
0200
0000
0000
0300
0000
0000
0000
0000
0000
0000
0000
0000
0000
0000
0000
0000
0000
0000
0000
0000
0000
0000
0000
0000
0002
0000
0000
0000
0003
0000
0000
0000
0000
0000
0000
0000
0000
0000
0000
0000
0000
0000
0000
0000
0000
0000
0000
0000
2000
0000
0000
0000
0000
0000
3000
0000
0000
0000
0000
0000
0000
0000
0000
0000
0000
0000
0000
0000
0000
0000
0000
0000
0200
0000
0000
0000
0000
0000
0000
0000
0300
0000
0000
0000
0000
0000
0000
0000
0000
0000
0000
0000
0000
0000
0000
0000
0020
0000
0000
0000
0000
0000
0000
0000
0000
0000
0000
0000
0030
0000
0000
0000
0000
0000
0000
0000
0000
0000
0000
0000
0002
0000
0000
0000
0000
0000
0000
0000
0000
0000
0000
0000
0000
0000
0000
0000
0003
0000
0000
0000
0000
0000
0000
0000
0200
0000
0000
0000
0000
0000
0000
0000
0000
0000
0000
0000
0000
0000
0000
0000
0000
0000
0000
0000
0000
0000
0000
0000
,
0310
1000
0001
0100
0001
1000
0001
0100
0010
1000
0001
0010
0100
1000
0001
0010
,
0001
1000
0100
1000
0001
0100
0010
0100
0001
1000
0100
0010
0100
1000
0001
0010
,
0100
1000
0001
0100
0010
0100
0001
1000
0100
0010
0001
1000
0100
1000
0001
0100
,
0010
0100
0001
1000
0001
0010
0100
1000
0001
1000
0001
0100
0010
0100
0001
1000
,
0001
0010
0100
1000
0001
0100
0010
0100
0001
1000
0100
0010
0001
1000
0100
1000
,
0001
0100
0010
0100
0001
1000
0001
0010
0100
1000
0001
1000
0100
1000
0001
0100
,
0010
0100
0001
1000
0001
0010
0100
1000
0001
1000
0010
0100
0010
1000
0001
0100
,
0001
0100
0010
0100
0001
0010
0100
1000
,
0000
0001
0100
0001
1000
0000
0001
0000
,
1000
0001
0100
0010
1000
0010
0100
0001
1000
0100
0010
0100
1000
0001
0010
0100
,
1000
0001
0100
0010
0100
0001
1000
0100
1000
0001
0100
0010
0100
0001
1000
0100
,
0010
0001
1000
0100
1000
0001
0100
0010
0100
0001
1000
0001
0010
0100
1000
0001
,
0100
0010
0100
0001
1000
0001
0010
0100
1000
0001
0100
0010
0100
0001
1000
0100
,
1000
0001
0100
0010
0100
0001
1000
0001
0010
0100
1000
0001
0100
0010
0100
0001
,
1000
0100
0010
0001
1000
0100
1000
0001
0100
0010
0100
0001
1000
0001
0010
0100
,
1000
0001
0100
0001
1000
0010
0100
0010
1000
0001
0100
0010
0100
0001
1000
0100
,
1000
0001
0100
0010
0100
0001
0010
0100
,
1000
0100
1000
0001
0100
0010
0100
0001
1000
0100
0010
0001
1000
0100
1000
0001
,
0100
0010
0100
0001
1000
0001
0010
0100
1000
0001
1000
0100
1000
0001
0100
0010
,
0100
0001
1000
0001
0010
0100
1000
0001
0100
0010
0100
0001
1000
0100
1000
0001
,
0010
0100
1000
0001
1000
0010
0100
0001
1000
0100
0010
0001
1000
0010
0100
0001
,
1000
0001
0010
0100
1000
0001
0100
0010
0100
0001
1000
0100
1000
0001
0100
0010
,
0100
0001
1000
0100
0010
0001
1000
0100
1000
0001
0100
0010
0100
0001
1000
0001
,
0010
0100
1000
0001
0100
0001
1000
0010
0100
0010
1000
0001
1000
0100
1000
0001
,
0100
0000
0000
0000
0000
0000
0000
0000
0001
0000
0000
0000
0000
0000
0000
0000
0010
0000
0000
0000
0000
0000
0000
0000
0100
0000
0000
0000
0000
0000
0000
0000
2000
3000
0000
0000
0020
0030
0000
0000
0200
0300
0000
0000
0002
0003
0000
0000
2000
3000
0000
0000
0200
0300
0000
0000
0020
0030
0000
0000
0002
0003
0000
0000
,
1000
0100
1000
0001
0100
0010
0100
0001
1000
0001
0010
0100
1000
0001
1000
0010
,
0100
0010
1000
0001
0010
0100
1000
0001
0100
0010
0100
0001
1000
0100
0010
0100
,
1000
0001
0100
0010
0100
0001
1000
0001
0010
0100
1000
0001
0100
0010
0100
0001
,
0020
0030
0000
0000
0200
0300
0000
0000
2000
3000
0000
0000
0020
0030
0000
0000
0200
0300
0000
0000
0002
0003
0000
0000
0020
0030
0000
0000
0200
0300
0000
0000
2000
3000
0000
0000
0020
0030
0000
0000
0200
0300
0000
0000
0002
0003
0000
0000
0020
0030
0000
0000
0200
0300
0000
0000
2000
3000
0000
0000
0002
0003
0000
0000
,
1000
0100
0010
0001
1000
0100
1000
0001
0100
0010
0100
0001
1000
0100
1000
0001
,
0100
0010
0100
0001
1000
0001
0010
0100
1000
0001
0100
0001
1000
0010
1000
0001
,
0100
0010
0100
0001
1000
0001
0010
0100
1000
0001
1000
0010
0100
0010
1000
0001
,
0100
0000
0001
0000
1000
0000
0100
1000
0001
0000
0100
0000
0010
0000
0100
0000
,
0001
0100
0001
1000
0010
0100
0010
1000
0100
0010
0001
1000
0001
0100
0010
0100
,
0001
1000
0001
0010
0100
1000
0001
0100
0010
0100
0001
1000
0100
0010
0001
1000
,
0100
1000
0001
0100
0010
0100
0001
0010
0100
1000
0001
0100
0010
0100
0001
1000
,
0200
0300
0000
0000
2000
3000
0000
0000
0020
0030
0000
0000
0200
0300
0000
0000
0002
0003
0000
0000
0020
0030
0000
0000
0200
0300
0000
0000
2000
3000
0000
0000
0020
0030
0000
0000
0200
0300
0000
0000
0002
0003
0000
0000
0020
0030
0000
0000
0200
0300
0000
0000
2000
3000
0000
0000
0002
0003
0000
0000
0200
0300
0000
0000
,
0010
0100
0001
1000
0100
0010
0100
1000
0001
0100
0010
0100
0001
1000
0001
0010
,
0100
1000
0010
0100
0010
1000
0001
0100
0010
1000
0001
0100
0001
0010
0100
1000
,
0001
0100
0010
0100
0001
1000
0100
0010
0001
1000
0100
1000
0010
0100
0001
1000
,
0002
0000
0000
0000
1000
0000
0000
0000
1MM3
0MM0
0MM0
0MM0
0MM0
0MM0
0MM0
0MM0
,
0MM0
0000
0000
0000
;

//---------------dance-single - 15- (TYLoreo)----------------
#NOTES:
     dance-single:
     15- (TYLoreo):
     Hard:
     15:
     1.000,1.000,0.433,0.722,1.000,1483.000,81.000,135.000,98.000,12.000:
0000
0000
0000
0000
,
0000
0000
0000
0000
,
0000
0000
0000
0000
,
0000
0000
0000
0000
,
0000
0000
0000
0000
,
0000
0000
0000
0000
,
0000
0000
0000
0000
,
0000
0000
0000
0000
,
1001
1010
0110
0101
,
1001
0000
1100
0000
0110
0000
0011
0001
,
0101
1100
0011
1010
,
0101
0000
0011
0000
1100
0000
1010
1000
,
1001
0011
0110
1100
,
1001
0000
0101
0000
0110
0000
1010
1000
,
1100
0011
0101
1010
,
0000
0000
0000
0000
0000
0000
0000
0000
0001
0000
1000
0100
1000
0000
0001
0000
,
1000
0010
0020
0130
0010
1000
0001
0010
,
0100
1000
0100
0011
0000
0011
0000
0001
,
1000
1010
0000
0010
0100
0001
0100
0001
,
0022
0000
0033
0000
0022
0000
0033
0000
0100
0000
1000
0001
1000
0000
0100
0000
,
0110
0010
0020
0031
0010
0100
1000
0001
,
0100
0010
1000
0101
0000
0101
0000
1000
,
0100
0011
0000
0001
1000
0100
1000
0001
,
2020
0000
3030
0000
2020
0000
3030
0000
1000
0000
0001
0100
0001
0000
1000
0000
,
0202
0303
0000
0000
0100
0000
0001
0000
0100
0000
0010
0000
0100
0000
0000
0000
,
0100
0000
0100
0000
0001
0010
0100
1000
,
0001
0000
0001
0100
0001
1000
0001
0000
,
0001
0000
0001
0000
0001
0000
1000
0100
,
0110
0000
0011
0000
0011
0100
1001
0000
,
1001
0000
0101
0000
1010
0000
1100
0100
,
0110
0000
0011
0000
0011
0100
1001
0000
,
1001
0000
0101
0000
1010
0000
0010
0100
,
0101
0001
0100
0010
1000
1000
0100
0010
,
0001
0001
0100
0010
1000
1000
0001
0010
,
0100
0100
1000
0010
0100
0100
0001
0010
,
0100
0000
2100
0000
3001
0100
0100
0001
,
1000
1000
0100
0010
0001
0001
0100
0010
,
1000
1000
0100
0010
0001
0001
1000
0010
,
0100
0100
0001
0010
0100
0100
1000
0010
,
0100
0000
0102
0000
1003
0100
0100
1000
,
1001
0000
0001
0000
1000
0000
0100
0010
0100
0000
1000
0000
0100
0000
0010
0000
,
0001
0000
1000
0010
1000
0000
0001
0010
0100
0000
0010
0001
1000
0000
0001
0000
,
1000
0000
0010
0000
0100
0000
0010
1000
0001
0000
0010
0000
0100
0000
0010
0000
,
0001
0000
1000
0010
1000
0000
0001
0100
0010
0000
1000
0100
0010
0000
0001
0000
,
1000
0000
0010
0000
0100
0000
0001
0010
0100
0000
0010
0000
0001
0000
1000
0000
,
0010
0000
0100
0001
0100
0000
0010
1000
0001
0000
1000
0100
0010
0000
0001
0000
,
1000
0000
0010
0000
0100
0000
0001
0010
0001
0000
1000
0000
0010
0000
0100
0000
,
0101
0000
0000
0000
,
1000
0010
0100
0010
1000
0001
0010
0100
1000
0001
0010
0001
1000
0010
0100
0010
,
1000
0001
1000
0100
0010
0001
1000
0001
0100
0010
0100
0001
1000
0100
0010
0001
,
1000
0001
0010
0001
1000
0010
0100
0010
1000
0001
1000
0100
0010
0001
1000
0010
,
0100
0010
1000
0001
0010
0100
1000
0001
1000
0010
0100
0010
1000
0001
0010
0001
,
1000
0100
0010
0001
1000
0010
0100
0010
1000
0001
0010
0001
1000
0010
0100
0010
,
1000
0001
1000
0100
0010
0001
1000
0010
1000
0001
0010
0001
1000
0010
1000
0001
,
0100
0010
0100
0001
1000
0100
0010
0001
1000
0100
1000
0001
0010
0001
1000
0010
,
2000
3000
0002
0003
2000
3000
0020
0000
0030
0000
2000
0000
3000
0000
0001
0000
,
0100
M00M
0100
0000
1000
0000
0001
0000
0100
M00M
0100
0000
0010
0000
0001
0000
,
0100
M00M
0100
0000
1000
0000
0001
0000
0100
M00M
0100
0000
1000
0000
1000
0000
,
0010
M00M
0010
0000
0001
0000
0100
0000
0010
M00M
0010
0000
0001
0000
1000
0000
,
0100
M00M
0100
0000
0001
0000
1000
0000
0100
M00M
0100
0000
0001
0000
0001
0000
,
0010
M00M
0010
0000
1000
0000
0001
0000
0100
M00M
0100
0000
1000
0000
0001
0000
,
0010
M00M
0010
0000
1000
0000
0001
0000
0010
M00M
0010
0000
1000
0000
1000
0000
,
0100
0000
0010
M00M
0010
0000
1000
0000
0100
M00M
0100
0000
0010
M00M
0010
0000
,
0001
1000
0010
0200
0000
0301
0010
0000
,
0001
0000
0100
M00M
0100
0000
1000
0000
0100
M00M
0100
0000
0001
0000
0010
M00M
,
0010
0000
1000
0000
0010
M00M
0010
0000
0001
0000
1000
0001
1000
0000
0100
0000
,
0010
0000
0001
0000
1000
0000
0001
0000
1000
0010
0100
0010
1000
0001
1000
0000
,
0001
0010
0100
1000
0001
1000
0001
0000
0100
0000
0010
0100
0001
0000
1000
0000
,
0001
0100
0001
1000
0010
0100
0010
1000
0001
0010
0100
1000
0001
0100
0010
0100
,
0001
1000
0100
1000
0001
0100
0010
0100
0001
1000
0001
0010
0100
1000
0001
0100
,
0001
1000
0100
1000
0001
0100
0010
0100
0001
1000
0100
0010
0001
1000
0001
0100
,
0002
0003
0000
0000
0020
0030
0000
0000
0200
0300
0000
0000
2000
3000
0000
0000
0002
0003
0000
0000
0200
0300
0000
0000
0020
0030
0000
0000
2000
3000
0000
0000
0002
0003
0000
0000
0020
0030
0000
0000
0200
0300
0000
0000
2000
3000
0000
0000
0002
0003
0000
0000
0200
0300
0000
0000
0020
0030
0000
0000
2000
3000
0000
0000
,
0001
0100
0010
0100
0001
1000
0100
0010
0001
1000
0100
1000
0001
0100
0010
1000
,
0010
0100
0001
1000
0001
0010
0100
1000
0001
0100
0010
0100
0001
1000
0100
0010
,
0001
1000
0100
1000
0001
0100
0010
1000
0001
0100
0001
1000
0100
0010
0001
1000
,
0001
0000
0100
0000
0001
0000
0000
1000
0100
0000
1000
0000
0001
0000
0100
0000
,
0001
0000
0010
M00M
0010
0000
1000
0000
0100
M00M
0100
0000
0010
M00M
0010
0000
,
0001
0000
0100
M00M
0100
0000
1000
0000
0010
M00M
0010
0000
0100
M00M
0100
0000
,
0001
0000
0010
M00M
0010
0000
1000
0000
0100
M00M
0100
0000
0010
M00M
0010
0000
,
0001
0000
0010
M00M
0010
0000
1000
0000
0100
M00M
0100
0000
0010
M00M
0010
0000
,
0001
0000
0100
M00M
0100
0000
1000
0000
0010
M00M
0010
0000
0100
M00M
0100
0000
,
0001
0000
0010
M00M
0010
0000
1000
0000
0100
M00M
0100
0000
0010
M00M
0010
0000
,
0001
0000
0010
M00M
0010
0000
1000
0000
0100
M00M
0100
0000
0010
M00M
0010
0000
,
0001
0000
0000
0000
0100
0000
0000
0000
0010
0000
0000
0000
0100
0000
0000
0000
0001
0000
0000
0000
0010
0000
0000
0000
0200
0300
0000
0000
0000
0000
0000
0000
,
2000
0001
3001
0200
0001
0301
0020
0130
,
0000
0000
2000
3100
0020
0130
2000
3001
,
0200
0301
0000
2000
0001
3001
0020
0100
,
0130
0000
2000
3001
0000
0000
0000
1000
,
0002
0010
0013
0200
1000
1300
0002
0103
,
0000
0000
0002
0103
0020
1030
0200
0310
,
0002
1003
0000
0002
0203
0310
0000
0002
,
0203
0310
0000
0002
0203
0310
0000
1000
,
0002
0010
0013
0200
1000
1300
0020
0130
,
0000
0000
0002
0013
0200
1300
0020
0130
,
0002
0000
1003
0000
0000
0000
0002
0000
2003
0000
3100
0000
0020
0030
0100
0000
,
1000
0000
0001
0000
0200
0300
0010
0000
0000
0000
0000
0000
0000
0000
2000
3000
,
0002
0000
0100
0000
0103
0000
0020
0000
1000
0000
1030
0000
0200
0300
0010
0000
,
0000
0000
0002
0013
0200
1300
0020
0130
,
0002
1003
0000
0002
0203
0310
0000
0002
,
0203
0310
0000
0002
0203
0310
1000
0100
,
0010
0100
1000
0001
0100
0010
0200
0002
,
0000
0000
1010
0000
1313
0000
0100
0001
,
0010
0100
1000
0001
0100
0010
2000
0200
,
0000
0000
0011
0000
3311
0000
1000
0100
,
0010
0001
1000
0001
0010
0001
0200
0002
,
0000
0000
1010
0000
1313
0000
0100
0001
,
0010
0100
1000
0001
0010
0001
0200
0020
,
0000
1001
1331
0100
,
0010
1000
0001
1000
0100
1000
0010
0100
,
0001
1000
0100
0010
0100
1000
0001
0001
,
1000
0100
0010
0100
1000
0001
0100
0010
,
0200
0301
0020
0130
2000
3010
0200
0301
,
1000
0100
0010
0100
1000
0001
0100
0010
,
0100
0001
1000
0001
0010
0100
1000
1000
,
0001
0100
0010
0100
0001
1000
0001
0010
,
0100
0000
0000
0000
0000
0000
0000
0000
0000
0000
0000
0000
0000
0000
0000
0000
1000
0000
0000
0000
0000
0000
0000
0000
0000
0000
0000
0000
0000
0000
0000
0000
1000
0000
0000
0000
0000
0000
0000
0000
0000
0000
0000
0000
0000
0000
0000
0000
0002
0003
0000
0000
0000
0000
0000
0000
0000
0000
0000
0000
0000
0000
0000
0000
,
1001
0000
1000
0000
0010
0000
0100
0000
0001
0100
0001
0000
0100
0000
0010
0000
,
1000
0000
0001
0000
0010
0000
0100
0000
1000
0100
1000
0000
0100
0000
0100
0000
,
0010
0000
0001
0000
0100
0000
0010
0000
1000
0001
1000
0000
0010
0000
0100
0000
,
0002
1003
0002
0103
0020
1030
0200
0310
,
0011
0000
0001
0000
0100
0000
0010
0000
1000
0010
1000
0000
0010
0000
0100
0000
,
0001
0000
1000
0000
0100
0000
0010
0000
0001
0010
0001
0000
0010
0000
0010
0000
,
0100
0000
1000
0000
0010
0000
0100
0000
0001
1000
0001
0000
0100
0000
0010
0000
,
1010
0000
0000
0000
0000
0000
0000
0000
1000
0000
0000
0000
0000
0000
0000
0000
0002
0003
0000
0000
0000
0000
0000
0000
0000
0000
0000
0000
0000
0000
0000
0000
0002
0003
0000
0000
0000
0000
0000
0000
0000
0000
0000
0000
0000
0000
0000
0000
0000
0000
0000
0000
0000
0000
0000
0000
0000
0000
0000
0000
0000
0000
0000
0000
,
1010
0000
1000
0000
0001
1000
0001
0000
1000
0010
0100
0000
0010
1000
0001
0000
,
0010
0000
0100
0000
1000
0100
1000
0000
0001
1000
0010
0000
1000
0000
1000
0000
,
0100
0000
1000
0000
0001
1000
0001
0000
1000
0010
0100
0000
0010
1000
0001
0000
,
0020
0130
0020
0031
0200
0310
2000
3001
,
1001
0000
1000
0000
0100
0010
0100
0000
1000
0001
0100
0000
0001
1000
0010
0000
,
0100
0000
0010
0000
1000
0001
1000
0000
0001
0010
0100
0000
1000
0100
0010
0000
,
0001
0000
1000
0000
0001
0100
0001
0000
1000
0010
0100
0000
0010
1000
0001
0000
,
0010
0010
0100
0100
1000
1000
0001
0001
,
0000
0011
0011
0001
,
1000
0001
0100
0010
1000
0010
0100
0001
1000
0100
0010
0100
1000
0001
0010
0100
,
1000
0001
0100
0010
0100
0001
1000
0100
1000
0001
0100
0010
0100
0001
1000
0100
,
0010
0001
1000
0100
1000
0001
0100
0010
0100
0001
1000
0001
0010
0100
1000
0001
,
0100
0010
0100
0001
1000
0001
0010
0100
1000
0001
0100
0010
0100
0001
1000
0100
,
1000
0001
0100
0010
0100
0001
1000
0001
0010
0100
1000
0001
0100
0010
0100
0001
,
1000
0100
0010
0001
1000
0100
1000
0001
0100
0010
0100
0001
1000
0001
0010
0100
,
1000
0001
0100
0001
1000
0010
0100
0010
1000
0001
0100
0010
0100
0001
1000
0100
,
1000
0001
0100
0010
0100
0001
0010
0100
,
1000
0100
1000
0001
0100
0010
0100
0001
1000
0100
0010
0001
1000
0100
1000
0001
,
0100
0010
0100
0001
1000
0001
0010
0100
1000
0001
1000
0100
1000
0001
0100
0010
,
0100
0001
1000
0001
0010
0100
1000
0001
0100
0010
0100
0001
1000
0100
1000
0001
,
0010
0100
1000
0001
1000
0010
0100
0001
1000
0100
0010
0001
1000
0010
0100
0001
,
1000
0001
0010
0100
1000
0001
0100
0010
0100
0001
1000
0100
1000
0001
0100
0010
,
0100
0001
1000
0100
0010
0001
1000
0100
1000
0001
0100
0010
0100
0001
1000
0001
,
0010
0100
1000
0001
0100
0001
1000
0010
0100
0010
1000
0001
1000
0100
1000
0001
,
0100
0000
0000
0001
0000
0000
0010
0000
0000
0100
0000
0000
2000
3000
0020
0030
0200
0300
0002
0003
0020
0030
0200
0300
,
1000
0001
1000
0001
0100
0010
1000
0001
1000
0001
0010
0100
1000
0001
1000
0010
,
0100
0010
1000
0001
0010
0100
1000
0001
0100
0010
0100
0001
1000
0100
0010
0100
,
1000
0001
0100
0010
0100
0001
1000
0001
0010
0100
1000
0001
0100
0010
0100
0001
,
2000
3000
0000
0000
2200
3300
0000
0000
2220
3330
0000
0000
2222
3333
0000
0000
,
1000
0100
0010
0001
1000
0100
1000
0001
0100
0010
0100
0001
1000
0100
1000
0001
,
0100
0010
0100
0001
1000
0001
0010
0100
1000
0001
0100
0001
1000
0010
1000
0001
,
0100
0010
0100
0001
1000
0001
0010
0100
1000
0001
1000
0010
0100
0010
1000
0001
,
0100
0000
0001
0000
1000
0000
0100
1000
0001
0000
0100
0000
0010
0000
0100
0000
,
0001
0100
0001
1000
0010
0100
0010
1000
0100
0010
0001
1000
0001
0100
0010
0100
,
0001
1000
0001
0010
0100
1000
0001
0100
0010
0100
0001
1000
0100
0010
0001
1000
,
0100
1000
0001
0100
0010
0100
0001
0010
0100
1000
0001
0100
0010
0100
0001
1000
,
0002
0003
0000
0000
0022
0033
0000
0000
0222
0333
0000
0000
2222
3333
0000
0000
,
0001
0010
0001
1000
0100
0010
0100
1000
0001
0100
0010
0100
0001
1000
0001
0010
,
0100
1000
0010
0100
0010
1000
0001
0100
0010
1000
0001
0100
0001
0010
0100
1000
,
0001
0100
0010
0100
0001
1000
0100
0010
0001
1000
0100
1000
0010
0100
0001
1000
,
0002
0000
0000
0000
1000
0000
0000
0000
1MM3
0MM0
0MM0
0MM0
0MM0
0MM0
0MM0
0MM0
,
0MM0
0000
0000
0000
;
