#TITLE:Sandstorm;
#SUBTITLE:;
#ARTIST:Darude;
#TITLETRANSLIT:;
#SUBTITLETRANSLIT:;
#ARTISTTRANSLIT:;
#CREDIT:Era;
#BANNER:sandstorm bn.jpg;
#BACKGROUND:sandstorm bg.jpg;
#LYRICSPATH:;
#CDTITLE:!eratitle.png;
#MUSIC:Sandstorm.mp3;
#OFFSET:-1.372;
#SAMPLESTART:32.980;
#SAMPLELENGTH:15.580;
#SELECTABLE:YES;
#BPMS:0.000=136.340,32.750=136.360;
#STOPS:;
#BGCHANGES:;
// cache tags:
#FIRSTBEAT:0.000;
#LASTBEAT:196.000;
#SONGFILENAME:Songs/toune 3/Sandstorm/Sandstorm.sm;
#HASMUSIC:1;
#HASBANNER:1;
#MUSICLENGTH:89.869;
// end cache tags

//---------------dance-single - ----------------
#NOTES:
     dance-single:
     :
     Hard:
     11:
     0.909,0.845,0.401,0.356,1.000,503.000,36.000,32.000,0.000,1.000:
1021
0000
0000
0000
,
0000
0000
0000
0000
,
0000
0000
0000
0000
,
0030
0000
0000
0000
,
0000
0000
0000
0000
,
0000
0000
0000
0000
,
2000
3000
0000
0000
0000
0000
0020
0030
0000
0000
0000
0000
0200
0300
0000
0000
0002
0003
0000
0000
0000
0000
0200
0300
0000
0000
0000
0000
2000
3000
0000
0000
,
0002
0003
0000
0000
0000
0000
2000
3000
0000
0000
0000
0000
0020
0030
0000
0000
0200
0300
0000
0000
0000
0000
0000
0000
1001
0000
0000
0000
0000
0000
0000
0000
,
0100
0000
0010
0000
0100
0000
0010
0000
0100
0000
0000
0000
0002
0003
0000
0000
2000
3000
0000
0000
0000
0000
0200
0300
0000
0000
0000
0000
0020
0030
0000
0000
,
2000
3000
0000
0000
0000
0000
0020
0030
0000
0000
0000
0000
0002
0003
0000
0000
0200
0300
0000
0000
0000
0000
0002
0003
0000
0000
0000
0000
1000
0000
0000
0000
,
0001
0000
0100
0000
0001
0000
0100
0000
0001
0000
0000
0000
0020
0030
0000
0000
0200
0300
0000
0000
0000
0000
0002
0003
0000
0000
0000
0000
2000
3000
0000
0000
,
0200
0300
0000
0000
0000
0000
2000
3000
0000
0000
0000
0000
0002
0003
0000
0000
0200
0300
0000
0000
0000
0000
0020
0030
0000
0000
0000
0000
0100
0000
0000
0000
,
1000
0100
1000
0100
1000
0000
0000
0000
0010
0100
0010
0100
0010
0000
0000
0000
,
0010
1000
0010
0001
0010
0000
0000
0000
0100
0001
0100
1000
0100
0000
0000
0000
,
0010
0100
0001
0010
0100
1000
0010
0001
1000
0010
0100
0010
0100
1000
0100
0010
,
1000
0001
1000
0010
1000
0001
0100
1000
0100
0010
1000
0100
0020
0000
0000
0000
,
1030
1000
0001
1000
1000
0000
0010
0100
0010
0010
0100
0010
0010
0000
0100
1000
,
0100
0100
1000
0100
0100
0000
0100
0010
0001
0001
0010
0001
0001
0000
0010
0100
,
1000
1000
0100
1000
1000
0000
0010
0001
0010
0010
0001
0010
0010
0000
1000
0100
,
0010
0001
0010
0100
1000
0000
1000
0100
0010
0001
0010
0100
1000
0000
0001
1000
,
0001
0001
1000
0001
0001
0000
1000
0100
0010
0010
0100
0010
0010
0000
0100
0010
,
0001
0001
0100
0001
0001
0000
1000
0100
0010
0010
1000
0010
0010
0000
0100
1000
,
0001
0001
1000
0001
0001
0000
0100
0010
1000
1000
0010
1000
1000
0000
0001
0010
,
0100
1000
0100
0010
0001
0000
0001
0010
0100
1000
0100
0010
0001
0000
0010
1000
,
0001
0001
1000
0001
0001
0000
0100
1000
0100
0100
1000
0100
0100
0000
0001
0010
,
0001
0001
0010
0001
0001
0000
0100
0010
0100
0100
0010
0100
0100
0000
1000
0100
,
0010
0010
0100
0010
0010
0000
0100
0001
0100
0100
0001
0100
0100
0000
1000
0100
,
0010
0001
0010
0100
1000
0000
1000
0100
0010
0001
0010
0100
1000
0000
0001
0010
,
1000
0010
0001
0010
1000
0000
1000
0100
0001
0100
1000
0100
0001
0000
0010
1000
,
0010
0010
1000
0010
0010
0000
0100
0001
0100
0100
0001
0100
0100
0000
1000
0100
,
0010
0010
0100
0010
0010
0000
0010
0001
1000
1000
0001
1000
1000
0000
0001
0010
,
0100
1000
0100
0010
0001
0000
0001
0010
0100
1000
0100
0010
0001
0000
0100
0100
,
1000
0100
0100
0000
1100
0000
0010
0010
1000
0010
0010
0000
0110
0000
1001
0000
,
0001
0001
0100
0001
0001
0000
1000
1000
0010
1000
1000
0000
1100
0000
0011
0000
,
0100
0100
1000
0100
0100
0000
0010
0010
0001
0010
0010
0000
1010
0000
1000
1000
,
0100
1000
1000
0000
1100
0000
0010
0010
1000
0010
0010
0000
0011
0000
1010
0000
,
0100
0100
0010
0100
0100
0000
0010
0010
0001
0010
0010
0000
1010
0000
1001
0000
,
0001
0001
1000
0001
0001
0000
1000
1000
0010
1000
1000
0000
0110
0000
0101
0000
,
0010
0010
1000
0010
0010
0000
1000
1000
0100
1000
1000
0000
1001
0000
1000
0001
,
1000
1000
0001
1000
1000
0000
0010
0010
0100
0010
0010
0000
0110
0000
0100
1000
,
0100
0100
1000
0100
0100
0000
0001
0001
1000
0001
0001
0000
1001
0000
0101
0000
,
0100
0100
0010
0100
0100
0000
0010
0010
0001
0010
0010
0000
1010
0000
0011
0000
,
0100
0100
0100
0000
0101
0000
1000
1000
0001
1000
1000
0000
1010
0000
0011
0000
,
0001
0001
0001
0000
0101
0000
1000
1000
0100
1000
1000
0000
1010
0000
0101
0000
,
0010
0010
0010
0000
0011
0000
0011
0000
1000
1000
1000
0000
1010
0000
1010
0000
,
0001
0001
0001
0000
0101
0000
0101
0000
0010
0010
0010
0000
0110
0000
0110
0000
,
1000
1000
1000
0000
0010
0010
0010
0000
0100
0100
0100
0000
0001
0001
0001
0000
,
0010
0010
0010
0000
1000
1000
1000
0000
0001
0001
0001
0000
0100
0100
0100
0000
,
2002
0000
0000
0000
,
3003
0000
0000
0000
;
