#TITLE:VOLTAGE;
#SUBTITLE:(feat. Hidemaru);
#ARTIST:TaQ;
#TITLETRANSLIT:;
#SUBTITLETRANSLIT:;
#ARTISTTRANSLIT:;
#CREDIT:;
#BANNER:Voltage (feat. Hidemaru).png;
#BACKGROUND:Voltage (feat. Hidemaru)-bg.png;
#LYRICSPATH:;
#CDTITLE:!toph-cdtitle.png;
#MUSIC:TaQ - Voltage (feat. Hidemaru).mp3;
#OFFSET:-0.394;
#SAMPLESTART:61.800;
#SAMPLELENGTH:16.000;
#SELECTABLE:YES;
#BPMS:0.000=125.000,13.750=24.000,14.000=125.000,29.500=250.000,30.500=125.000,46.500=250.000,47.500=125.000,54.500=250.000,55.500=125.000,62.500=250.000,63.500=125.000,70.500=250.000,71.500=125.000,78.500=250.000,79.500=125.000,86.500=250.000,87.500=125.000,173.750=25.000,174.000=125.000;
#STOPS:29.500=0.240
,46.500=0.240
,54.500=0.240
,62.500=0.240
,70.500=0.240
,78.500=0.240
,86.500=0.240
;
#BGCHANGES:;
// cache tags:
#FIRSTBEAT:3.750;
#LASTBEAT:189.250;
#SONGFILENAME:Songs/StepmaniaFreak's Favorites/Voltage (feat. Hidemaru) [Toph]/Voltage (feat. Hidemaru).sm;
#HASMUSIC:1;
#HASBANNER:1;
#MUSICLENGTH:93.054;
// end cache tags

//---------------dance-single - ----------------
#NOTES:
     dance-single:
     :
     Easy:
     6:
     0.396,0.407,0.107,0.043,0.167,244.000,10.000,4.000,0.000,0.000:
0000
0000
0000
0000
0000
0000
0000
0000
0000
0000
0000
0000
0000
0000
0000
0100
,
0000
0000
0000
0000
0000
0000
0000
0000
0000
0000
0000
0000
0000
0000
0000
0100
,
0000
0000
0000
0000
0000
0000
0000
0000
0000
0000
0000
0000
0000
0000
0000
0100
,
0000
0000
0000
0000
0000
0000
0000
0110
0000
0000
0000
0000
1000
0000
0010
0000
,
0100
0000
0001
0000
0001
0000
1000
0100
,
0010
0000
0001
0000
0001
0000
0100
0010
,
1000
0000
0100
0000
0100
0000
0010
0001
,
0100
0000
0100
1001
0000
0000
0010
1000
,
0100
0000
0010
0000
0010
0000
0001
0100
,
1000
0000
0100
0000
0100
0000
0010
1000
,
0100
0000
0001
0000
0001
0000
0100
0010
,
0001
0000
0100
0010
0000
1001
0000
0100
,
0010
1000
1000
0100
,
0010
0000
0001
0000
1000
0001
0000
0100
,
0010
1000
1000
0100
,
0010
0000
0001
0000
0100
0010
0000
1000
,
0001
0000
0000
0100
0000
0000
0100
0000
0010
0000
0000
0000
1000
0000
0100
0000
,
0010
0000
0000
0001
0000
0000
0001
0000
1000
0000
0001
0000
0000
0000
0100
0000
,
0010
0000
0000
1000
0000
0000
1000
0000
0100
0000
0000
0000
0010
0000
0001
0000
,
0100
0000
0000
0010
0000
0000
0010
0000
1000
0000
0001
0000
0000
0000
1000
0000
,
0100
0000
0000
0010
0000
0000
0010
0000
0001
0000
0100
0000
0010
0000
1000
0000
,
0100
0000
0000
0010
0000
0000
0010
0000
0001
0000
1000
0000
0000
0000
0010
0000
,
1000
0000
0000
0100
0000
0000
0100
0000
0010
0000
0001
0000
1000
0000
0001
0000
,
1000
0000
0000
0001
0000
0000
1000
0000
0001
0000
1000
0000
2002
0000
0000
0000
,
0000
0000
0000
0000
,
0000
3003
0110
2002
,
0000
0000
3003
0110
,
0000
0110
0000
0000
0110
0000
1001
0000
,
0100
0000
0010
0000
1000
0000
0001
0010
,
0001
0010
0001
0010
0100
0000
1000
0000
,
0001
0000
0100
0000
0010
0000
1000
0100
,
1000
0100
1000
0100
0001
0000
0100
0000
,
1000
0000
0001
0100
0000
0000
0000
0010
0000
0000
1000
0000
0100
0000
0000
0000
,
0010
0000
0001
0100
0000
0000
0000
0010
0000
0000
1000
0000
0100
0000
0000
0000
,
0010
0000
0001
1000
0000
0000
0000
0010
0000
0000
0100
0000
0001
0000
1000
0000
,
0100
0010
0001
0001
0001
0001
0100
0000
,
0010
0000
1000
0100
0000
0000
0000
0010
0000
0000
0001
0000
0100
0000
0010
0000
,
1000
0000
0100
0010
0000
0000
0000
0001
0000
0000
0100
0000
0010
0000
1000
0000
,
0001
0000
1000
0100
0000
0000
0000
0010
0000
0000
0001
0000
0100
0000
0010
0000
,
1000
0001
1000
0010
0100
0001
1000
0001
,
0100
0000
0010
0000
0010
0000
1000
0100
,
0010
0000
0001
0000
0001
0000
0100
0010
,
0001
0000
0010
0000
0010
0000
1000
0100
,
0001
0000
0000
0000
0100
0000
0010
0000
0001
0000
0100
0000
0010
0000
0000
1000
,
0000
0100
0010
0000
0001
0000
0000
0000
0100
0000
0010
0000
1000
0000
0000
0001
,
0000
1000
0100
0000
0010
0000
0000
0000
0001
0000
0100
0000
1000
0000
0000
0100
,
0000
0010
1000
0000
0001
0000
0000
0000
1000
0000
0001
0000
1000
0000
0001
0000
,
1000
0000
0001
0000
1000
0100
0000
0000
0000
0000
0000
0000
0000
0000
0000
0000
;

//---------------dance-single - ----------------
#NOTES:
     dance-single:
     :
     Medium:
     8:
     0.590,0.585,0.527,0.043,0.392,331.000,49.000,4.000,0.000,0.000:
0000
0000
0000
0000
0000
0000
0000
0000
0000
0000
0000
0000
0000
0000
0000
0100
,
0000
0000
0000
0000
0000
0000
0000
0000
0000
0000
0000
0000
0000
0000
0000
0100
,
0010
0000
0000
0000
0000
0000
0000
0000
0000
0000
0000
0000
0000
0000
0000
0100
,
0000
0000
0000
0000
0000
0000
0000
0110
0000
0000
0000
0000
0001
0000
1000
0000
,
0010
0000
0100
0001
0000
0001
0010
0000
0100
0000
1000
0000
0001
0000
0100
0000
,
0010
0000
1000
0100
0000
0100
0010
0000
0001
0000
1000
0000
1001
0000
0001
0000
,
0100
0000
0010
1000
0000
1000
0100
0000
0010
0000
0001
0000
0100
0000
0010
0000
,
1000
0000
0001
1000
0000
1000
0001
0000
0000
0000
0000
0000
0001
0000
1000
0000
,
0010
0000
0100
0001
0000
0001
0010
0000
0100
0000
1000
0000
0010
0000
0100
0000
,
0001
0000
0010
0100
0000
0100
1000
0000
0001
0000
0100
0000
0010
0000
1000
0000
,
0001
0000
0010
0100
0000
0100
0010
0000
0001
0000
0100
0000
1000
0000
0100
0000
,
0010
0000
1000
0100
0000
0100
0010
0000
0001
0000
1001
0000
0000
0000
0001
0000
,
0100
0000
0000
0010
0000
0000
0010
0000
0010
0000
0010
0000
1000
0000
0100
0000
,
1000
0000
0000
0010
0000
0000
0010
0100
0000
0000
1001
0000
0000
0000
0001
0000
,
0100
0000
0000
0010
0000
0000
0010
0000
0010
0000
0010
0000
1000
0000
0100
0000
,
1000
0000
0000
0001
0000
0000
0001
0100
0000
0000
1001
0000
0000
0000
1000
0000
,
1001
0000
0000
0110
0000
0000
0110
0000
1001
0000
0100
0000
0010
0000
0100
0000
,
1001
0000
0000
0110
0000
0000
0110
0000
1000
0000
1001
0000
0000
0000
0100
0000
,
1001
0000
0000
0110
0000
0000
0110
0000
1001
0000
0100
0000
0010
0000
0100
0000
,
1001
0000
0000
0110
0000
0000
0110
0000
0100
0000
1001
0000
0000
0000
0100
0000
,
1001
0000
0000
0011
0000
0000
1100
0000
1001
0000
0010
0000
0001
0000
0100
0000
,
1001
0000
0000
1010
0000
0000
0101
0000
1000
0000
1001
0000
0000
0000
0100
0000
,
0011
0000
0000
1100
0000
0000
0101
0000
1010
0000
0001
0000
1000
0000
0100
0000
,
0010
0001
0000
0100
0000
0100
0000
0010
1000
0000
0100
0000
2002
0000
0000
0000
,
0000
0000
0000
0000
,
0000
3003
0110
2002
,
0000
0000
3003
0110
,
0000
0100
0010
0000
0000
0000
0000
0100
0010
0000
0100
0000
1001
0000
0000
0000
,
0101
0000
1001
0000
1100
0000
0010
0001
,
0100
0010
1000
0100
0010
0000
1001
0000
,
0101
0000
1010
0000
1100
0000
0010
0001
,
0100
0010
1000
0001
1000
0000
1100
0001
,
0100
0000
0010
1000
0000
0000
0100
0000
0010
0000
0001
0000
0100
0000
0010
0000
,
1000
0000
0001
0010
0000
0000
0100
0000
1000
0000
0010
0000
1001
0000
0100
0000
,
0001
0000
0010
0100
0000
0000
1000
0000
0010
0000
0100
0000
0001
0000
0001
0000
,
0001
0001
0001
0100
0010
1000
1001
0001
,
0100
0000
0010
1000
0000
0000
0100
0000
0010
0000
0001
0000
1000
0000
0010
0000
,
0100
0000
0001
1000
0000
0000
0100
0000
0010
0000
0001
0000
1001
0000
0100
0000
,
0010
0000
1000
0100
0000
0000
0010
0000
0001
0000
0100
0000
0010
0000
0010
0000
,
1000
0000
1000
0000
0001
0000
1000
0000
0001
0100
0000
0010
1000
0000
1000
0000
,
0001
0000
0100
0010
0000
1000
0001
0000
0010
0000
0100
0000
1000
0000
0010
0000
,
0100
0000
0001
0010
0000
0100
1000
0000
0010
0000
1000
0000
0100
0000
0001
0000
,
0100
0000
1000
0010
0000
0100
0001
0000
0010
0000
0001
0000
0100
0000
1000
0000
,
0001
0000
0010
1000
0000
1000
0100
0000
1000
0001
1000
0000
0010
0000
0100
0001
,
0000
1000
0100
0000
0010
0001
0010
0000
0001
0100
0001
0000
0010
0000
0100
1000
,
0000
1000
0001
0000
0100
0010
0100
0000
0001
1000
0001
0000
0010
0000
0100
1000
,
0000
1000
0001
0000
0100
0000
0010
0000
1000
0001
1000
0001
0100
0010
0100
0010
,
1000
0001
1000
0001
1000
0100
0000
0000
0000
0000
0000
0000
0000
0000
0000
0000
;

//---------------dance-single - ----------------
#NOTES:
     dance-single:
     :
     Hard:
     10:
     0.834,0.763,0.408,0.000,1.000,505.000,38.000,0.000,0.000,0.000:
0000
0000
0000
0000
0000
0000
0000
0000
0000
0000
0000
0000
0000
0000
0000
1000
,
0100
0000
0000
0000
0000
0000
0000
0000
0000
0000
0000
0000
0000
0000
0000
1000
,
0100
0000
0000
0000
0000
0000
0000
0000
0000
0000
0000
0000
0000
0000
0000
1000
,
0100
0000
0000
0000
0000
0000
0000
1001
0000
0000
0000
1000
0001
0100
0001
0100
,
0010
0000
1000
0100
0000
0010
0001
0000
1000
0010
0100
0001
1000
0100
1000
0100
,
0010
0000
0001
0100
0000
0010
1000
0000
0100
0010
0001
0100
0010
1000
0010
1000
,
0001
0000
1000
0100
0000
0010
0001
0000
0100
0010
1000
0001
0010
0100
0010
0100
,
1000
0000
0010
0100
0000
0001
1001
0000
0000
0000
0001
0100
0010
1000
0010
1000
,
0100
0000
0010
0001
0000
1000
0010
0000
0100
0001
0010
0100
1000
0010
1000
0010
,
0100
0000
0001
0010
0000
0100
1000
0000
0010
0100
0001
1000
0100
0010
0100
0010
,
0001
0000
1000
0010
0000
0100
0001
0000
0010
0100
1000
0010
0100
0001
0100
0001
,
0010
0000
0100
1000
0000
1000
1001
0000
0010
0000
0101
0000
0000
0000
1000
0001
,
0100
0010
0000
1000
0000
0000
0100
0010
0001
0100
0010
0000
1000
0000
0100
0000
,
0010
0001
0000
1000
0000
0000
0010
0100
0000
0000
1001
0000
0000
0000
1000
0001
,
0100
0010
0000
1000
0000
0000
0100
0010
0001
0100
0010
0000
1000
0000
0001
0000
,
0010
0100
0000
1000
0000
0000
0001
0100
0000
0000
1001
0000
0000
0000
1000
0010
,
0100
0001
0000
1100
0000
0001
0101
0000
0010
1000
0100
0010
0001
1000
0010
0000
,
0100
0001
0000
1100
0000
0001
0101
0000
0010
1000
1001
0000
0000
0000
1000
0100
,
0010
0001
0000
0101
0000
1000
1100
0000
0010
0001
0100
0010
1000
0100
0010
0000
,
0001
1000
0000
1001
0000
0010
0110
0000
0010
0100
1001
0000
0000
0000
0001
0100
,
0010
1000
0000
1001
0000
0010
0110
0000
1000
0100
0010
0001
0100
0010
1000
0000
,
0001
1000
0000
0110
0000
0001
0101
0000
0010
0100
1001
0000
0000
0000
0010
0100
,
1000
0001
0000
0101
0000
1000
1100
0000
0010
0001
0100
0010
1000
0100
0010
0000
,
0001
1000
0010
0100
0000
0001
0100
0001
1000
0100
0010
0001
0100
0000
0000
0000
,
0000
0000
0000
0000
0010
0000
0000
0000
0000
0000
0000
0000
1000
0100
0010
0001
,
0100
0010
1000
0001
0010
0100
1000
0010
0100
0010
1000
0001
0010
0000
0000
0000
,
0100
0000
0000
0000
0000
0000
0000
0000
0000
0000
0000
0000
1000
0010
0000
0010
,
0000
0100
0001
0010
0000
0010
0000
0100
1000
0001
0100
0010
1000
0000
0000
0000
,
1100
0000
0000
0000
1001
0000
0000
0000
0101
0000
0000
0000
0001
0010
0100
1000
,
0010
0100
0010
1000
0001
0010
0100
0010
0001
0100
0010
1000
0100
0000
0000
0000
,
1100
0000
0000
0000
0110
0000
0000
0000
0011
0000
0000
0000
0001
0100
0010
0100
,
0001
0010
0100
1000
0010
0100
0010
1000
0100
0010
0001
0100
0010
0000
1000
0100
,
0010
0001
1000
0010
0000
0100
0001
1000
0000
0000
0100
0000
0010
0000
0001
0010
,
0100
1000
0010
0100
0000
0100
0001
1000
0000
0000
0100
0000
0010
0000
0001
0100
,
0010
1000
0001
0010
0000
0100
1000
0001
0000
0000
0010
0000
0001
0000
0100
0010
,
1000
0100
0010
0001
1000
0010
0100
0001
0010
0100
0010
0001
1000
0000
0010
0100
,
0001
0010
0100
1000
0000
0010
0100
0001
0000
0000
1000
0000
0100
0000
0010
0001
,
0010
0100
1000
0010
0000
0100
0001
0010
0000
0000
0100
0000
1000
0000
0001
0100
,
0010
1000
0001
0010
0000
0100
1000
0010
0000
0000
0100
0000
0001
0100
0010
1000
,
0100
0010
0100
1000
0010
0100
0001
0010
0100
1100
0000
0101
0001
0100
0001
0100
,
0010
0000
1000
0100
0000
0010
0001
0000
1000
0010
0100
0001
1000
0100
1000
0100
,
0010
0000
0001
0100
0000
0010
1000
0000
0001
1000
0001
0100
0010
1000
0010
1000
,
0100
0000
0010
0001
0000
0100
0010
0000
1000
0100
0010
0001
1000
0010
1000
0010
,
0100
0000
0001
0010
0000
0100
1000
1001
0010
0001
0100
0010
1010
0000
1000
0100
,
0000
0010
0011
0000
0001
0100
0010
1000
0001
0010
0100
0010
0011
0000
0001
1000
,
0000
0010
0110
0000
1000
0100
0010
0001
1000
0010
1000
0001
0011
0000
0001
0100
,
0000
0010
1010
0000
1000
0001
1000
0100
0010
0001
0100
1000
0100
0010
1000
0100
,
0010
0001
0100
0010
1000
0100
0000
0000
0000
0000
0000
0000
0000
0000
0000
0000
;

//---------------dance-single - ----------------
#NOTES:
     dance-single:
     :
     Challenge:
     11:
     1.000,1.000,1.000,0.000,1.000,534.000,188.000,0.000,0.000,0.000:
0000
0000
0000
0000
0000
0000
0000
0000
0000
0000
0000
0000
0000
0000
0000
0010
,
0010
0000
0000
0000
0000
0000
0000
0000
0000
0000
0000
0000
0000
0000
0000
0010
,
0011
0000
0000
0000
0000
0000
0000
0000
0000
0000
0000
0000
0000
0000
0000
0010
,
0010
0000
0000
0000
0000
0000
0000
0110
0000
0000
0000
0110
1000
0100
0010
0001
,
1100
0000
0001
1000
0000
0010
0101
0000
1010
0001
0100
0001
1000
0100
0010
0001
,
1010
0000
0100
0001
0000
1000
0110
0000
1001
0100
0010
0001
1000
0010
0100
0001
,
1100
0000
0001
0100
0000
0010
1001
0000
1100
0010
0001
0100
0010
1000
0100
0010
,
0101
0000
0010
1000
0000
0100
0110
0000
0000
0000
1001
0100
1000
0010
0100
0001
,
1100
0000
0010
0001
0000
1000
0110
0000
1001
0100
1000
0010
0100
0001
0010
0100
,
1001
0000
0010
0100
0000
1000
0101
0000
0110
1000
0001
0100
0010
1000
0100
0010
,
1001
0000
0010
1000
0000
0100
1001
0000
0011
0100
0010
1000
0100
0010
0100
1000
,
0011
0000
0001
0100
0000
0010
1001
0000
1010
0000
1100
0000
0000
0000
0100
0100
,
0010
0100
0000
0100
0000
0000
0100
0100
1000
0010
1001
0001
0100
0100
0100
0000
,
0010
0100
0000
0100
0000
0000
0100
0001
0000
0000
1100
0000
0000
0000
0100
0100
,
0001
0100
0000
0100
0000
0000
0100
0100
1000
0010
1001
0001
0100
0100
0100
0000
,
0010
0100
0000
0100
0000
0000
0100
0001
0000
0000
1100
0000
0000
0000
0100
1000
,
0101
1000
0001
0110
0000
1000
0101
0000
1010
0001
1000
0100
0010
0001
1000
0001
,
1100
0001
1000
0101
0000
0010
1100
0000
0101
0010
1001
0000
0000
0000
0001
0100
,
0011
0100
0001
1010
0000
0001
1100
0000
0011
0100
0010
1000
0001
0010
0100
1000
,
0101
1000
0001
1100
0000
0010
1001
0000
1010
0100
1001
0000
0000
0000
1000
0001
,
1100
0001
1000
0110
0000
1000
0101
0000
1010
0001
1000
0100
0010
0001
0100
0010
,
1001
0100
0010
1001
0000
0010
1001
0000
1100
0010
1001
0000
0000
0000
0001
1000
,
0011
0000
0000
1000
0000
0000
0001
0000
0000
1010
0000
0000
0000
0000
0000
1000
0000
0000
0110
0000
0000
0000
0000
0000
1001
0000
0000
0100
0000
0000
1000
0000
0100
0000
0010
0000
0001
0000
0000
0000
0000
0000
1100
0000
0000
0000
0000
0000
,
0101
0010
1000
0101
0000
1001
0110
0001
1000
0001
0010
0100
1001
0000
0000
0000
,
0000
0000
0000
0000
0010
0000
0000
0000
0000
0000
0000
0000
1000
0001
0100
0010
,
1000
0100
0010
0001
0100
0010
1000
0100
1001
0010
0100
0010
1001
0000
0000
0000
,
0010
0000
0000
0000
0000
0000
0000
0000
0000
0000
0000
0000
0011
1000
0000
1000
,
0000
0000
1100
0000
0011
0000
1000
0000
0000
0000
1000
0000
0000
0000
1000
0000
0000
0000
0100
0010
0001
0000
0000
0000
1001
0000
0000
0000
0000
0000
0000
0000
,
1010
0000
0000
0000
1100
0000
0000
0000
0011
0000
0000
0000
1001
0100
0010
0001
,
1010
0001
0100
0010
1100
0001
0010
0100
0011
1000
0001
0100
1001
0000
0000
0000
,
0011
0000
0000
0000
0101
0000
0000
0000
1010
0000
0000
0000
1001
0010
0100
1000
,
0101
0000
0000
0010
0000
0000
1100
0000
0000
0001
0000
0000
0010
0000
0000
1001
0000
0000
0100
0000
0000
0010
0000
0000
0001
0000
0010
0000
0100
0000
1000
0000
0000
0000
0000
0000
0110
0000
0000
0000
0000
0000
1000
0000
0000
0001
0000
0000
,
0110
0001
0100
0010
1001
0100
0010
0001
1100
0000
0101
0000
1001
0000
0100
0010
,
1001
0100
0011
1100
0001
0100
0010
1000
0110
0000
1100
0000
1001
0000
0010
0100
,
1001
0010
0001
0100
0011
1000
0001
0010
1100
0000
1001
0000
0110
0000
1000
0001
,
0110
1000
0011
1100
0001
0100
0011
1100
0011
0011
0011
0011
1001
0000
0100
0010
,
1001
0010
0100
1000
0011
0100
0010
1000
0101
0000
1010
0000
1001
0000
0010
1000
,
0011
0100
1010
0101
0010
1000
0110
0000
0101
0000
1010
0000
1100
0000
0010
0001
,
0110
1000
0001
1000
0110
0001
1000
0100
0011
1000
0101
0000
1010
0100
1000
0001
,
1010
0100
1010
0101
1000
0100
0011
1100
0001
1100
0000
0011
1000
0010
0100
0001
,
1010
0000
0010
1000
0000
0100
1001
0000
0110
1000
0001
0100
0010
1000
0100
0010
,
1001
0000
0100
0010
0000
1000
0101
0000
0011
0100
1000
0010
0100
0001
0010
0100
,
1001
0000
0010
0100
0000
0001
1100
0000
1010
0001
1000
0100
0010
0001
0100
0010
,
1001
0000
0010
1000
0000
0010
0100
1001
1010
0100
0011
1000
0101
0000
0011
1100
,
0010
1100
0011
0000
1100
0010
0001
0100
1010
0001
1100
0001
0110
0000
1010
0101
,
1000
0101
1010
0000
0011
1000
0100
0010
1001
0100
0011
1000
0110
0000
0011
1100
,
0001
0000
0000
1100
0000
0000
0011
0000
0000
0000
0000
0000
1100
0000
0000
0001
0000
0000
0100
0000
0000
0010
0000
0000
1000
0000
0100
0000
0010
0000
1001
0000
0000
1001
0000
0000
0101
0000
0000
0101
0000
0000
1010
0000
0000
1010
0000
0000
,
1100
0011
0101
1010
1001
0110
0000
0000
0000
0000
0000
0000
0000
0000
0000
0000
;
