#TITLE:Tranquillitys Maze;
#SUBTITLE:;
#ARTIST:Skyfire;
#TITLETRANSLIT:;
#SUBTITLETRANSLIT:;
#ARTISTTRANSLIT:;
#CREDIT:;
#BANNER:Tranquillitys Maze-bn.png;
#BACKGROUND:Tranquillitys Maze-bg.png;
#LYRICSPATH:;
#CDTITLE:!UggeTitle.png;
#MUSIC:Tranquillitys Maze.ogg;
#OFFSET:-1.239;
#SAMPLESTART:71.740;
#SAMPLELENGTH:12.000;
#SELECTABLE:YES;
#BPMS:0.000=170.100,204.000=140.070,268.000=170.100;
#STOPS:;
#BGCHANGES:;
// cache tags:
#FIRSTBEAT:0.000;
#LASTBEAT:336.000;
#SONGFILENAME:Songs/Bemani.se Megapack/(Ugge) Tranquillitys Maze/Tranquillitys Maze.sm;
#HASMUSIC:1;
#HASBANNER:1;
#MUSICLENGTH:124.810;
// end cache tags

//---------------dance-single - Ugge----------------
#NOTES:
     dance-single:
     Ugge:
     Hard:
     11:
     1.000,1.000,1.000,0.112,0.905,839.000,161.000,14.000,0.000,1.000:
1010
0000
1001
0000
1000
0000
0001
1000
1001
0000
1000
0000
0010
0000
1000
0000
,
1100
0000
0011
0000
1000
0000
0010
1000
1100
0000
0010
0000
0100
0000
0001
0000
,
0110
0000
1010
0000
0001
0000
0100
0010
1010
0000
0100
0000
0010
0000
1000
0000
,
1001
0000
0101
0000
1000
0000
0001
0100
0110
0000
0010
0000
1000
0000
0001
0000
,
0101
0000
1010
0000
1000
0000
0001
0010
0110
0000
1000
0000
0010
0000
0100
0000
,
1010
0000
0110
0000
1000
0000
0100
1000
0011
0000
0001
0000
1000
0000
0010
0000
,
1000
0100
1000
0100
0010
0001
0010
0100
0010
0001
0010
0100
1000
0100
0010
0100
,
0010
0100
0010
0100
1000
0100
0010
0001
0010
0001
1000
0001
0100
0010
0100
0001
,
1000
0001
0100
0010
1000
0100
0010
0100
1000
0001
1000
0001
0100
0010
0100
0001
,
0010
0100
0010
0100
1000
0100
0010
0100
0010
0001
1000
0001
0010
0100
1000
0100
,
0010
0001
1000
0010
0100
0010
1000
0010
0100
0001
1000
0010
0100
0001
1000
0001
,
0010
0100
0010
0001
1000
0100
1000
0010
0100
0001
0010
0001
0100
0010
0100
0001
,
1001
0000
1010
0000
0100
0000
0001
0100
0101
0000
0100
0000
0001
0000
0100
0000
,
1100
0000
1010
0000
0010
0000
1000
0100
1010
0000
0001
0000
1000
0000
0010
0000
,
0011
0000
0110
0000
0001
0100
0101
0000
0010
0000
0100
0000
0001
0000
1000
0000
,
0110
0000
1001
0000
0100
0000
0010
1000
1001
0000
0001
0000
0010
0000
0100
0000
,
1001
0000
1100
0000
0001
0000
0100
0010
0110
0000
1000
0000
0001
0000
0010
0000
,
1100
0000
0110
0000
0001
0000
1000
0100
1100
0000
0100
0000
0010
0000
0001
0000
,
1000
0100
1000
0010
0100
0001
0010
0100
0010
0001
0010
0100
1000
0100
1000
0001
,
0010
0001
0100
0010
0100
0001
1000
0100
1000
0100
1000
0010
0100
0010
0100
0001
,
0010
0100
0010
0100
1000
0100
0010
0001
0010
0100
1000
0100
0010
0001
0010
0001
,
1000
0100
1000
0010
1000
0010
1000
0001
0100
0001
0010
0100
0010
0001
0010
0100
,
1000
0100
1000
0010
0100
0001
0010
0001
1000
0100
1000
0010
0100
0010
0100
0001
,
1000
0001
1000
0010
1010
0000
0000
0000
1001
0000
0000
0000
0011
0000
0000
0000
,
1001
0000
0000
0000
1100
0000
0000
0000
0011
0000
0000
0000
0011
0010
0100
1000
,
0100
1000
0010
0100
0010
0100
0001
0010
0001
0100
0010
1000
0100
1000
0100
0010
,
1001
0100
0010
0001
0010
0001
1000
1100
,
0001
0010
0001
1000
0100
1000
0001
1100
,
0110
1001
0010
0100
0001
1000
0010
1000
,
1000
0000
0001
0100
0010
1000
0100
1000
0010
0100
0010
0100
0001
0010
0100
1000
,
0001
0010
0110
1000
0100
0010
0110
1000
,
0100
0000
1000
0100
0110
0000
1000
0000
0001
0000
0010
0000
0110
0000
0010
0001
,
0010
1000
0110
1000
0100
0010
0110
0010
,
0001
0000
1100
0010
0101
0000
0110
0000
1100
0000
1100
0000
0101
0000
0101
0010
,
0100
0001
0110
1000
0100
0010
0110
0010
,
0100
0000
1000
0100
1100
0000
0010
0000
0100
0000
0001
0000
0110
0000
1000
0000
,
0010
1000
0001
0000
0110
0000
1000
0000
0001
0000
0001
0000
0110
0000
1000
0000
,
0001
1100
1001
0110
1010
0110
1010
0011
,
2200
0000
0000
3300
0110
0000
1000
0000
0100
0000
0001
0000
0110
0000
0001
0000
,
0010
0000
1000
0010
1010
0000
0100
0000
0001
0000
1000
0000
0110
0000
1000
0100
,
1000
0000
0001
0000
0110
0000
0001
0000
1000
0000
0010
1000
1010
0000
0001
0000
,
0100
0000
1100
0001
1100
0000
0110
0000
1001
0000
0101
0000
0110
0000
1000
0100
,
1000
0010
1010
1000
0010
0100
1010
0010
,
0100
0000
1000
0100
1100
0000
0010
0000
0001
0000
0100
0000
1010
0000
1000
0100
,
1000
0001
1010
0100
0001
1000
1010
0100
,
0010
0000
0011
1000
0101
0000
0110
0000
1010
0000
1100
0000
0110
0000
0011
1000
,
2002
0000
0000
3003
0110
0000
1000
0000
0100
0000
0010
0000
0100
0000
1000
0000
,
1000
0000
0010
1000
0001
0000
1000
0000
0100
0000
0010
0000
0001
0000
0100
0010
,
1000
0000
0010
0000
1000
0000
0001
0000
1000
0000
0010
0100
0001
0000
1000
0000
,
0010
0000
0110
0000
1100
0000
1100
0000
0011
0000
0011
0000
1010
0000
1000
0001
,
1000
1010
1001
1100
1100
1010
1001
0110
,
0101
1001
0010
0101
,
0100
1100
0010
1001
,
0010
0000
0000
0000
0101
0000
0000
0000
0010
0000
0000
0000
0101
0000
1000
0001
,
1000
0100
0010
0100
1000
0100
1000
0001
0010
0001
0100
0010
0100
0001
1000
0001
,
0100
0000
0000
0000
0000
0000
0000
0000
0022
0000
0000
0000
0000
0000
1030
0203
,
2000
0000
0000
0000
0000
0000
0000
0000
3300
0000
0000
0000
0000
0000
0100
1000
,
2200
0000
0000
0000
3300
0000
0000
0000
0000
0000
0000
0000
0000
0000
0001
1000
,
2020
0000
3030
0000
,
0010
0100
0001
0010
0001
1000
0100
1000
0010
0010
0010
0010
1000
0100
0010
0001
,
1000
1000
1000
1000
0100
0010
0100
1000
0100
1000
0100
0010
0100
1000
0001
0001
,
0100
0010
1000
0100
1000
0001
0100
0001
0100
0001
1000
0100
0010
0100
1000
1000
,
1000
1000
0001
0100
0001
1000
0010
1000
0010
0100
0001
0010
0001
0010
0100
1000
,
0100
0010
0100
1000
0100
1000
0010
1000
0001
0001
0001
0001
1000
0100
0010
0001
,
0100
0100
0100
0100
0001
0100
0010
1000
0100
0010
0001
0100
0001
1000
0010
0100
,
0010
1000
0100
0010
0100
0010
0001
0010
0001
0100
0010
1000
0010
1000
0010
0010
,
0010
0010
1000
0100
1000
0100
0010
0001
0010
0100
1000
0100
0010
0100
0010
0001
,
1000
0000
1010
1000
0100
0010
0100
1000
,
1000
0000
0010
1000
0001
0000
1000
0000
0010
0000
1000
0000
0001
0000
1000
0100
,
1000
0001
0010
0100
0010
0100
0100
0001
,
0100
0000
0001
1000
1001
0000
0001
0000
1000
0000
1000
0000
0001
0000
0001
0010
,
0001
0000
1010
0100
0010
0001
1000
1000
,
0001
0000
1000
0100
1000
0000
0000
0000
0100
0000
1000
0000
0010
0000
1000
0000
,
0100
0000
0001
0000
1000
0100
1000
0010
,
0000
1010
0101
0110
1001
1100
0110
0011
,
0220
0330
0011
1000
0100
0010
0001
1000
,
0100
0000
1000
0100
1000
0000
0000
0000
0010
0000
0010
0000
0000
0000
0001
0100
,
0001
0000
0001
0000
1000
0000
0010
0010
,
0010
0000
1000
0010
1000
0000
1100
0000
0110
0000
0011
0000
1100
0000
0011
0001
,
0010
1000
0100
0001
0100
1000
0100
0010
,
0001
0000
0100
0001
0100
0000
0010
0000
1010
0000
0101
0000
1000
0000
0010
1000
,
0010
1010
1100
1001
,
0000
0000
1001
0000
0101
0000
0110
0000
1100
0000
0101
0000
1010
0000
0010
1000
,
0001
1100
1001
1010
0101
0101
1100
1100
,
1100
0000
0000
0000
;
