#TITLE:Life Light;
#SUBTITLE:;
#ARTIST:ASK;
#TITLETRANSLIT:;
#SUBTITLETRANSLIT:;
#ARTISTTRANSLIT:;
#CREDIT:;
#BANNER:Life Light-bn.png;
#BACKGROUND:Life Light-bg.png;
#LYRICSPATH:;
#CDTITLE:!snapps-cdtitle.png;
#MUSIC:ASK - Life Light.mp3;
#OFFSET:-11.451;
#SAMPLESTART:122.543;
#SAMPLELENGTH:10.219;
#SELECTABLE:YES;
#BPMS:0.000=95.000,32.000=190.000,128.000=47.500,144.000=95.000,175.000=190.001;
#STOPS:;
#BGCHANGES:;
// cache tags:
#FIRSTBEAT:0.000;
#LASTBEAT:312.500;
#SONGFILENAME:Songs/Fabulously Fresh Flock of Fantastic Files F5/(Snapps) Life Light/Life Light.sm;
#HASMUSIC:1;
#HASBANNER:1;
#MUSICLENGTH:147.443;
// end cache tags

//---------------dance-single - ----------------
#NOTES:
     dance-single:
     :
     Hard:
     12:
     0.965,1.000,1.000,0.441,0.773,772.000,159.000,65.000,0.000,4.000:  // measure 1
1000
0000
1000
0000
1010
0010
0001
0000
,  // measure 2
1000
0000
0100
0000
1010
0010
0001
0000
,  // measure 3
1000
0000
1000
0000
1010
0010
0001
0000
,  // measure 4
1000
0000
0100
0000
1010
0010
0102
0000
,  // measure 5
1003
0000
1000
0000
1010
0010
0001
0000
,  // measure 6
1000
0000
0010
0000
1010
0010
0001
0000
,  // measure 7
0020
0100
2030
0000
,  // measure 8
3020
0000
0000
2030
,  // measure 9
3100
0100
0100
0100
0100
0100
0100
0100
,  // measure 10
0010
0010
0010
0010
0010
0010
0010
0010
,  // measure 11
0001
0001
0001
0001
0001
0001
0001
0001
,  // measure 12
0001
0001
0001
0001
1000
0100
0010
0001
,  // measure 13
2000
0100
0100
0100
0100
0100
0100
0100
,  // measure 14
3020
0001
0001
0001
0001
0001
0001
0031
,  // measure 15
2000
3200
0320
0032
0203
0320
2030
3002
,  // measure 16
0203
0010
0010
0010
0001
0000
0001
0000
,  // measure 17
0311
0000
0010
1100
0001
1000
0101
1000
,  // measure 18
0011
0100
0001
1010
0100
1000
0110
0001
,  // measure 19
1100
0010
0100
1001
0010
0001
1100
0010
,  // measure 20
1002
0023
0230
2300
,  // measure 21
3101
0000
0100
0011
1000
0001
1010
0001
,  // measure 22
1100
0010
1000
0101
0010
0001
0110
1000
,  // measure 23
0011
0100
0010
1001
0100
1000
0011
0100
,  // measure 24
2010
3200
2300
3020
,  // measure 25
1031
0000
0001
1100
0010
1000
0101
1000
,  // measure 26
0011
0100
0001
1010
0100
1000
0110
0001
,  // measure 27
1100
0010
1000
0011
0100
0001
0110
1000
,  // measure 28
0102
0023
0230
2300
,  // measure 29
3011
0100
0010
1000
0010
0100
0001
0100
0010
0100
0010
1000
0010
0100
0001
0100
,  // measure 30
0011
1000
0010
1000
0100
0010
0001
0100
0010
0100
0001
0010
0100
1000
0100
0010
,  // measure 31
1001
0100
0010
1000
0010
0100
0001
0100
0011
1000
0010
1000
0100
0010
0001
0010
,  // measure 32
1001
0100
0010
0000
0101
0010
1000
0000
1010
0000
1000
0010
0100
0000
0100
0000
,  // measure 33
2000
0000
0000
0000
3020
0000
0000
0000
0230
0000
0000
0000
0320
0000
2030
3200
,  // measure 34
0302
0000
0000
2003
3002
0000
0203
0000
,  // measure 35
1300
0010
0100
0001
0020
0030
1000
0010
0100
0001
0020
0030
1000
0010
0100
0001
0020
0030
1000
0010
0100
0001
0020
0030
1000
0010
0100
0002
0000
0013
0100
0001
,  // measure 36
1000
0100
1000
0001
1000
0010
1000
0200
0000
1300
0010
0100
0001
0010
0001
0100
0010
1000
0010
0100
0010
0001
0010
0200
0000
0301
0010
0100
1000
0000
0100
0010
,  // measure 37
1001
0100
1000
0010
1000
0100
1000
0020
0000
0031
0100
0010
1000
0100
0010
0001
,  // measure 38
0100
0010
0100
0001
0100
0010
0100
0002
0000
0013
0100
1000
0010
0001
0010
1000
,  // measure 39
0001
0100
0001
1000
0001
0100
0001
2000
0000
3010
0100
0001
0010
0100
0001
0100
,  // measure 40
1000
0010
1000
0001
1000
0010
1000
0002
0000
0013
0100
1000
0020
0000
1030
0001
,  // measure 41
1100
0010
1000
0001
0200
0300
0100
0010
1000
0001
0200
0300
0100
0010
1000
0001
,  // measure 42
1200
0300
0100
0010
1000
0001
0200
0300
0100
0010
1000
0002
0000
0013
0100
0010
,  // measure 43
1001
0100
0010
0001
0100
0010
1000
0010
0100
0001
0010
0100
1000
0010
0100
0001
1100
0010
1000
0100
0010
0001
0100
0010
1000
0100
0010
0001
1000
0010
0100
0001
,  // measure 44
1100
0001
0010
0100
1000
0001
0100
0010
1001
0010
0100
0001
0100
0010
1000
0100
0000
0000
0011
0000
1100
0000
0011
0000
1100
0000
0000
0000
0000
0000
0000
0000
,  // measure 45
0110
0000
1000
0001
1000
0000
0100
0000
1001
0000
0010
0000
0100
0001
0100
0000
,  // measure 46
0011
0000
0100
0000
0010
1000
0010
0000
1001
0000
0010
0000
1000
0001
1000
0000
,  // measure 47
0110
0000
1001
0000
0100
0010
0100
0000
0011
0000
0100
0000
0001
1000
0001
0000
,  // measure 48
1010
0000
0100
0000
1000
0001
1000
0000
0011
0000
0011
0000
0001
1000
0001
0000
,  // measure 49
0110
0000
1010
0000
1000
0010
1000
0000
0101
0000
0010
0000
1000
0001
1000
0000
,  // measure 50
0110
0000
0001
0000
0010
0100
0010
0000
1100
0000
0010
0000
1000
0010
1000
0000
,  // measure 51
0011
0000
1001
0000
0100
0001
0100
0000
0011
0000
0100
0000
1000
0001
1000
0000
,  // measure 52
0101
0000
0010
0000
1001
0000
0110
0000
1100
0010
0100
0000
1001
0010
0100
0000
,  // measure 53
1010
0100
1000
0010
0101
0000
0010
0000
0100
0000
1000
0000
0102
0000
0000
0000
,  // measure 54
0013
0100
1000
0001
1020
0000
0130
1000
,  // measure 55
0101
0010
0201
0000
1300
0001
0010
0100
,  // measure 56
2010
0000
0000
0000
3100
0000
0001
0000
0010
0000
0100
0000
1020
0100
1030
0000
,  // measure 57
1010
0000
0011
0000
1010
0000
0100
0000
0001
0010
0001
0000
1010
0000
0100
0000
,  // measure 58
0011
0000
1000
0000
0101
0000
0010
0000
0100
1000
0100
0000
0011
0000
0100
0000
,  // measure 59
1001
0000
0100
0000
1010
0100
1000
0100
1000
0100
1000
0100
1001
0100
0001
0100
,  // measure 60
0001
0100
0001
0100
1001
0010
1000
0100
0011
1000
0001
0010
1001
0100
0010
0000
,  // measure 61
0101
1000
0010
0100
1001
0000
0010
0000
1001
0000
0100
0000
1001
0010
0101
0000
,  // measure 62
0011
0000
0101
0000
0010
0100
1010
0000
0010
0000
1100
0000
1010
0100
0010
0000
,  // measure 63
0101
0000
0010
0000
1001
0000
0010
0000
1100
0000
0010
0000
1001
0010
0101
0000
,  // measure 64
0010
0000
1100
0000
0100
0010
1001
0000
0010
0000
0101
0000
0110
1001
0110
0000
,  // measure 65
0110
0000
1001
0000
0011
0000
0010
0000
0011
0000
1000
0000
1001
0100
1010
0000
,  // measure 66
0100
0000
1001
0000
0100
1000
0101
0000
1000
0000
0011
0000
0101
1000
0100
0000
,  // measure 67
1001
0000
0100
0000
1010
0000
0100
0000
0011
0000
0100
0000
1010
0000
0101
1000
,  // measure 68
0010
0000
1100
0000
1001
0000
0100
0010
1001
0000
0010
0000
1100
0010
0100
0000
,  // measure 69
0011
0100
0010
1000
0001
0000
0100
0000
0001
1000
0100
0000
2001
0000
0100
0000
,  // measure 70
3001
0000
0100
0000
1000
0010
0100
0000
1002
0000
0010
0000
0103
0000
0010
0000
,  // measure 71
1000
0100
0010
0000
0201
0000
0010
0000
0301
0000
0100
0000
0001
1000
0100
0000
,  // measure 72
0021
0000
0100
0000
1030
0000
0001
0000
0100
0001
0010
0000
1000
0001
1000
0000
,  // measure 73
0011
0000
0011
0000
1100
0001
0100
0000
1010
0000
0100
0000
0010
0100
1000
0000
,  // measure 74
0101
0000
0010
0000
1100
0001
0100
0000
0011
0000
1000
0000
0101
0010
0100
0000
,  // measure 75
0011
0000
1000
0000
1001
0100
0010
0001
0010
0100
0001
0100
0011
0100
0010
0100
,  // measure 76
1000
0010
0100
0001
0110
0001
0100
0010
1100
0001
0100
0010
0101
0010
1000
0010
,  // measure 77
1100
0010
1000
0010
0200
0000
0000
0000
0000
0000
0000
0000
0000
0000
0000
0000
,  // measure 78
0000
0000
0000
0000
,  // measure 79
0000
0300
0000
0000
0000
0000
0000
0000
;
