#TITLE:Jyounetsu no Wobble;
#SUBTITLE:Tayutama -It's happy days- OP theme;
#ARTIST:kicco;
#TITLETRANSLIT:;
#SUBTITLETRANSLIT:;
#ARTISTTRANSLIT:;
#CREDIT:ALICE_;
#BANNER:Jyounetsu no Wobble.png;
#BACKGROUND:Jyounetsu no Wobble.jpg;
#LYRICSPATH:;
#CDTITLE:cdtitle.png;
#MUSIC:Jyounetsu no Wobble.mp3;
#OFFSET:0.240;
#SAMPLESTART:50.360;
#SAMPLELENGTH:12.000;
#SELECTABLE:YES;
#BPMS:0.000=160.000,256.000=160.200,272.000=160.000,293.500=80.040;
#STOPS:;
#BGCHANGES:0.500=Jyounetsu no Wobble.avi=1.000=1=0=1,
99999=-nosongbg-=1.000=0=0=0 // don't automatically add -songbackground-
;
// cache tags:
#FIRSTBEAT:8.000;
#LASTBEAT:301.000;
#SONGFILENAME:Songs/alice 4th complete step/Jyounetsu no Wobble/Jyounetsu no Wobble.sm;
#HASMUSIC:1;
#HASBANNER:1;
#MUSICLENGTH:119.230;
// end cache tags

//---------------dance-single - ----------------
#NOTES:
     dance-single:
     :
     Hard:
     8:
     0.654,0.663,0.327,0.218,0.046,481.000,39.000,26.000,0.000,0.000:
0000
0000
0000
0000
,
0000
0000
0000
0000
,
1000
0002
0103
0002
,
1003
0002
0103
0002
,
1003
0020
0130
0020
,
1030
0020
0130
0020
,
1030
0002
1003
0200
,
1300
0020
0130
0002
,
1003
0000
0200
0000
0310
0000
0011
1000
,
0000
0000
0010
0100
0001
1000
0100
0000
,
0010
0001
0100
0010
1000
0100
0010
0001
,
0100
0010
1000
0100
0010
0001
0100
0000
,
1000
0010
0001
1000
0100
0001
1000
0010
,
0001
1000
0100
0001
1000
0010
0001
0000
,
0100
1000
0010
0100
0001
0010
0100
1000
,
0010
0100
0001
0010
0100
1000
0010
0000
,
0001
0100
1000
0001
0010
1000
0001
0100
,
1000
0001
0010
1000
0001
0010
0100
1000
,
0102
0000
1003
0000
0100
0010
0001
0010
,
0100
0000
1000
0000
0100
0010
0001
0010
,
0100
0000
1000
0000
0010
0100
0001
0100
,
0010
0000
1000
0000
0010
0100
0001
0100
,
0010
0000
1000
0000
0001
0100
0010
1000
,
0001
0000
1000
0000
0100
0010
0001
1000
,
0010
0000
0100
0000
0001
1000
0010
0100
,
0001
0010
0001
1000
0000
2002
0000
3003
,
0010
1000
0001
0100
0100
0010
1000
0010
,
0100
0001
1000
0010
0010
0100
0001
1000
,
0010
0100
0001
1000
1000
0100
0010
0001
,
0100
0010
1000
0001
0001
0100
0010
1000
,
0001
0100
0001
0010
0010
0001
0100
0001
,
1000
0100
1000
0010
0010
0100
0001
1000
,
2100
0000
3002
0000
0103
0010
1000
0001
,
0010
0100
0100
1000
0010
0010
1000
0001
,
0101
0000
1100
0000
0001
0010
0001
1000
,
0010
0100
0001
1000
0100
0001
0100
0000
,
1010
0000
0011
0001
1000
0010
0100
0001
,
1000
0100
0010
0100
1000
0010
0100
2002
,
3000
0013
0100
0020
0000
0130
1000
0200
,
0000
1300
0001
2000
0000
3010
0100
0001
,
1001
0000
1100
0100
0110
0100
1000
0010
,
1001
0000
0101
0100
0110
0100
0001
1000
,
0010
0010
0100
0001
0010
0010
1000
0100
,
0010
0010
0001
0100
0010
0010
1000
0100
,
1000
0001
0100
0001
1000
0001
0100
1000
,
0200
0000
0000
0000
0000
0000
0000
0000
0000
0000
0300
0000
0010
0100
0010
0100
,
0001
0010
0100
1000
0000
0101
1001
0000
,
1000
0010
0100
0001
0000
1100
1001
0000
,
0100
0010
1000
0100
0000
0011
1001
0000
,
1000
0000
0010
0000
1000
0000
0100
0000
0010
0001
0100
0001
0010
0000
0001
1000
,
0100
0001
0100
1000
0010
0001
0010
1000
,
0001
0010
1000
0010
0001
0100
0010
1000
,
0101
0000
0000
0010
0000
0000
1000
0000
0010
0000
0100
0000
0001
0000
1000
0000
,
1100
0101
1010
0011
,
1000
0010
0100
0001
0000
0011
1001
0000
,
0001
0010
0100
1000
0000
1010
1001
0000
,
0100
0010
0100
0001
1000
0100
0010
0000
,
0001
0100
1000
0100
0001
1000
1001
0000
,
0100
0010
0001
1000
0010
0100
0010
0000
,
1000
0001
0010
1000
0010
0001
1000
0010
,
0100
1000
0100
0001
0010
1000
0010
0001
,
0100
1010
0110
1010
,
0100
0001
0100
1000
0010
0001
0010
1000
,
0100
0011
0110
0011
,
1000
0100
1000
0100
0001
0100
0001
0100
,
1000
0100
0010
0100
0001
0100
0010
0100
,
1000
0010
1000
0010
0001
0010
0001
0010
,
1000
0010
0100
0010
0001
0010
1000
0001
,
0010
0100
1000
0100
0010
0100
1000
0100
,
0010
0001
0010
0001
1000
0001
1000
0001
,
0100
0010
0001
0010
0100
0010
0001
0010
,
1000
0000
0001
0000
1000
0000
0001
0000
0100
0010
0100
0010
1000
0100
1000
0010
,
0000
0000
0000
0000
,
1001
0000
1000
0010
0001
0000
0220
0000
0000
0000
0000
0000
0000
0000
0000
0000
,
0000
0000
0000
0000
,
0000
0330
0000
0000
;

//---------------dance-single - ----------------
#NOTES:
     dance-single:
     :
     Medium:
     8:
     0.597,0.568,0.579,0.260,0.000,398.000,69.000,31.000,0.000,0.000:
0000
0000
0000
0000
,
0000
0000
0000
0000
,
2000
3100
1000
0000
,
0002
0103
0001
0000
,
2000
3010
0100
0000
,
0002
0103
0010
0000
,
2000
3001
0100
0000
,
0002
1003
0010
0000
,
0200
0000
0301
0000
1000
0000
0010
0200
,
0300
0101
1100
0110
,
0001
1000
0100
0100
1000
0010
0010
1000
,
0100
0100
1000
0010
0100
0001
0010
0000
,
1000
0001
0100
0100
0001
0010
0010
0001
,
0100
0100
0001
0010
0100
1000
0010
0000
,
0100
0001
0100
0100
0010
1000
1000
0010
,
0100
0100
0010
1000
1000
0010
0100
0000
,
0001
0010
0001
0001
1000
0100
0100
1000
,
0020
0230
0302
2003
,
3010
0000
0100
0000
0001
0010
0001
0010
,
0001
0000
0100
0000
0010
1000
0010
0100
,
0010
0000
0100
0000
0001
1000
0001
1000
,
0001
0000
0010
0000
0100
1000
0001
1000
,
0100
0000
1001
0000
0100
1000
0100
1000
,
0100
0000
0010
0000
0001
0100
0001
0010
,
0001
0000
1000
0000
0010
0100
0010
0100
,
0001
0000
1000
0000
0100
0020
0000
0030
,
0101
0000
1001
0000
0001
0100
0001
0000
,
1100
0000
0001
0000
1000
0100
1000
0000
,
0010
0000
0100
0000
0001
1000
0100
1000
,
0010
0010
0100
0000
0001
0001
1000
0000
,
0110
0000
1000
0000
0001
0010
0001
0000
,
1100
0000
0010
0000
0100
0001
0100
0000
,
1010
0000
1001
0000
1000
0100
1000
0010
,
0100
0001
1000
0100
1000
0001
0010
0000
,
1100
0000
1000
0000
0001
0100
0010
0100
,
0001
0100
0010
0100
0001
0010
0001
0000
,
0101
0000
0010
0000
1000
0100
0010
0100
,
1000
0100
0010
0100
1000
0010
0100
0001
,
0000
1000
1000
0100
0000
0010
0001
0100
,
0000
0001
0001
0010
0000
0100
1000
0010
,
0100
0110
0110
0110
,
0001
1001
1001
1001
,
1000
0100
0001
0100
1000
0010
0100
0010
,
1000
0001
0100
0001
0010
0001
1000
0001
,
0100
0010
0100
0010
1000
0001
1000
0001
,
2000
0000
3000
0110
,
0101
0101
1001
1100
,
1010
1010
1001
0011
,
0110
0110
1001
0101
,
1100
0000
1100
0000
0010
0100
0010
1000
,
0001
0101
0011
1100
,
1001
1010
0101
0110
,
1000
0100
0001
0100
1000
0010
0001
0010
,
0100
0001
0100
0001
1000
0100
1000
0100
,
0010
0101
1001
0101
,
0110
1100
1001
1100
,
0011
0101
1100
1010
,
1100
0101
1001
0110
,
1010
1010
0101
0011
,
1100
1100
0011
0101
,
0110
0000
0001
2000
3000
1000
0001
2000
,
3000
0010
0001
1000
0100
1000
0001
1000
,
0010
0000
1000
0002
0003
0001
1000
0010
,
0100
0001
1000
0001
0100
0001
1000
0001
,
0010
0100
0010
0200
0000
1300
0001
2000
,
0000
3010
0100
0020
0030
1001
0100
0000
,
0001
1000
0001
2000
0000
3100
0010
0200
,
0000
1300
0001
1000
0000
1001
0010
0000
,
0001
0010
0100
2000
0000
3010
0100
0002
,
0000
0013
0100
2000
0000
3010
0100
0000
,
1000
0100
0010
0002
0000
0103
0010
2000
,
3000
0100
0010
0002
0000
0103
0010
2000
,
3000
0001
0100
1000
0100
0001
1000
0100
,
1001
0000
0000
0220
0000
0000
0000
0000
,
0000
0000
0000
0000
,
0000
0330
0000
0000
;
