#TITLE:Gargoyle;
#SUBTITLE:;
#ARTIST:Sanxion7 (Steps By BeAsT1x5);
#TITLETRANSLIT:;
#SUBTITLETRANSLIT:;
#ARTISTTRANSLIT:;
#CREDIT:;
#BANNER:;
#BACKGROUND:;
#LYRICSPATH:;
#CDTITLE:;
#MUSIC:Gargoyle.mp3;
#OFFSET:-0.059;
#SAMPLESTART:100.000;
#SAMPLELENGTH:12.000;
#SELECTABLE:YES;
#BPMS:0.000=150.000,276.000=300.000,532.000=150.001,600.000=75.000,632.000=150.001,664.000=300.001,792.000=150.001;
#STOPS:;
#BGCHANGES:;
// cache tags:
#FIRSTBEAT:8.000;
#LASTBEAT:1084.500;
#SONGFILENAME:Songs/keyboard/Gargoyle/Gargoyle.sm;
#HASMUSIC:1;
#HASBANNER:0;
#MUSICLENGTH:377.652;
// end cache tags

//---------------dance-single - Blank----------------
#NOTES:
     dance-single:
     Blank:
     Hard:
     11:
     0.878,1.000,0.442,0.246,0.534,2061.000,167.000,93.000,0.000,0.000:

0000
0000
0000
0000
,
0000
0000
0000
0000
,
2002
0000
0000
0000
0000
3003
0000
0011
,
2200
0000
0000
0000
3300
0000
0000
0000
1001
0000
0001
1000
0000
1000
0001
0000
,
1000
0100
0010
0001
0010
0000
0110
0000
0001
0100
0010
1000
0010
0000
0110
0000
,
1000
0010
0100
0001
0010
0000
0110
0000
0001
0010
0100
1000
0010
0000
0110
0000
,
1000
0100
0001
0100
1000
0000
1100
0000
0001
0100
1000
0100
0001
0000
0101
0000
,
1000
0010
0001
0010
1000
0000
1010
0000
0001
0010
1000
0010
0001
0000
0011
0000
,
1000
0100
0010
0100
1000
0000
1100
0000
0001
0100
0010
0100
0001
0000
0101
0000
,
1000
0010
0100
0010
1000
0000
1010
0000
0001
0010
0100
0010
0001
0000
0101
0000
,
1000
0100
0010
0001
0010
0000
1100
0000
0001
0100
0010
1000
0010
0000
0101
0000
,
1000
0010
0100
0001
0100
0000
1010
0000
0001
0010
0100
1000
0100
0000
0011
0000
,
1000
0100
0010
0001
0100
0010
1000
0000
0001
0100
0010
1000
0100
0010
0001
0000
,
0010
0100
1000
0010
0100
0001
0010
0000
0010
0001
0100
0010
1000
0100
1000
0000
,
0100
1000
0010
0100
0001
0010
0100
0000
0100
0010
0001
1000
0100
0010
0100
0000
,
0100
1000
0010
0001
0010
1000
0100
0000
0100
0010
0001
0100
1000
0100
0010
0000
,
0010
1000
0100
0010
0001
0100
0010
0000
0010
0100
0001
0010
0100
1000
0100
0000
,
0100
0001
0100
0010
0001
0100
0010
0000
0010
1000
0100
0010
0100
1000
0010
0000
,
0100
0010
0100
1000
0100
0000
0110
0000
0010
0001
0010
0100
0010
0000
0110
0000
,
1000
0100
0010
0100
0001
0000
0110
0000
0001
0100
0010
0100
1000
0000
0110
0000
,
1000
0000
0100
0010
0000
0010
0001
0000
0101
0000
0001
0010
0000
0010
0100
1000
,
0010
0000
0010
0100
0000
0100
0001
0000
0011
0000
0010
0100
0000
0100
0001
0100
,
1000
0000
1000
0010
0000
0010
0100
0000
0101
0000
0001
0100
0000
0100
1000
0100
,
0010
0000
0010
1000
0000
1000
0100
0000
0110
0000
0010
0001
0000
0001
1000
0100
,
0010
0000
0010
0001
0000
0001
0100
0000
1100
0000
0100
0010
0000
0010
0001
0010
,
1000
0000
1000
0100
0000
0100
0010
0000
0110
0000
0100
0001
0000
0001
0100
1000
,
0010
0000
0010
0001
0000
0001
1000
0000
1100
0000
0100
0010
0000
0010
0001
1000
,
0100
0000
0100
0010
0000
0010
0001
1000
0100
0000
0100
0010
0000
0010
0100
1000
,
0010
0100
0001
0010
0000
0010
0001
0100
0010
1000
0100
0010
0000
0010
0100
1000
,
0010
0000
0010
0100
0000
0100
0001
0010
1000
0000
1000
0010
0000
0010
0001
0100
,
1000
0000
1000
0100
0000
0100
0010
1000
0100
0010
0100
0001
0000
0001
0100
0010
,
0001
0100
0010
0100
0000
0100
1000
0100
0010
1000
0100
0010
0000
0010
0001
0100
,
0010
1000
0010
0100
0001
0010
0100
0000
1000
0010
0100
0001
0010
0100
1000
0000
,
0100
0010
0001
1000
0100
1000
0001
0000
0001
0100
0001
0100
0010
1000
0100
0000
,
1000
0100
1000
0001
0100
0001
0100
0000
0010
1000
0010
0100
0001
0100
0010
0000
,
1000
0100
0010
0100
1000
0010
0100
0000
0100
1000
0100
0010
1000
0100
0010
0000
,
0220
0000
0000
0000
0330
0000
0000
0000
1100
0000
0100
0010
0000
0010
0001
0000
,
2002
0000
0000
0000
,
0000
0000
0000
3003
,
0000
1000
2000
0000
3100
0200
0000
0310
,
0020
0000
0000
0000
0001
0030
0002
0000
0000
0000
0103
0000
0100
0000
0020
0000
,
0000
0000
0100
0030
0200
0000
0000
0000
0301
0000
0001
0000
0000
0000
0022
0000
,
0000
0033
0100
0000
0200
0000
0000
0300
1000
0000
2000
0000
0000
0000
3020
0000
,
0000
0030
0100
0000
0002
0000
0000
0003
0010
0000
0100
0000
0000
0000
1000
0000
,
0010
0000
0001
0010
1000
0100
0010
0001
,
0010
1000
0010
0001
0100
1000
0100
0010
,
0001
0010
1000
0100
0010
0001
0010
1000
,
0100
1000
0010
0001
0100
1000
0001
0010
,
1000
0010
0001
1000
0100
0001
0010
0011
,
1000
0001
0100
1000
0100
0001
0000
0101
,
0000
1000
0010
0001
0100
1000
0000
1100
,
0000
0100
0010
0001
0100
1000
0010
1000
,
0100
0010
0001
1000
0100
0001
0010
0100
,
1000
0000
0100
0000
0110
0000
0000
0000
1000
0100
1000
0100
1000
0000
0000
0000
,
0001
0000
0100
0000
0110
0000
0000
0000
0001
0100
0001
0100
0001
0000
0000
0000
,
0010
0000
0100
0000
1001
0000
0000
0000
0010
0100
0010
0100
0010
0000
0000
0000
,
0100
0000
0010
0000
1001
0000
0000
0000
0100
0010
0100
0010
0100
0000
0000
0000
,
1000
0000
0100
0000
0011
0000
0000
0000
1000
0100
0010
0001
1000
0000
0000
0000
,
0001
0000
0100
0000
1010
0000
0000
0000
0001
0100
0010
1000
0100
0000
0000
0000
,
0010
0000
0100
0000
1001
0000
0000
0000
0010
0100
0001
0100
1000
0000
0000
0000
,
0100
0000
0010
0000
1001
0000
0000
0000
0010
0100
1000
0100
0001
0000
0000
0000
,
1000
0000
0100
0000
0110
0000
0010
0001
0100
0010
0100
0001
0010
0100
1000
0100
,
0010
0000
0001
0000
0101
0000
0001
0100
0010
0100
1000
0100
0010
1000
0100
0010
,
0001
0000
0100
0000
1010
0000
0100
0001
0010
0100
1000
0010
0100
0010
1000
0100
,
0010
0000
0001
0000
0101
0000
0001
0100
1000
0100
0001
0010
0100
1000
0100
0010
,
0001
0000
0100
0000
0110
0000
1000
0100
0010
0001
1000
0100
0010
0001
1000
0100
,
0010
0000
0001
0000
0110
0000
0001
0100
0010
1000
0001
0100
0010
1000
0001
0100
,
0010
0000
0100
0000
0110
0000
1000
0100
0010
0100
1000
0010
0100
0010
0001
0010
,
0100
1000
0100
0010
1000
0100
0010
0001
0100
0010
0100
1000
0100
0010
0100
0001
,
1000
0100
0010
0001
,
0100
0010
0001
0010
,
1000
0100
0010
0001
,
0010
1000
0001
0100
,
1000
0010
0001
0010
,
1000
0100
0010
0001
,
0010
1000
0100
1000
,
0010
0001
0100
1000
,
0001
0010
1000
0010
,
0001
1000
0100
0011
,
0001
0010
1000
0010
,
0001
0010
1000
0010
,
1000
0100
1000
0100
,
0001
0100
1000
0001
,
0010
1000
0010
0001
,
1000
0100
0001
0010
,
0001
0000
0010
0000
0110
0000
1000
0100
,
0010
0001
0010
0100
1000
0010
0100
0001
,
0100
0000
0010
0000
0110
0000
0001
0100
,
0010
0100
0001
0100
1000
0100
0010
0100
,
0001
0000
1000
0000
1001
0000
1000
0100
,
0010
0001
0100
0010
0100
1000
0100
0010
,
1000
0000
0100
0000
0110
0000
0010
0001
,
0010
0100
0010
1000
0010
0100
0010
0001
,
0100
0000
0010
0000
1100
0000
1000
0100
,
0010
0100
1000
0010
0100
0001
0010
0100
,
1000
0000
0010
0000
0101
0000
0010
1000
,
0100
0010
0001
0100
0010
1000
0100
0010
,
0001
0000
0100
0000
0110
0000
0100
0001
,
0010
0100
1000
0010
0100
0001
0010
0100
,
1000
0000
0010
0000
1001
0000
1000
0100
,
0010
0100
0001
0100
0010
0100
1000
0010
,
0100
0000
1000
0000
1100
0000
1000
0100
,
0010
0100
1000
0010
0100
0001
0010
1000
,
0010
0000
0001
0000
0011
0000
0001
0100
,
0010
0100
1000
0100
0010
1000
0100
0010
,
0001
0000
0100
0000
1010
0000
0100
0001
,
0010
1000
0010
0001
0100
1000
0100
0010
,
1000
0000
0100
0000
0110
0000
0010
0001
,
0100
0010
0100
0010
0001
0010
1000
0100
,
0010
0000
0001
0000
0101
0000
0001
0100
,
1000
0100
0010
1000
0100
0001
0100
0010
,
0001
0000
0100
0000
1100
0000
0100
0010
,
1000
0100
0010
0001
0100
1000
0100
0010
,
1000
0000
0100
0000
0011
0000
0010
0100
,
1000
0010
0100
0001
0010
1000
0010
0001
,
0100
0000
0010
0000
1001
0000
1000
0100
,
0010
0001
1000
0100
0010
0001
1000
0100
,
0010
0001
0101
0010
,
1000
1100
1000
0100
,
0011
0000
0010
0000
0100
0000
1000
0010
,
1000
0100
0001
0010
,
1000
0001
0110
0100
,
1000
1010
0100
0010
,
0101
1000
0100
0011
,
0110
1100
1001
1100
,
0011
0000
1000
0100
1000
0000
1010
0000
,
0100
0001
0100
0000
0010
0000
1001
0000
,
0110
0000
1000
0100
0010
0000
0001
0100
,
0010
1000
0100
0010
0001
0000
1001
0000
,
1000
0100
0010
0100
1000
0000
0001
0100
,
0010
0100
0001
0000
1000
0100
0010
0000
,
0001
0100
0010
1000
0100
0010
0100
1000
,
0010
0100
0001
0100
0010
1000
0100
0010
,
2002
0000
0000
3003
,
1100
0000
0100
0010
0000
0010
0001
0100
0010
0000
0010
1000
0000
0001
0100
0010
,
1000
0000
1000
0100
0000
0100
0010
0000
0011
0000
0001
0100
0000
0100
0010
0100
,
0001
0000
0001
0010
0000
0010
0100
0000
1100
0000
1000
0010
0000
0010
0100
0001
,
0010
0000
0010
1000
0000
1000
0010
0000
0011
0000
0001
0100
0000
0100
0010
1000
,
0100
0010
0001
0100
0000
0100
1000
0000
1100
0000
0100
0001
0000
0001
0010
0100
,
1000
0010
0100
0001
0010
0000
0010
0100
1000
0000
1000
0010
0000
0010
0101
0000
,
0010
1000
0100
0010
0100
1000
0001
0100
,
0010
0100
0001
1000
0010
0100
0010
1000
,
0001
0010
0100
0010
0001
1000
0100
0010
,
0001
1000
0010
0100
0001
0010
0100
0001
,
0100
0010
0001
0100
0010
0001
0010
1000
,
0100
0010
1000
0010
0100
1000
0010
0100
,
0001
0010
1000
0010
0001
0100
1000
0100
,
0010
1000
0100
0010
0001
0100
0010
1000
,
0100
0010
0001
0100
1000
0001
0010
1000
,
0100
0010
0001
0100
1000
0001
0010
0100
,
1000
0100
0010
0001
0000
0011
0000
0110
0000
1100
0000
0100
1000
0010
0001
1000
,
0100
0001
0100
2000
0000
3002
0000
0023
0000
2030
0000
3100
0001
1000
0010
0001
,
0010
1000
0001
0200
0000
2300
0000
3010
0001
1000
0100
0002
0000
0103
0000
1000
,
0001
0010
1000
0020
0000
0032
0000
0203
0000
0301
0010
1000
0100
0010
0001
0100
,
1000
0100
0010
0002
0000
0023
0000
2030
0000
3200
0000
0310
0001
0010
1000
0100
,
1000
0010
0001
0200
0000
2300
0000
3002
0000
0023
0000
1030
0100
1000
0010
0001
,
1000
0100
0001
0020
0000
2030
0000
3001
0100
1000
0020
0002
0030
0023
0000
1030
,
0100
0010
0001
0020
0000
2030
0000
3002
0000
0103
1000
0020
0000
0130
0001
0010
,
0110
0000
1000
0100
0010
0000
0011
0000
0000
0000
0110
0000
0000
0000
1100
0000
,
0000
0000
0110
0000
0010
0000
0001
0100
1000
0000
0100
0000
0010
0000
1000
0000
,
0100
0001
0100
1100
0000
0110
0000
0011
,
0000
1001
0000
0110
1000
0100
0010
0001
,
0100
0000
1000
0001
0010
0000
1000
0000
0000
0000
1100
0000
0000
0000
0110
0000
,
0010
0000
0001
0100
1000
0000
1100
0000
0000
0000
0101
0000
0000
0000
1001
0000
,
1000
0000
0100
0010
0100
0000
0110
0000
0000
0000
1100
0000
0000
0000
0110
0000
,
0000
0010
0001
0100
1000
0001
1000
0100
,
1001
0000
1000
0100
0010
0000
0022
0000
,
0033
2002
3003
0220
,
0330
0000
1001
0000
1100
0000
0100
0010
,
0001
0100
0010
1000
0100
0010
0100
1000
,
0010
0000
0100
0001
0010
0000
0220
0000
,
0330
2200
3300
0220
,
0330
0000
2002
0000
0000
3003
1000
0100
,
0010
0001
0100
0010
0100
0001
0010
0100
,
1000
0000
1000
0010
0100
0000
0101
0000
,
0010
1001
0100
0110
,
0101
0000
0001
0100
1000
0000
1100
0000
,
0100
0101
0010
1000
,
1010
0000
1000
0100
0010
0000
0022
0000
,
0033
0220
0330
1100
,
0220
0330
1000
0100
0010
0000
0011
0000
,
0001
0010
0100
1000
0010
0100
0001
0010
,
1000
0000
1000
0010
1000
0000
0220
0000
,
0330
0202
0303
2200
,
3300
0110
0000
1001
,
0100
1010
0100
0101
,
1001
0000
1000
0100
1000
0000
1100
0000
,
0000
0101
0000
0110
,
0000
0000
1001
0000
0000
0000
1000
0001
,
0010
1000
0010
0001
,
0100
0000
1000
0100
1000
0000
2200
0000
,
3300
0220
0330
0101
,
1001
0000
0010
1000
0100
0000
0110
0000
,
0000
1001
0000
0010
,
1000
0100
0001
1000
,
0000
0010
0000
0001
,
0000
0100
1000
0100
,
0010
1000
0100
0010
,
1001
0100
1000
0100
0010
1000
0100
0001
,
0100
0000
1000
0000
0010
0000
0001
0000
2000
3000
0100
0000
0001
0000
0100
0000
,
1000
0001
0010
1000
0100
0001
0100
0010
,
0001
0100
1000
0100
0001
0010
0100
0001
,
1000
0010
0001
0100
1000
0001
1000
0100
,
0010
1000
0100
0010
1000
0010
0100
1000
,
0010
0100
0001
0010
0100
0010
0001
0100
0010
1000
0100
0010
0100
1000
0010
0100
,
1000
0100
0010
1000
0100
0010
0001
0010
0100
0001
0100
0010
0001
0100
0010
0001
,
0010
0010
0100
0100
1000
1000
0010
0010
,
0001
0001
1000
1000
0100
0100
0001
0101
,
0010
0010
0100
0100
0001
0001
1000
1000
,
0010
0010
0001
0001
0100
0100
1000
1100
,
0100
0100
0010
0010
1000
1000
0100
0100
,
0001
0001
0010
0010
0001
0001
0100
0110
,
1000
1000
0010
0010
0100
0100
0001
0010
,
2002
0000
0000
0000
3003
0000
0000
0000
1100
0000
0100
0010
0000
0000
1001
0000
,
0110
1000
0100
0001
1000
0010
0001
0010
,
1000
0001
0100
1000
0010
0001
0100
0001
,
0010
1000
0100
0001
0010
0001
0100
1000
,
0001
0100
1000
0100
0010
0001
0010
1000
,
0010
0001
1000
0100
0001
0010
1000
0001
,
0100
1000
0010
0001
0010
1000
0010
0001
,
1000
0100
0001
0100
1000
0001
0010
1000
,
0100
0001
1000
0010
0001
0100
1000
1100
,
0100
0010
0001
0010
1000
0100
0010
0001
,
0010
1000
0001
0100
1000
0010
0001
0010
,
0100
0010
1000
0100
0010
0100
0001
0100
,
0010
0001
0100
0010
0100
1000
0001
0010
,
1000
0100
0010
1000
0001
1000
0010
0001
,
0100
1000
0001
0010
0001
0010
0100
0001
,
0010
0100
0001
0100
0010
0001
0100
0010
,
0001
0010
1000
0100
0010
1000
0010
0001
,
0100
0010
0001
0010
1000
0100
0010
0001
,
0010
1000
0001
0100
1000
0100
0001
1000
,
0010
1000
0100
1000
0010
0001
0100
1000
,
0001
0010
1000
0010
0001
1000
0100
0001
,
0010
0010
1000
0001
0100
1000
0010
0001
,
0010
1000
1000
0010
0001
0010
1000
0001
,
0100
1000
0010
0001
0010
1000
0001
0100
,
1000
0100
0001
0010
1000
0001
0100
1000
,
0010
0001
0010
1000
0100
0010
0010
0001
,
0100
0100
1000
0100
0010
0001
0010
0110
,
0001
0010
1000
1000
0100
0010
0010
0001
,
0100
0100
1000
0100
0010
0001
0010
1010
,
1000
0100
0001
1000
0010
0001
0010
1000
,
0001
0100
1000
0010
0001
0010
1000
0110
,
0010
0001
0100
1000
0100
0010
0001
0010
,
1000
0100
0010
0001
0100
1000
0100
0010
,
1000
0100
1000
0100
1000
0000
0000
0000
0001
0100
0001
0100
0001
0000
0000
0000
,
1000
0010
1000
0010
1000
0000
0000
0000
0001
0010
0001
0010
0001
0000
0000
0000
,
1000
0100
0010
0001
1000
0000
0000
0000
0001
0100
0010
1000
0001
0000
0000
0000
,
0001
0100
0010
0100
0001
0000
0000
0000
1000
0100
0010
0100
1000
0000
0000
0000
,
0001
0100
1000
0100
0001
0000
0000
0000
1000
0100
0001
0100
1000
0000
0000
0000
,
1000
0010
0001
0010
1000
0000
0000
0000
0001
0010
1000
0010
0001
0000
0000
0000
,
0100
0000
0010
0000
0001
0000
0010
0000
1000
0100
0010
0001
0010
0000
0000
0000
,
0001
0000
0010
0000
1000
0000
0010
0000
0001
0100
1000
0100
0001
0000
0000
0000
,
1000
0000
0100
0000
0010
0000
0001
0000
0010
1000
0010
0100
0010
0000
0000
0000
,
0001
0000
0100
0000
0010
0000
0100
0000
0001
1000
0100
0010
0001
0000
0000
0000
,
0001
0000
0100
0000
1000
0000
0100
0000
0001
0010
0100
1000
0010
0000
0000
0000
,
0001
0000
0010
0000
1000
0000
0100
0000
0010
0001
0010
0100
1000
0000
0000
0000
,
1000
0000
0010
0000
0001
0000
0010
0000
1000
0100
0010
0001
0100
0000
0000
0000
,
0001
0000
0100
0000
1000
0000
0100
0000
0010
1000
0100
0010
0001
0000
0000
0000
,
0001
0000
0100
0000
1000
0000
0100
0000
0010
1000
0100
1000
0010
0000
0000
0000
,
0100
0000
0001
0000
0010
0000
0001
0000
0100
0010
1000
0100
1000
0000
0000
0000
,
2000
0000
0000
0000
0001
0000
0000
0000
0010
0000
0000
0000
0001
0000
0000
3000
,
0002
0100
1000
0010
,
0020
0003
0000
0000
1000
0000
0000
0000
0100
0000
0000
0000
0001
0000
0000
0000
,
0230
0001
0010
1300
,
2000
0010
0100
0010
,
3002
0100
0010
0100
,
2003
0010
0001
3010
,
1000
0100
0010
0100
1000
0010
0100
1000
0100
0010
1000
0100
0010
0001
1000
0002
,
2000
0000
0000
0000
0000
0000
3003
0220
,
0000
0330
0000
0000
0000
0000
0000
0000
;
