#TITLE:Bring Me To Life;
#SUBTITLE:Sexuality Violation;
#ARTIST:Evanescence;
#TITLETRANSLIT:;
#SUBTITLETRANSLIT:;
#ARTISTTRANSLIT:;
#CREDIT:;
#BANNER:bringmetolife-bn.png;
#BACKGROUND:bringmetolife-bg.png;
#LYRICSPATH:;
#CDTITLE:;
#MUSIC:02 - Bring Me To Life.ogg;
#OFFSET:-0.513;
#SAMPLESTART:97.772;
#SAMPLELENGTH:12.000;
#SELECTABLE:YES;
#DISPLAYBPM:190.000;
#BPMS:0.000=190.000,436.000=95.000,464.000=47.500,464.500=95.000,465.000=190.000,466.000=285.000,467.500=380.000,469.500=475.000,472.000=190.000;
#STOPS:471.938=0.316
;
#BGCHANGES:;
// cache tags:
#FIRSTBEAT:32.000;
#LASTBEAT:712.000;
#SONGFILENAME:Songs/Sexuality Violation 2/Bring Me To Life - [Janus5k]/theresatrick.sm;
#HASMUSIC:1;
#HASBANNER:1;
#MUSICLENGTH:235.964;
// end cache tags

//---------------dance-single - T. A. Trick----------------
#NOTES:
     dance-single:
     T. A. Trick:
     Challenge:
     16:
     1.000,1.000,0.610,0.246,1.000,1647.000,144.000,58.000,637.000,0.000:
0000
0000
0000
0000
,
0000
0000
0000
0000
,
0000
0000
0000
0000
,
0000
0000
0000
0000
,
0000
0000
0000
0000
,
0000
0000
0000
0000
,
0000
0000
0000
0000
,
0000
0000
0000
0000
,
200M
0M00
000M
00M0
0M00
000M
00M0
0M00
,
30M2
0M00
2M03
000M
0M00
0M00
302M
M000
,
0M00
0M00
M000
000M
M230
M000
03M2
M000
,
0M00
0M00
20M3
0M00
000M
00M0
320M
M000
,
M000
000M
00M0
00M0
030M
M000
02M0
00M0
,
230M
0M00
30M2
00M0
M000
M000
02M3
M000
,
000M
0000
0000
0000
M000
0000
0000
0000
00M0
00M0
00M0
00M0
00M0
0000
0000
0000
M000
M000
M000
M000
M000
M000
M000
M000
M000
0000
0000
0000
00M0
0000
0000
0000
,
000M
000M
000M
000M
000M
0000
0000
0000
00M0
00M0
00M0
00M0
00M0
00M0
00M0
00M0
03M0
0000
0000
0000
M000
0000
0000
0000
000M
0000
0000
0000
00M0
0000
0000
0000
,
0M02
0M00
00M0
M000
0M00
0M00
M000
00M0
,
2M03
0M00
302M
M000
0M00
000M
M230
M000
,
000M
00M0
000M
00M0
03M2
M000
2M03
0M00
,
00M0
00M0
320M
00M0
M000
000M
230M
00M0
,
000M
0M00
0M00
00M0
300M
0M00
00M2
M000
,
0M23
M000
023M
000M
M000
00M0
230M
00M0
,
0M00
0000
0M00
0000
302M
000M
000M
M000
M230
000M
000M
M000
03M2
00M0
M000
00M0
,
2M03
0M00
0M00
0M00
0M00
0M00
0M00
0M00
0M00
0M00
0M00
0M00
3M00
0000
0000
0000
,
1001
0001
0000
1000
1100
0000
0100
0010
,
0001
0010
0100
0000
1001
0000
1000
0010
,
0100
0001
1000
0000
1100
0100
0000
0010
,
0001
0000
1000
0010
0110
0000
0100
0000
,
0001
1000
0000
0100
0110
0000
0010
0001
,
1000
0001
0010
0000
1001
0001
1000
0000
,
0010
0100
0001
0000
1001
1000
0000
0100
,
0010
0000
0001
1000
1010
0000
0010
0100
,
0001
1000
0000
0001
0011
0000
0010
0100
,
1000
0100
0010
0000
1001
0000
0001
0100
,
0010
1000
0001
0000
0011
0010
0000
0100
,
1000
0000
0001
0100
0110
0000
0010
0000
,
1000
0001
0000
0010
0110
0000
0100
1000
,
0001
1000
0100
0000
1001
1000
0001
0000
,
0100
0010
1000
0000
1001
0001
0000
0010
,
0100
0000
1000
0001
0101
0000
0100
0010
,
MMMM
0000
0000
0000
0000
0000
0000
0000
0000
0000
0000
0000
0000
0000
0000
0MMM
,
1001
1000
0001
1000
0100
0010
0001
0010
0100
1000
0001
1000
0100
0010
0001
0100
,
0010
1000
0001
1000
0010
0100
0001
1000
0100
0010
0001
0010
0100
1000
0001
0MMM
,
1010
1000
0010
0100
0001
1000
0001
0010
0100
1000
0001
1000
0100
0010
0001
0100
,
0010
1000
0010
0100
0001
1000
0001
0010
0100
1000
0100
0010
0001
1000
0001
MM0M
,
0011
0010
0001
1000
0010
1000
0001
MM0M
0110
1000
0100
0010
0001
1000
0010
0100
,
0010
1000
0100
0010
0100
1000
0001
0100
0010
1000
0010
0100
0001
0010
0100
0MMM
,
1001
1000
0010
0100
0001
0100
0010
0MMM
1001
1000
0100
0010
0001
0010
0100
0MMM
,
1001
1000
0001
0100
0010
1000
0001
0MMM
1001
1000
0001
0010
0100
1000
0001
0MMM
,
1001
1000
0001
1000
0010
0100
0001
0100
0010
1000
0001
1000
0010
0100
0001
0010
,
0100
1000
0001
1000
0100
0010
0001
1000
0010
0100
0001
0100
0010
1000
0001
0MMM
,
1100
1000
0100
0010
0001
1000
0001
0100
0010
1000
0001
1000
0010
0100
0001
0010
,
0100
1000
0100
0010
0001
1000
0001
0100
0010
1000
0010
0100
0001
1000
0001
M0MM
,
0101
0100
0001
1000
0100
1000
0001
M0MM
0110
1000
0010
0100
0001
1000
0100
0010
,
0100
1000
0010
0100
0010
1000
0001
0010
0100
1000
0100
0010
0001
0100
0010
0MMM
,
1001
1000
0100
0010
0001
0010
0100
0MMM
1001
1000
0010
0100
0001
0100
0010
0MMM
,
1001
1000
0001
0010
0100
1000
0001
0MMM
1001
1000
0001
0100
0010
1000
0001
0000
,
MMMM
0000
0000
0000
,
0000
0000
0000
0000
1000
1000
0400
0000
,
1301
1000
0000
0010
0110
0000
0100
0001
,
0000
1000
0001
0000
0011
0010
0100
0010
,
0000
0001
1000
0000
1010
0010
0000
0100
,
0001
0000
2000
3000
1100
0100
0040
0000
,
0031
1000
0000
0010
0110
0000
0100
0001
,
0000
1000
0001
0000
0011
0010
0100
0010
,
0000
0001
1000
0000
1010
0010
0000
1000
,
0001
0000
0020
0030
0110
0100
4000
0000
,
3001
0100
0000
0010
1010
0000
1000
0001
,
0000
0010
0001
0000
1001
1000
0100
1000
,
0000
0001
0100
0000
0110
0010
0000
1000
,
0001
0000
2000
3000
1100
0100
0040
0000
,
0031
1000
0000
0010
1010
0000
1000
0001
,
0000
0010
0100
0000
1001
1000
0010
1000
,
0000
0001
0010
0000
0110
0100
0000
1000
,
0001
0000
0000
0000
0000
0000
0000
0000
0000
0000
0000
0000
0000
0000
0000
0000
0200
0000
0000
0000
0000
0000
0000
0000
0300
0000
0000
0000
0000
0000
0000
0000
0110
0000
0000
0000
0000
0000
0000
0000
0010
0000
0000
0000
0000
0000
0000
0000
4000
0000
0000
0000
0000
0000
0000
0000
0000
0000
0000
0000
0000
0000
0000
3000
,
MMMM
00M0
0000
00M0
00M0
0000
00M0
00M0
,
0000
0000
0000
0000
0000
0000
0000
0000
00M0
0000
0000
0000
00M0
0000
0000
0000
00M0
0000
0000
0000
0000
0000
0000
0000
0000
0000
0000
0000
0000
0000
0000
0000
00M0
00M0
00M0
00M0
00M0
00M0
00M0
00M0
00M0
00M0
00M0
00M0
00M0
00M0
00M0
00M0
00M0
00M0
00M0
00M0
00M0
00M0
00M0
00M0
00M0
00M0
00M0
00M0
MMM0
00M0
00M0
00M0
,
1001
0001
1000
0001
0010
0100
1000
0100
0010
0001
1000
0001
0010
0100
1000
0010
,
0100
0001
1000
0001
0100
0010
1000
0001
0010
0100
1000
0100
0010
0001
1000
MMM0
,
0101
0001
0100
0010
1000
0001
1000
0100
0010
0001
1000
0001
0010
0100
1000
0010
,
0100
0001
0100
0010
1000
0001
1000
0100
0010
0001
0010
0100
1000
0001
1000
M0MM
,
1100
0100
1000
0001
0100
0001
1000
M0MM
0110
0001
0010
0100
1000
0001
0100
0010
,
0100
0001
0010
0100
0010
0001
1000
0010
0100
0001
0100
0010
1000
0100
0010
MMM0
,
1001
0001
0100
0010
1000
0010
0100
MMM0
1001
0001
0010
0100
1000
0100
0010
MMM0
,
1001
0001
1000
0010
0100
0001
1000
MMM0
1001
0001
1000
0100
0010
0001
1000
MMM0
,
1001
0001
1000
0001
0100
0010
1000
0010
0100
0001
1000
0001
0100
0010
1000
0100
,
0010
0001
1000
0001
0010
0100
1000
0001
0100
0010
1000
0010
0100
0001
1000
MMM0
,
0011
0001
0010
0100
1000
0001
1000
0010
0100
0001
1000
0001
0100
0010
1000
0100
,
0010
0001
0010
0100
1000
0001
1000
0010
0100
0001
0100
0010
1000
0001
1000
MM0M
,
1010
0010
1000
0001
0010
0001
1000
MM0M
0110
0001
0100
0010
1000
0001
0010
0100
,
0010
0001
0100
0010
0100
0001
1000
0100
0010
0001
0010
0100
1000
0010
0100
MMM0
,
1001
0001
0010
0100
1000
0100
0010
MMM0
1001
0001
0100
0010
1000
0010
0100
MMM0
,
1001
0001
1000
0100
0010
0001
1000
MMM0
1001
0001
1000
0010
0100
0001
1000
M0MM
,
0110
0100
1000
0001
1000
0100
0010
0001
1000
0001
0100
0010
1000
0010
0100
MMM0
,
1001
0001
0010
0001
1000
0001
0010
0100
1000
0010
1000
0001
1000
0010
0100
MMM0
,
1001
0001
0010
0100
1000
0001
0010
0100
1000
0001
1000
0010
0100
0001
1000
MMM0
,
0011
0001
1000
0001
1000
0100
0010
0001
1000
0010
1000
0001
0100
0001
1000
MMM0
,
0011
0001
0100
0010
1000
MMM0
0011
0001
0100
0010
1000
MMM0
0011
0001
0100
0001
,
1000
0001
0010
0001
0100
0010
1000
0001
1000
0100
0010
0001
1000
0001
0100
0010
,
1000
MMM0
0101
0001
0010
0100
1000
MMM0
0101
0001
0010
0100
0010
MMM0
1001
0001
,
1000
0100
0010
M0MM
1100
0100
1000
MMM0
0101
0001
1000
MM0M
1010
0010
1000
MMM0
,
0101
0001
1000
0001
1000
0010
0100
0001
1000
0001
0010
0100
1000
0100
0010
MMM0
,
1001
0001
0100
0001
1000
0001
0100
0010
1000
0100
1000
0001
1000
0100
0010
MMM0
,
1001
0001
0100
0010
1000
0001
0100
0010
1000
0001
1000
0100
0010
0001
1000
MMM0
,
0101
0001
1000
0001
1000
0010
0100
0001
1000
0100
1000
0001
0010
0001
1000
MMM0
,
0101
0001
0010
0100
1000
MMM0
0101
0001
0010
0100
1000
MMM0
0101
0001
0010
0100
,
1000
MMM0
0101
0001
0010
0100
1000
MMM0
0101
0001
1000
0001
0010
0100
1000
MMM0
,
0101
0001
1000
0100
0010
0001
1000
MMM0
0011
0001
1000
0010
0100
0010
1000
MMM0
,
0101
0001
1000
0100
1000
0001
0010
M0MM
1100
0100
0010
0001
1000
0001
0100
0010
,
200M
0000
00M0
0000
0M01
0000
3M01
0010
010M
0000
M020
0000
0M32
0000
2M03
0000
,
001M
0000
3M01
1000
002M
0000
M230
0301
10M0
0000
0M02
0000
M010
0000
M203
0000
,
001M
0000
M000
0301
20M0
0000
320M
0000
M310
0000
0M02
0000
10M0
0000
1M03
0000
,
101M
0000
M000
0000
0M11
0000
00M2
0000
1M03
0000
002M
0130
M010
1000
020M
0310
,
MM11
0000
00M0
0000
M001
0000
2M00
0001
01M0
0000
001M
0000
3M02
0000
M023
0000
,
010M
0000
M000
0100
000M
0030
210M
0100
00M1
0000
3M02
0000
M100
0000
20M3
0000
,
010M
0000
01M0
3100
002M
0000
0M32
1000
10M0
0000
M103
0001
M020
0130
200M
3010
,
M11M
0000
0000
0000
,
0000
0000
0000
0000
0000
0000
0000
0000
0000
0000
0000
0000
0000
0000
0000
0000
0000
0000
0000
0000
0000
0000
0000
0000
0000
0000
0000
0000
0000
0000
0000
0000
0000
0000
0000
0000
0000
0000
0000
0000
0000
0000
0000
0000
0000
0000
0000
0000
0000
0000
0000
0000
0000
0000
0000
0000
0000
0000
0000
0000
0000
0000
0000
0MMM
,
1001
1000
0100
0010
0001
1000
0100
0010
0100
0010
0001
1000
0001
1000
0010
0100
,
0001
0100
0010
1000
0100
1000
0001
0010
0001
0100
0001
0010
0100
1000
0001
M0MM
,
0110
0100
0010
1000
0010
0100
0001
0010
0100
1000
0100
0010
0100
1000
0001
1000
,
0010
0100
0001
1000
0100
0010
0001
1000
0010
0100
0001
1000
0100
0010
0100
0MMM
,
1001
1000
0100
0010
0100
1000
0010
1000
0001
0100
0001
1000
0100
1000
0010
1000
,
0001
0100
0001
1000
0100
1000
0010
1000
0001
0010
0001
1000
0100
1000
0010
M0MM
,
0101
0100
0001
0010
0001
0010
0100
1000
0010
0100
0010
1000
0001
1000
0100
1000
,
0010
0100
0010
1000
0001
1000
0100
0010
0100
0010
0001
0100
0001
1000
0010
M0MM
,
0101
0100
0010
1000
0100
0010
0100
1000
0010
0100
0001
0100
0010
1000
0100
0010
,
0100
1000
0010
0100
0001
0100
0010
1000
0100
0010
0100
1000
0010
0100
0001
M0MM
,
0110
1000
0100
0010
0001
0100
0010
1000
0100
0010
0001
0100
0010
1000
0100
0010
,
0001
1000
0100
1000
0001
0010
0100
1000
0001
0100
0010
0100
0010
0100
0001
MM0M
,
0110
1000
0001
1000
0100
1000
0010
0100
0010
1000
0010
0100
0001
1000
0100
MM0M
,
0011
0100
0010
1000
0010
0100
0001
1000
0010
1000
0001
0010
0100
1000
0100
MM0M
,
0011
0100
0010
1000
0010
0100
0001
1000
0001
0010
0001
1000
0010
0100
0010
M0MM
,
0101
0010
0100
1000
0001
1000
0100
0010
0001
0100
0010
1000
0100
1000
0010
0MMM
,
1001
1000
0001
1000
0100
0010
0001
0010
0100
1000
0001
1000
0100
0010
0001
0100
,
0010
1000
0001
1000
0010
0100
0001
1000
0100
0010
0001
0010
0100
1000
0001
0MMM
,
1010
1000
0010
0100
0001
1000
0001
0010
0100
1000
0001
1000
0100
0010
0001
0100
,
0010
1000
0010
0100
0001
1000
0001
0010
0100
1000
0100
0010
0001
1000
0001
MM0M
,
0011
0010
0001
1000
0010
1000
0001
MM0M
0110
1000
0100
0010
0001
1000
0010
0100
,
0010
1000
0100
0010
0100
1000
0001
0100
0010
1000
0010
0100
0001
0010
0100
0MMM
,
1001
1000
0010
0100
0001
0100
0010
0MMM
1001
1000
0100
0010
0001
0010
0100
0MMM
,
1001
1000
0001
0100
0010
1000
0001
0MMM
1001
1000
0001
0010
0100
1000
0001
0MMM
,
1001
1000
0001
1000
0010
0100
0001
0100
0010
1000
0001
1000
0010
0100
0001
0010
,
0100
1000
0001
1000
0100
0010
0001
1000
0010
0100
0001
0100
0010
1000
0001
0MMM
,
1100
1000
0100
0010
0001
1000
0001
0100
0010
1000
0001
1000
0010
0100
0001
0010
,
0100
1000
0100
0010
0001
1000
0001
0100
0010
1000
0010
0100
0001
1000
0001
M0MM
,
0101
0100
0001
1000
0100
1000
0001
M0MM
0110
1000
0010
0100
0001
1000
0100
0010
,
0100
1000
0010
0100
0010
1000
0001
0010
0100
1000
0100
0010
0001
0100
0010
0MMM
,
1001
1000
0100
0010
0001
0010
0100
0MMM
1001
1000
0010
0100
0001
0100
0010
0MMM
,
1001
1000
0001
0010
0100
1000
0001
0MMM
1001
1000
0001
0100
0010
1000
0001
MM0M
,
0110
0010
0001
1000
0001
0010
0100
1000
0001
1000
0010
0100
0001
0100
0010
0MMM
,
1001
1000
0100
1000
0001
1000
0100
0010
0001
0100
0001
1000
0001
0100
0010
0MMM
,
1001
1000
0100
0010
0001
1000
0100
0010
0001
1000
0001
0100
0010
1000
0001
0MMM
,
1100
1000
0001
1000
0001
0010
0100
1000
0001
0100
0001
1000
0010
1000
0001
0MMM
,
1100
1000
0010
0100
0001
0MMM
1100
1000
0010
0100
0001
0MMM
1100
1000
0010
1000
,
0001
1000
0100
1000
0010
0100
0001
1000
0001
0010
0100
1000
0001
1000
0010
0100
,
0001
0MMM
1010
1000
0100
0010
0001
0MMM
1010
1000
0100
0010
0100
0MMM
1001
1000
,
0001
0010
0100
MM0M
0011
0010
0001
0MMM
1010
1000
0001
M0MM
0101
0100
0001
0MMM
,
1010
1000
0001
1000
0001
0100
0010
1000
0001
1000
0100
0010
0001
0010
0100
0MMM
,
1001
1000
0010
1000
0001
1000
0010
0100
0001
0010
0001
1000
0001
0010
0100
0MMM
,
1001
1000
0010
0100
0001
1000
0010
0100
0001
1000
0001
0010
0100
1000
0001
0MMM
,
1010
1000
0001
1000
0001
0100
0010
1000
0001
0010
0001
1000
0100
1000
0001
0MMM
,
2002
0M00
00M0
00M0
,
0M00
0M00
00M0
0M00
,
0M00
00M0
0M00
00M0
,
0M00
00M0
00M0
0M00
,
00M0
0M00
00M0
00M0
,
0M00
0M00
00M0
0M00
,
0M00
00M0
0M00
00M0
,
3M03
0M00
00M0
0M00
,
000M
M000
000M
000M
,
M000
M000
000M
M000
,
M000
000M
M000
M000
,
000M
M000
M000
000M
,
M000
000M
M000
M000
,
000M
000M
M000
000M
,
000M
M000
000M
000M
,
M000
000M
000M
M000
,
000M
0000
0000
0000
;

//---------------dance-single - Expert----------------
#NOTES:
     dance-single:
     Expert:
     Hard:
     15:
     1.000,1.000,0.178,0.246,1.000,1746.000,42.000,58.000,336.000,0.000:
0000
0000
0000
0000
,
0000
0000
0000
0000
,
0000
0000
0000
0000
,
0000
0000
0000
0000
,
0000
0000
0000
0000
,
0000
0000
0000
0000
,
0000
0000
0000
0000
,
0000
0000
0000
0000
,
200M
0M00
000M
00M0
0M00
000M
00M0
0M00
,
30M2
0M00
2M03
000M
0M00
0M00
302M
M000
,
0M00
0M00
M000
000M
M230
M000
03M2
M000
,
0M00
0M00
20M3
0M00
000M
00M0
320M
M000
,
M000
000M
00M0
00M0
030M
M000
02M0
00M0
,
230M
0M00
30M2
00M0
M000
M000
02M3
M000
,
000M
0000
0000
0000
M000
0000
0000
0000
00M0
00M0
00M0
00M0
00M0
0000
0000
0000
M000
M000
M000
M000
M000
M000
M000
M000
M000
0000
0000
0000
00M0
0000
0000
0000
,
000M
000M
000M
000M
000M
0000
0000
0000
00M0
00M0
00M0
00M0
00M0
00M0
00M0
00M0
03M0
0000
0000
0000
M000
0000
0000
0000
000M
0000
0000
0000
00M0
0000
0000
0000
,
0M02
0M00
00M0
M000
0M00
0M00
M000
00M0
,
2M03
0M00
302M
M000
0M00
000M
M230
M000
,
000M
00M0
000M
00M0
03M2
M000
2M03
0M00
,
00M0
00M0
320M
00M0
M000
000M
230M
00M0
,
000M
0M00
0M00
00M0
300M
0M00
00M2
M000
,
0M23
M000
023M
000M
M000
00M0
230M
00M0
,
0M00
0000
0M00
0000
302M
000M
000M
M000
M230
000M
000M
M000
03M2
00M0
M000
00M0
,
2M03
0M00
0M00
0M00
0M00
0M00
0M00
0M00
0M00
0M00
0M00
0M00
3M00
0000
0000
0000
,
1001
0001
0000
1000
1100
0000
0100
0010
,
0001
0010
0100
0000
1001
0000
1000
0010
,
0100
0001
1000
0000
1100
0100
0000
0010
,
0001
0000
1000
0010
0110
0000
0100
0000
,
0001
1000
0000
0100
0110
0000
0010
0001
,
1000
0001
0010
0000
1001
0001
1000
0000
,
0010
0100
0001
0000
1001
1000
0000
0100
,
0010
0000
0001
1000
1010
0000
0010
0100
,
0001
1000
0000
0001
0011
0000
0010
0100
,
1000
0100
0010
0000
1001
0000
0001
0100
,
0010
1000
0001
0000
0011
0010
0000
0100
,
1000
0000
0001
0100
0110
0000
0010
0000
,
1000
0001
0000
0010
0110
0000
0100
1000
,
0001
1000
0100
0000
1001
1000
0001
0000
,
0100
0010
1000
0000
1001
0001
0000
0010
,
0100
0000
1000
0001
0101
0000
0100
0010
,
MMMM
0000
0000
0000
,
0001
1000
0001
1000
0100
0010
0001
0010
0100
1000
0001
1000
0100
0010
0001
0100
,
0010
1000
0001
1000
0010
0100
0001
1000
0100
0010
0001
0010
0100
1000
0001
1000
,
0010
1000
0010
0100
0001
1000
0001
0010
0100
1000
0001
1000
0100
0010
0001
0100
,
0010
1000
0010
0100
0001
1000
0001
0010
0100
1000
0100
0010
0001
1000
0001
0010
,
0001
0010
0001
1000
0010
1000
0001
0010
0100
1000
0100
0010
0001
1000
0010
0100
,
0010
1000
0100
0010
0100
1000
0001
0100
0010
1000
0010
0100
0001
0010
0100
1000
,
0001
1000
0010
0100
0001
0100
0010
1000
0001
1000
0100
0010
0001
0010
0100
1000
,
0001
1000
0001
0100
0010
1000
0001
1000
0001
1000
0001
0010
0100
1000
0001
1000
,
0001
1000
0001
1000
0010
0100
0001
0100
0010
1000
0001
1000
0010
0100
0001
0010
,
0100
1000
0001
1000
0100
0010
0001
1000
0010
0100
0001
0100
0010
1000
0001
1000
,
0100
1000
0100
0010
0001
1000
0001
0100
0010
1000
0001
1000
0010
0100
0001
0010
,
0100
1000
0100
0010
0001
1000
0001
0100
0010
1000
0010
0100
0001
1000
0001
0100
,
0001
0100
0001
1000
0100
1000
0001
0100
0010
1000
0010
0100
0001
1000
0100
0010
,
0100
1000
0010
0100
0010
1000
0001
0010
0100
1000
0100
0010
0001
0100
0010
1000
,
0001
1000
0100
0010
0001
0010
0100
1000
0001
1000
0010
0100
0001
0100
0010
1000
,
0001
1000
0001
0010
0100
1000
0001
1000
0001
1000
0001
0100
0010
1000
0001
0000
,
MMMM
0000
0000
0000
,
0000
0000
0000
0000
1000
1000
0400
0000
,
1301
1000
0000
0010
0110
0000
0100
0001
,
0000
1000
0001
0000
0011
0010
0100
0010
,
0000
0001
1000
0000
1010
0010
0000
0100
,
0001
0000
2000
3000
1100
0100
0040
0000
,
0031
1000
0000
0010
0110
0000
0100
0001
,
0000
1000
0001
0000
0011
0010
0100
0010
,
0000
0001
1000
0000
1010
0010
0000
1000
,
0001
0000
0020
0030
0110
0100
4000
0000
,
3001
0100
0000
0010
1010
0000
1000
0001
,
0000
0010
0001
0000
1001
1000
0100
1000
,
0000
0001
0100
0000
0110
0010
0000
1000
,
0001
0000
2000
3000
1100
0100
0040
0000
,
0031
1000
0000
0010
1010
0000
1000
0001
,
0000
0010
0100
0000
1001
1000
0010
1000
,
0000
0001
0010
0000
0110
0100
0000
1000
,
0001
0000
0000
0000
0000
0000
0000
0000
0000
0000
0000
0000
0000
0000
0000
0000
0200
0000
0000
0000
0000
0000
0000
0000
0300
0000
0000
0000
0000
0000
0000
0000
0110
0000
0000
0000
0000
0000
0000
0000
0010
0000
0000
0000
0000
0000
0000
0000
4000
0000
0000
0000
0000
0000
0000
0000
0000
0000
0000
0000
0000
0000
0000
3000
,
MMMM
00M0
0000
00M0
00M0
0000
00M0
00M0
,
0000
0000
0000
0000
0000
0000
0000
0000
00M0
0000
0000
0000
00M0
0000
0000
0000
00M0
0000
0000
0000
0000
0000
0000
0000
0000
0000
0000
0000
0000
0000
0000
0000
00M0
00M0
00M0
00M0
00M0
00M0
00M0
00M0
00M0
00M0
00M0
00M0
00M0
00M0
00M0
00M0
00M0
00M0
00M0
00M0
00M0
00M0
00M0
00M0
00M0
00M0
00M0
00M0
00M0
00M0
00M0
00M0
,
1000
0001
1000
0001
0010
0100
1000
0100
0010
0001
1000
0001
0010
0100
1000
0010
,
0100
0001
1000
0001
0100
0010
1000
0001
0010
0100
1000
0100
0010
0001
1000
0001
,
0100
0001
0100
0010
1000
0001
1000
0100
0010
0001
1000
0001
0010
0100
1000
0010
,
0100
0001
0100
0010
1000
0001
1000
0100
0010
0001
0010
0100
1000
0001
1000
0100
,
1000
0100
1000
0001
0100
0001
1000
0100
0010
0001
0010
0100
1000
0001
0100
0010
,
0100
0001
0010
0100
0010
0001
1000
0010
0100
0001
0100
0010
1000
0100
0010
0001
,
1000
0001
0100
0010
1000
0010
0100
0001
1000
0001
0010
0100
1000
0100
0010
0001
,
1000
0001
1000
0010
0100
0001
1000
0001
1000
0001
1000
0100
0010
0001
1000
0001
,
1000
0001
1000
0001
0100
0010
1000
0010
0100
0001
1000
0001
0100
0010
1000
0100
,
0010
0001
1000
0001
0010
0100
1000
0001
0100
0010
1000
0010
0100
0001
1000
0001
,
0010
0001
0010
0100
1000
0001
1000
0010
0100
0001
1000
0001
0100
0010
1000
0100
,
0010
0001
0010
0100
1000
0001
1000
0010
0100
0001
0100
0010
1000
0001
1000
0010
,
1000
0010
1000
0001
0010
0001
1000
0010
0100
0001
0100
0010
1000
0001
0010
0100
,
0010
0001
0100
0010
0100
0001
1000
0100
0010
0001
0010
0100
1000
0010
0100
0001
,
1000
0001
0010
0100
1000
0100
0010
0001
1000
0001
0100
0010
1000
0010
0100
0001
,
1000
0001
1000
0100
0010
0001
1000
0001
1000
0001
1000
0010
0100
0001
1000
0100
,
0010
0100
1000
0001
1000
0100
0010
0001
1000
0001
0100
0010
1000
0010
0100
0001
,
1000
0001
0010
0001
1000
0001
0010
0100
1000
0010
1000
0001
1000
0010
0100
0001
,
1000
0001
0010
0100
1000
0001
0010
0100
1000
0001
1000
0010
0100
0001
1000
0001
,
0010
0001
1000
0001
1000
0100
0010
0001
1000
0010
1000
0001
0100
0001
1000
0001
,
0010
0001
0100
0010
1000
0001
0010
0001
0100
0010
1000
0001
0010
0001
0100
0001
,
1000
0001
0010
0001
0100
0010
1000
0001
1000
0100
0010
0001
1000
0001
0100
0010
,
1000
0001
0100
0001
0010
0100
1000
0001
0100
0001
0010
0100
0010
0001
1000
0001
,
1000
0100
0010
0100
1000
0100
1000
0001
0100
0001
1000
0010
1000
0010
1000
0001
,
0100
0001
1000
0001
1000
0010
0100
0001
1000
0001
0010
0100
1000
0100
0010
0001
,
1000
0001
0100
0001
1000
0001
0100
0010
1000
0100
1000
0001
1000
0100
0010
0001
,
1000
0001
0100
0010
1000
0001
0100
0010
1000
0001
1000
0100
0010
0001
1000
0001
,
0100
0001
1000
0001
1000
0010
0100
0001
1000
0100
1000
0001
0010
0001
1000
0001
,
0100
0001
0010
0100
1000
0001
0100
0001
0010
0100
1000
0001
0100
0001
0010
0100
,
1000
0001
0100
0001
0010
0100
1000
0001
0100
0001
1000
0001
0010
0100
1000
0001
,
0100
0001
1000
0100
0010
0001
1000
0001
0010
0001
1000
0010
0100
0010
1000
0001
,
0100
0001
1000
0100
1000
0001
0010
0100
1000
0100
0010
0001
1000
0001
0100
0010
,
200M
0000
00M0
0000
0M01
0000
3M01
0010
010M
0000
M020
0000
0M32
0000
2M03
0000
,
001M
0000
3M01
1000
002M
0000
M230
0301
10M0
0000
0M02
0000
M010
0000
M203
0000
,
001M
0000
M000
0301
20M0
0000
320M
0000
M310
0000
0M02
0000
10M0
0000
1M03
0000
,
101M
0000
M000
0000
0M11
0000
00M2
0000
1M03
0000
002M
0130
M010
1000
020M
0310
,
MM11
0000
00M0
0000
M001
0000
2M00
0001
01M0
0000
001M
0000
3M02
0000
M023
0000
,
010M
0000
M000
0100
000M
0030
210M
0100
00M1
0000
3M02
0000
M100
0000
20M3
0000
,
010M
0000
01M0
3100
002M
0000
0M32
1000
10M0
0000
M103
0001
M020
0130
200M
3010
,
M11M
0000
0000
0000
,
0000
0000
0000
0000
0000
0000
0000
0000
0000
0000
0000
0000
0000
0000
0000
0000
0000
0000
0000
0000
0000
0000
0000
0000
0000
0000
0000
0000
0000
0000
0000
0000
0000
0000
0000
0000
0000
0000
0000
0000
0000
0000
0000
0000
0000
0000
0000
0000
0000
0000
0000
0000
0000
0000
0000
0000
0000
0000
0000
0000
0000
0000
0000
MMMM
,
0001
1000
0100
0010
0001
1000
0100
0010
0100
0010
0001
1000
0001
1000
0010
0100
,
0001
0100
0010
1000
0100
1000
0001
0010
0001
0100
0001
0010
0100
1000
0001
0100
,
0010
0100
0010
1000
0010
0100
0001
0010
0100
1000
0100
0010
0100
1000
0001
1000
,
0010
0100
0001
1000
0100
0010
0001
1000
0010
0100
0001
1000
0100
0010
0100
1000
,
0001
1000
0100
0010
0100
1000
0010
1000
0001
0100
0001
1000
0100
1000
0010
1000
,
0001
0100
0001
1000
0100
1000
0010
1000
0001
0010
0001
1000
0100
1000
0010
0100
,
0001
0100
0001
0010
0001
0010
0100
1000
0010
0100
0010
1000
0001
1000
0100
1000
,
0010
0100
0010
1000
0001
1000
0100
0010
0100
0010
0001
0100
0001
1000
0010
0100
,
0001
0100
0010
1000
0100
0010
0100
1000
0010
0100
0001
0100
0010
1000
0100
0010
,
0100
1000
0010
0100
0001
0100
0010
1000
0100
0010
0100
1000
0010
0100
0001
0100
,
0010
1000
0100
0010
0001
0100
0010
1000
0100
0010
0001
0100
0010
1000
0100
0010
,
0001
1000
0100
1000
0001
0010
0100
1000
0001
0100
0010
0100
0010
0100
0001
0010
,
0100
1000
0001
1000
0100
1000
0010
0100
0010
1000
0010
0100
0001
1000
0100
0010
,
0001
0100
0010
1000
0010
0100
0001
1000
0010
1000
0001
0010
0100
1000
0100
0010
,
0001
0100
0010
1000
0010
0100
0001
1000
0001
0010
0001
1000
0010
0100
0010
0100
,
0001
0010
0100
1000
0001
1000
0100
0010
0001
0100
0010
1000
0100
1000
0010
1000
,
0001
1000
0001
1000
0100
0010
0001
0010
0100
1000
0001
1000
0100
0010
0001
0100
,
0010
1000
0001
1000
0010
0100
0001
1000
0100
0010
0001
0010
0100
1000
0001
1000
,
0010
1000
0010
0100
0001
1000
0001
0010
0100
1000
0001
1000
0100
0010
0001
0100
,
0010
1000
0010
0100
0001
1000
0001
0010
0100
1000
0100
0010
0001
1000
0001
0010
,
0001
0010
0001
1000
0010
1000
0001
0010
0100
1000
0100
0010
0001
1000
0010
0100
,
0010
1000
0100
0010
0100
1000
0001
0100
0010
1000
0010
0100
0001
0010
0100
1000
,
0001
1000
0010
0100
0001
0100
0010
1000
0001
1000
0100
0010
0001
0010
0100
1000
,
0001
1000
0001
0100
0010
1000
0001
1000
0001
1000
0001
0010
0100
1000
0001
1000
,
0001
1000
0001
1000
0010
0100
0001
0100
0010
1000
0001
1000
0010
0100
0001
0010
,
0100
1000
0001
1000
0100
0010
0001
1000
0010
0100
0001
0100
0010
1000
0001
1000
,
0100
1000
0100
0010
0001
1000
0001
0100
0010
1000
0001
1000
0010
0100
0001
0010
,
0100
1000
0100
0010
0001
1000
0001
0100
0010
1000
0010
0100
0001
1000
0001
0100
,
0001
0100
0001
1000
0100
1000
0001
0100
0010
1000
0010
0100
0001
1000
0100
0010
,
0100
1000
0010
0100
0010
1000
0001
0010
0100
1000
0100
0010
0001
0100
0010
1000
,
0001
1000
0100
0010
0001
0010
0100
1000
0001
1000
0010
0100
0001
0100
0010
1000
,
0001
1000
0001
0010
0100
1000
0001
1000
0001
1000
0001
0100
0010
1000
0001
0010
,
0100
0010
0001
1000
0001
0010
0100
1000
0001
1000
0010
0100
0001
0100
0010
1000
,
0001
1000
0100
1000
0001
1000
0100
0010
0001
0100
0001
1000
0001
0100
0010
1000
,
0001
1000
0100
0010
0001
1000
0100
0010
0001
1000
0001
0100
0010
1000
0001
1000
,
0100
1000
0001
1000
0001
0010
0100
1000
0001
0100
0001
1000
0010
1000
0001
1000
,
0100
1000
0010
0100
0001
1000
0100
1000
0010
0100
0001
1000
0100
1000
0010
1000
,
0001
1000
0100
1000
0010
0100
0001
1000
0001
0010
0100
1000
0001
1000
0010
0100
,
0001
1000
0010
1000
0100
0010
0001
1000
0010
1000
0100
0010
0100
1000
0001
1000
,
0001
0010
0100
0010
0001
0010
0001
1000
0010
1000
0001
0100
0001
0100
0001
1000
,
0010
1000
0001
1000
0001
0100
0010
1000
0001
1000
0100
0010
0001
0010
0100
1000
,
0001
1000
0010
1000
0001
1000
0010
0100
0001
0010
0001
1000
0001
0010
0100
1000
,
0001
1000
0010
0100
0001
1000
0010
0100
0001
1000
0001
0010
0100
1000
0001
1000
,
0010
1000
0001
1000
0001
0100
0010
1000
0001
0010
0001
1000
0100
1000
0001
2000
,
0002
0M00
00M0
00M0
,
0M00
0M00
00M0
0M00
,
0M00
00M0
0M00
00M0
,
0M00
00M0
00M0
0M00
,
00M0
0M00
00M0
00M0
,
0M00
0M00
00M0
0M00
,
0M00
00M0
0M00
00M0
,
3M03
0M00
00M0
0M00
,
000M
M000
000M
000M
,
M000
M000
000M
M000
,
M000
000M
M000
M000
,
000M
M000
M000
000M
,
M000
000M
M000
M000
,
000M
000M
M000
000M
,
000M
M000
000M
000M
,
M000
000M
000M
M000
,
000M
0000
0000
0000
;

//---------------dance-single - Hard----------------
#NOTES:
     dance-single:
     Hard:
     Medium:
     12:
     0.806,1.000,0.288,0.521,0.576,1133.000,68.000,123.000,336.000,0.000:
0000
0000
0000
0000
,
0000
0000
0000
0000
,
0000
0000
0000
0000
,
0000
0000
0000
0000
,
0000
0000
0000
0000
,
0000
0000
0000
0000
,
0000
0000
0000
0000
,
0000
0000
0000
0000
,
200M
0M00
000M
00M0
0M00
000M
00M0
0M00
,
30M2
0M00
2M03
000M
0M00
0M00
302M
M000
,
0M00
0M00
M000
000M
M230
M000
03M2
M000
,
0M00
0M00
20M3
0M00
000M
00M0
320M
M000
,
M000
000M
00M0
00M0
030M
M000
02M0
00M0
,
230M
0M00
30M2
00M0
M000
M000
02M3
M000
,
000M
0000
0000
0000
M000
0000
0000
0000
00M0
00M0
00M0
00M0
00M0
0000
0000
0000
M000
M000
M000
M000
M000
M000
M000
M000
M000
0000
0000
0000
00M0
0000
0000
0000
,
000M
000M
000M
000M
000M
0000
0000
0000
00M0
00M0
00M0
00M0
00M0
00M0
00M0
00M0
03M0
0000
0000
0000
M000
0000
0000
0000
000M
0000
0000
0000
00M0
0000
0000
0000
,
0M02
0M00
00M0
M000
0M00
0M00
M000
00M0
,
2M03
0M00
302M
M000
0M00
000M
M230
M000
,
000M
00M0
000M
00M0
03M2
M000
2M03
0M00
,
00M0
00M0
320M
00M0
M000
000M
230M
00M0
,
000M
0M00
0M00
00M0
300M
0M00
00M2
M000
,
0M23
M000
023M
000M
M000
00M0
230M
00M0
,
0M00
0000
0M00
0000
302M
000M
000M
M000
M230
000M
000M
M000
03M2
00M0
M000
00M0
,
2M03
0M00
0M00
0M00
0M00
0M00
0M00
0M00
0M00
0M00
0M00
0M00
3M00
0000
0000
0000
,
1001
0001
0000
1000
1100
0000
0100
0010
,
0001
0010
0100
0000
1001
0000
1000
0010
,
0100
0001
1000
0000
1100
0100
0000
0010
,
0001
0000
1000
0010
0110
0000
0100
0000
,
0001
1000
0000
0100
0110
0000
0010
0001
,
1000
0001
0010
0000
1001
0001
1000
0000
,
0010
0100
0001
0000
1001
1000
0000
0100
,
0010
0000
0001
1000
1010
0000
0010
0100
,
0001
1000
0000
0001
0011
0000
0010
0100
,
1000
0100
0010
0000
1001
0000
0001
0100
,
0010
1000
0001
0000
0011
0010
0000
0100
,
1000
0000
0001
0100
0110
0000
0010
0000
,
1000
0001
0000
0010
0110
0000
0100
1000
,
0001
1000
0100
0000
1001
1000
0001
0000
,
0100
0010
1000
0000
1001
0001
0000
0010
,
0100
0000
1000
0001
0101
0000
0100
0010
,
MMMM
0000
0000
0000
,
1001
1000
0010
1000
0001
1000
0100
0001
,
1000
0001
0100
1000
0001
1000
0010
0100
,
0101
0001
0010
0001
1000
0010
0100
1000
,
0001
1000
0100
0001
1000
0001
0010
0100
,
1100
1000
0010
0100
0101
0001
0010
1000
,
0001
0100
1000
0001
0100
1000
0001
0010
,
0100
0001
1000
0001
0100
0010
1000
0001
1000
0100
0010
0001
1000
0001
0010
0100
,
1000
0001
0100
0001
1000
0010
1000
0001
1000
0100
0010
0001
0010
0100
1000
0001
,
1000
0001
0100
0001
1000
0001
0010
1000
,
0001
1000
0010
0001
1000
0001
0100
0010
,
1010
1000
0100
1000
0001
0100
0010
0001
,
1000
0001
0010
1000
0001
1000
0100
0010
,
0011
0001
0100
0010
1010
1000
0100
0001
,
1000
0010
0001
1000
0010
0001
1000
0100
,
0010
1000
0001
1000
0010
0100
0001
1000
0001
0010
0100
1000
0001
1000
0100
0010
,
0001
1000
0010
1000
0001
0100
0001
1000
0001
0010
0100
1000
0100
0010
0001
0000
,
MMMM
0000
0000
0000
,
0000
0000
0000
0000
1000
1000
0400
0000
,
1301
1000
0000
0010
0110
0000
0100
0001
,
0000
1000
0001
0000
0011
0010
0100
0010
,
0000
0001
1000
0000
1010
0010
0000
0100
,
0001
0000
2000
3000
1100
0100
0040
0000
,
0031
1000
0000
0010
0110
0000
0100
0001
,
0000
1000
0001
0000
0011
0010
0100
0010
,
0000
0001
1000
0000
1010
0010
0000
1000
,
0001
0000
0020
0030
0110
0100
4000
0000
,
3001
0100
0000
0010
1010
0000
1000
0001
,
0000
0010
0001
0000
1001
1000
0100
1000
,
0000
0001
0100
0000
0110
0010
0000
1000
,
0001
0000
2000
3000
1100
0100
0040
0000
,
0031
1000
0000
0010
1010
0000
1000
0001
,
0000
0010
0100
0000
1001
1000
0010
1000
,
0000
0001
0010
0000
0110
0100
0000
1000
,
0001
0000
0000
0000
0000
0000
0000
0000
0000
0000
0000
0000
0000
0000
0000
0000
0200
0000
0000
0000
0000
0000
0000
0000
0300
0000
0000
0000
0000
0000
0000
0000
0110
0000
0000
0000
0000
0000
0000
0000
0010
0000
0000
0000
0000
0000
0000
0000
4000
0000
0000
0000
0000
0000
0000
0000
0000
0000
0000
0000
0000
0000
0000
3000
,
MMMM
00M0
0000
00M0
00M0
0000
00M0
00M0
,
0000
0000
0000
0000
0000
0000
0000
0000
00M0
0000
0000
0000
00M0
0000
0000
0000
00M0
0000
0000
0000
0000
0000
0000
0000
0000
0000
0000
0000
0000
0000
0000
0000
00M0
00M0
00M0
00M0
00M0
00M0
00M0
00M0
00M0
00M0
00M0
00M0
00M0
00M0
00M0
00M0
00M0
00M0
00M0
00M0
00M0
00M0
00M0
00M0
00M0
00M0
00M0
00M0
00M0
00M0
00M0
00M0
,
1001
1000
0100
1000
0001
1000
0010
0001
,
1000
0001
0010
1000
0001
1000
0100
0010
,
0011
0001
0100
0001
1000
0100
0010
1000
,
0001
1000
0010
0001
1000
0001
0100
0010
,
1010
1000
0100
0010
0011
0001
0100
1000
,
0001
0010
1000
0001
0010
1000
0001
0100
,
0010
0001
1000
0001
0010
0100
1000
0001
1000
0010
0100
0001
1000
0001
0100
0010
,
1000
0001
0010
0001
1000
0100
1000
0001
1000
0010
0100
0001
0100
0010
1000
0001
,
1000
0001
0010
0001
1000
0001
0100
1000
,
0001
1000
0100
0001
1000
0001
0010
0100
,
1100
1000
0010
1000
0001
0010
0100
0001
,
1000
0001
0100
1000
0001
1000
0010
0100
,
0101
0001
0010
0100
1100
1000
0010
0001
,
1000
0100
0001
1000
0100
0001
1000
0010
,
0100
1000
0001
1000
0100
0010
0001
1000
0001
0100
0010
1000
0001
1000
0010
0100
,
0001
1000
0100
1000
0001
0010
0001
1000
0001
0100
0010
1000
0010
0100
0001
1000
,
0001
0010
0100
1000
0001
0010
0100
1000
0001
1000
0100
0010
0001
1000
0100
0010
,
0002
0000
1003
0010
0100
0010
1000
0001
,
2000
0000
3100
0010
0002
0000
2003
0000
,
3020
0000
0130
0010
1000
0001
1000
0100
,
0002
2003
3010
0002
2003
3010
0002
2003
,
3100
0002
2003
3100
0002
0203
0320
0032
,
0103
2000
3002
0013
2000
3002
0013
2000
,
3002
0103
2000
3001
0100
1000
0004
0000
,
0013
0100
0001
1000
0010
0100
0001
1000
0001
0100
0010
1000
0001
0100
0010
1000
,
0002
0000
1003
0100
0010
0100
1000
0001
,
2000
0000
3010
1000
0002
0000
0013
0100
,
1000
0001
0100
0001
1000
1000
0000
0100
,
0002
2003
3010
0002
2003
3010
0002
2003
,
3100
0002
2003
3100
0002
2003
3010
0100
,
1000
0001
1000
0100
0010
0001
1000
0100
1000
0001
1000
0010
0100
0001
1000
0010
,
1000
0001
0010
0001
1000
0001
0010
0100
1000
0001
0100
0001
1000
0001
0100
0010
,
200M
0000
00M0
0000
0M01
0000
3M01
0010
010M
0000
M020
0000
0M32
0000
2M03
0000
,
001M
0000
3M01
1000
002M
0000
M230
0301
10M0
0000
0M02
0000
M010
0000
M203
0000
,
001M
0000
M000
0301
20M0
0000
320M
0000
M310
0000
0M02
0000
10M0
0000
1M03
0000
,
101M
0000
M000
0000
0M11
0000
00M2
0000
1M03
0000
002M
0130
M010
1000
020M
0310
,
MM11
0000
00M0
0000
M001
0000
2M00
0001
01M0
0000
001M
0000
3M02
0000
M023
0000
,
010M
0000
M000
0100
000M
0030
210M
0100
00M1
0000
3M02
0000
M100
0000
20M3
0000
,
010M
0000
01M0
3100
002M
0000
0M32
1000
10M0
0000
M103
0001
M020
0130
200M
3010
,
M11M
0000
0000
0000
,
0000
0000
0000
0000
0000
0000
0000
0000
0000
0000
0000
0000
0000
0000
0000
0000
0000
0000
0000
0000
0000
0000
0000
0000
0000
0000
0000
0000
0000
0000
0000
0000
0000
0000
0000
0000
0000
0000
0000
0000
0000
0000
0000
0000
0000
0000
0000
0000
0000
0000
0000
0000
0000
0000
0000
0000
0000
0000
0000
0000
0000
0000
0000
MMMM
,
1001
0000
1000
0100
0000
0010
0000
0001
,
1000
0010
0100
0010
1000
0001
0020
0030
,
0110
0100
1000
0001
1000
0000
0000
0010
,
0100
1000
0100
0001
1000
0100
0010
0000
,
0011
0000
0001
0000
0000
0000
0100
0000
0010
0000
0000
1000
0000
0000
0100
0000
,
0010
0000
0001
1000
0000
1000
0010
0000
,
0110
0000
0100
0000
0000
0000
0001
0000
1000
0000
0000
0100
0000
0000
0010
0000
,
0010
0000
0001
2000
0000
3020
0000
0230
,
0000
0301
1000
0100
0001
0000
0100
1000
,
0010
0001
0000
0010
1000
0100
0001
0000
,
0100
0000
2000
0000
3002
0000
0203
0000
0320
0000
0000
0000
,
2030
0000
0000
3004
0043
0000
0034
4003
,
0000
3040
0430
0000
0000
0000
0000
0000
,
0301
1000
0001
0100
0001
1000
0001
0100
0010
1000
0001
1000
0100
0010
0001
1000
,
0100
1000
0001
1000
0100
1000
0001
1000
0010
0100
0010
1000
0001
0100
0010
1000
,
0001
1000
0100
0010
0001
1000
0100
0010
0001
1000
0001
0100
0010
1000
0010
0100
,
0001
1000
0010
1000
0001
1000
0100
0001
,
1000
0001
0100
1000
0001
1000
0010
0100
,
0101
0001
0010
0001
1000
0010
0100
1000
,
0001
1000
0100
0001
1000
0001
0010
0100
,
1100
1000
0010
0100
0101
0001
0010
1000
,
0001
0100
1000
0001
0100
1000
0001
0010
,
0100
0001
1000
0001
0100
0010
1000
0001
1000
0100
0010
0001
1000
0001
0010
0100
,
1000
0001
0100
0001
1000
0010
1000
0001
1000
0100
0010
0001
0010
0100
1000
0001
,
1000
0001
0100
0001
1000
0001
0010
1000
,
0001
1000
0010
0001
1000
0001
0100
0010
,
1010
1000
0100
1000
0001
0100
0010
0001
,
1000
0001
0010
1000
0001
1000
0100
0010
,
0011
0001
0100
0010
1010
1000
0100
0001
,
1000
0010
0001
1000
0010
0001
1000
0100
,
0010
1000
0001
1000
0010
0100
0001
1000
0001
0010
0100
1000
0001
1000
0100
0010
,
0001
1000
0010
1000
0001
0100
0001
1000
0001
0010
0100
1000
0100
0010
0001
1000
,
0001
0100
0010
1000
0001
0100
0010
1000
0001
1000
0010
0100
0001
1000
0010
0100
,
0002
0000
1003
0100
0010
0100
1000
0001
,
2000
0000
3010
0100
0002
0000
2003
0000
,
3200
0000
0310
0100
1000
0001
1000
0010
,
0002
2003
3100
0002
2003
3100
0002
2003
,
3010
0002
2003
3010
0002
0023
0230
0302
,
0013
0001
1000
0001
0010
0001
1000
0001
0100
0010
0100
0001
0100
0010
0100
0001
,
1000
0100
0010
0100
1000
0100
0010
0100
1000
0001
1000
0010
1000
0001
1000
0010
,
2000
0000
0000
0000
,
3002
0000
0000
0000
,
1003
0100
0010
0100
1000
0001
0010
0001
1000
0100
0010
0001
1000
0001
0010
0100
,
1000
0010
1000
0001
1000
0010
0100
0001
1000
0100
1000
0001
0010
0001
1000
0002
,
2000
0M00
00M0
00M0
,
0M00
0M00
00M0
0M00
,
0M00
00M0
0M00
00M0
,
0M00
00M0
00M0
0M00
,
00M0
0M00
00M0
00M0
,
0M00
0M00
00M0
0M00
,
0M00
00M0
0M00
00M0
,
3M03
0M00
00M0
0M00
,
000M
M000
000M
000M
,
M000
M000
000M
M000
,
M000
000M
M000
M000
,
000M
M000
M000
000M
,
M000
000M
M000
M000
,
000M
000M
M000
000M
,
000M
M000
000M
000M
,
M000
000M
000M
M000
,
000M
0000
0000
0000
;
