#TITLE:Shut Down Everything;
#SUBTITLE:;
#ARTIST:The Quick Brown Fox;
#TITLETRANSLIT:;
#SUBTITLETRANSLIT:;
#ARTISTTRANSLIT:;
#CREDIT:;
#BANNER:shutdowneverything bn.png;
#BACKGROUND:shutdowneverything bg.png;
#LYRICSPATH:;
#CDTITLE:;
#MUSIC:Shut Down Everything.ogg;
#OFFSET:-0.262;
#SAMPLESTART:99.552;
#SAMPLELENGTH:12.000;
#SELECTABLE:YES;
#BPMS:0.000=220.000;
#STOPS:;
#BGCHANGES:;
// cache tags:
#FIRSTBEAT:8.000;
#LASTBEAT:456.000;
#SONGFILENAME:Songs/SPEEEDCOOOORE 4/Shut Down Everything - [Garrett]/Shut down everything.sm;
#HASMUSIC:1;
#HASBANNER:1;
#MUSICLENGTH:125.454;
// end cache tags

//---------------dance-single - G. Moese----------------
#NOTES:
     dance-single:
     G. Moese:
     Challenge:
     16:
     1.000,1.000,0.223,0.263,1.000,1265.000,28.000,33.000,57.000,0.000:
0000
0000
0000
0000
,
0000
0000
0000
0000
,
0001
1000
0001
0000
1000
0000
0010
0100
0010
0000
1000
0000
0001
0000
0010
0000
,
0100
1000
0100
0000
1000
0000
0001
0100
0001
0000
1000
0000
0010
0000
0100
0000
,
0001
1000
0010
0000
0100
0000
0010
1000
0001
0000
0010
0000
0100
0000
1000
0000
,
0001
0000
1000
0001
0000
1000
0001
0000
0100
0000
0010
1000
0001
1000
0010
0100
,
0001
1000
0001
0000
0100
0000
0010
1000
0010
0000
0100
0000
0001
0000
1000
0000
,
0001
0010
0001
0000
1000
0000
0100
1000
0100
0000
1000
0000
0010
0000
0100
0000
,
0001
0100
0010
0000
1000
0000
0001
0010
0100
0000
1000
0000
0001
0000
0100
0000
,
0010
0000
0100
0001
0000
0100
0001
0000
1000
0000
0001
0100
0010
0100
0001
1000
,
0004
0013
0100
0000
0040
0030
0001
1000
0004
0003
0010
0000
0400
0300
1000
0000
,
0004
0103
0010
0000
0400
0300
0001
1000
0004
0003
1000
0000
0400
0300
0010
0000
,
0400
1300
0001
0000
0400
0300
0010
0100
0004
0003
0010
0000
0400
0300
1000
0000
,
0010
0000
1000
0001
0000
1000
0001
0000
0100
0000
0010
1000
0001
0010
0100
1000
,
0001
1000
0001
0000
0100
0000
0010
1000
0010
0000
1000
0000
0001
0010
0100
0000
,
1000
0000
0100
1000
0100
0000
0010
0000
0001
1000
0010
0000
0100
0000
0001
0000
,
1000
0010
0100
0010
1000
0001
0100
0010
0100
0001
1000
0010
1000
0001
0100
0001
,
1000
0100
0010
0001
1000
0001
0010
0100
0010
0001
1000
0100
0010
0100
1000
0001
,
1000
0000
0000
0000
0000
0000
0000
0000
0000
0000
0000
0000
0000
0000
0000
0000
0000
0000
0000
0000
0000
0000
0000
0000
000M
000M
000M
000M
000M
000M
000M
000M
000M
000M
000M
000M
000M
0000
0000
0000
0000
0000
0000
0000
0000
0000
0000
0000
,
0M00
00M0
M000
M00M
,
1000
0010
1000
0001
0100
0010
0100
0001
1000
0010
0100
0001
1000
0001
0100
0001
,
1000
0100
0010
0100
1000
0001
0010
0001
1000
0100
0010
0100
1000
0001
0010
0100
,
1000
0001
0100
0010
0100
0001
1000
0010
0100
0010
1000
0001
0100
0001
1000
0010
,
1000
0001
0010
0100
1000
0001
0010
0100
1000
0001
0100
0010
0100
0001
1000
0001
,
0100
0001
1000
0100
0010
0001
1000
0100
0010
0100
1000
0001
0010
0100
0010
0001
,
1000
0010
1000
0001
0100
0001
1000
0010
0100
0010
1000
0001
0100
0010
1000
0001
,
1000
0100
0010
0100
1000
0001
0010
0100
1000
0001
0010
0100
0010
0001
1000
0100
,
1000
0001
0010
0100
1000
0001
0100
0010
4000
0000
0000
0000
0000
0000
3000
0000
,
0001
0100
0001
1000
0010
0100
0010
1000
0001
0100
0010
1000
0001
1000
0010
1000
,
0001
0010
0100
0010
0001
1000
0100
1000
0001
0010
0100
0010
0001
1000
0100
0010
,
0001
1000
0010
0100
0010
1000
0001
0100
0010
0100
0001
1000
0010
1000
0001
0100
,
0001
1000
0100
0010
0001
1000
0100
0010
0001
1000
0010
0100
0010
1000
0001
1000
,
0010
1000
0001
0010
0100
1000
0001
0010
0100
0010
0001
1000
0100
0010
0100
1000
,
0001
0100
0001
1000
0010
1000
0001
0100
0010
0100
0001
1000
0010
0100
0001
1000
,
0001
0010
0100
0010
0001
1000
0100
0010
0001
1000
0100
0010
0100
1000
0001
0010
,
0001
1000
0100
0010
0001
1000
0010
0100
0002
0000
0000
0000
0003
0000
0000
0000
,
1000
0001
1000
0001
1000
0000
0001
0100
0001
0100
0001
0000
1000
0100
1000
0100
,
1000
0000
0001
1000
0001
1000
0001
0000
1000
0100
1000
0100
1000
0001
0100
0010
,
1000
0001
0100
0001
1000
0000
0001
0010
0100
0010
0001
0000
1000
0100
1000
0100
,
1000
0000
0001
0000
0010
0000
0001
0000
1000
0010
0100
0000
0001
1000
0001
0000
,
1000
0010
1000
0010
1000
0000
0001
0100
0001
0100
0001
0000
1000
0001
1000
0001
,
1000
0000
0001
1000
0010
0100
0001
0000
1000
0100
0010
0100
1000
0001
0100
0010
,
0100
0001
1000
0001
1000
0000
0001
0100
0001
0100
0001
0000
1000
0100
0010
0001
,
1000
0010
0100
0001
1000
0000
0001
0100
0010
0100
0001
1000
0001
0000
1000
0000
,
0001
1000
0001
1000
0001
0000
1000
0010
1000
0010
1000
0000
0001
0100
0010
0100
,
0010
0000
1000
0001
0010
0100
1000
0000
0001
0100
0010
1000
0001
0010
0100
1000
,
0001
0010
0001
0010
0001
0000
1000
0010
0100
0010
1000
0000
0001
1000
0001
1000
,
0001
0000
1000
0000
0010
0000
1000
0000
0001
0010
0100
0000
1000
0001
1000
0000
,
0100
1000
0100
1000
0100
0000
1000
0001
1000
0001
1000
0000
0001
0100
0001
0100
,
0001
0000
1000
0100
0010
0001
0010
0000
0001
0100
0001
0100
0010
1000
0010
1000
,
0001
0010
0001
1000
0100
0000
0010
0001
1000
0001
1000
0000
0001
1000
0010
0100
,
0001
1000
0100
0010
0100
0000
0010
0001
2000
0000
3000
0000
0002
0000
0003
0000
,
2200
3300
0000
0000
0000
0000
0000
0000
0220
0330
0000
0000
0000
0000
0000
0000
0022
0033
0000
0000
0000
0000
0000
0000
1000
0000
0000
0000
0001
0000
0000
0000
,
2002
3003
0000
0000
0000
0000
0000
0000
0202
0303
0000
0000
0000
0000
0000
0000
0220
0330
0000
0000
0000
0000
0000
0000
2020
3030
0000
0000
0000
0000
0000
0000
,
2002
3003
0000
0000
0000
0000
0000
0000
0022
0033
0000
0000
0000
0000
0000
0000
0220
0330
0000
0000
0000
0000
0000
0000
2200
3300
0000
0000
0000
0000
0000
0000
,
2002
3003
0000
0000
0001
0000
0100
0000
0000
0000
0001
0000
0100
0000
0000
0000
0010
0000
0000
0000
1000
0000
0100
0000
1000
0000
0001
0000
0100
0000
0001
0000
,
1000
0001
1000
0000
0010
0000
0100
0001
0100
0000
0001
0000
0010
0100
1000
0000
,
0001
0000
1000
0001
1000
0000
0100
0000
0010
0001
1000
0000
0001
0100
0001
0000
,
1000
0001
1000
0010
0100
0001
1000
0010
1000
0001
0100
0010
0100
0001
1000
0010
,
1000
0001
0010
0100
0010
0001
1000
0100
0010
0001
1000
0010
0100
0001
1000
0010
,
2000
0000
0000
0000
0000
0000
0000
0000
0000
0000
0000
0000
3000
0000
0000
0000
0000
0000
0000
0000
0000
0000
0000
0000
000M
000M
000M
000M
000M
000M
000M
000M
000M
000M
000M
000M
000M
0000
0000
0000
0000
0000
0000
0000
0000
0000
0000
0000
,
M000
0M00
00M0
000M
M000
00M0
0M00
00M0
,
0001
1000
0001
1000
0001
0000
0100
0010
0100
0010
1000
0000
0001
0010
0001
0010
,
0001
0000
1000
0001
1000
0001
1000
0000
0001
1000
0010
0100
0001
1000
0010
0100
,
0001
1000
0010
1000
0001
0000
1000
0100
0010
0100
1000
0000
0001
0010
0001
0010
,
0001
0000
1000
0000
0100
0000
1000
0000
0001
0100
0010
0000
1000
0001
1000
0000
,
0001
0100
0001
0100
0001
0000
1000
0010
1000
0010
1000
0000
0001
1000
0001
1000
,
0001
0000
1000
0001
0100
0010
1000
0000
0001
0010
0100
0010
0001
1000
0010
0100
,
0010
1000
0001
1000
0001
0000
1000
0010
1000
0010
1000
0000
0001
0010
0100
1000
,
0001
0100
0010
1000
0001
0000
1000
0010
0100
0010
1000
0001
2000
0000
3000
0000
,
0001
1000
0001
1000
0001
0000
1000
0010
1000
0010
1000
0000
0001
0100
0010
0100
,
0010
0000
1000
0001
0010
0100
1000
0000
0001
0100
0010
1000
0001
0010
0100
1000
,
0001
0010
0001
0010
0001
0000
1000
0010
0100
0010
1000
0000
0001
1000
0001
1000
,
0001
0000
1000
0000
0100
0000
1000
0000
0001
0010
0100
0000
1000
0001
1000
0000
,
0001
1000
0010
0100
0001
0000
1000
0001
1000
0001
1000
0000
0001
0100
0001
1000
,
0001
0000
1000
0010
0100
0001
0100
0000
0001
0100
0001
0100
0010
1000
0010
1000
,
0001
0100
0001
1000
0010
0000
0100
0001
1000
0001
1000
0000
0001
1000
0100
0010
,
0001
1000
0010
0100
0010
0000
0100
0001
2000
0000
3000
0000
0000
0000
0000
0000
,
1001
0000
0001
0000
0010
0000
0100
1000
0001
0000
0100
0000
0010
1000
0001
0000
,
0100
0100
0000
0001
,
0000
0000
1000
0000
0000
0100
0100
0000
,
0000
1000
0000
0001
,
0000
0000
0100
0000
0000
0001
0001
0000
,
1100
0100
0000
1000
,
0000
0000
0001
0000
0000
0100
0100
0000
,
0000
0001
0000
1000
,
0000
0000
0100
0000
0000
1000
1000
0000
,
0101
0000
0110
0000
1010
0000
1000
0001
,
0011
0000
0110
0000
1100
0000
1000
0001
,
1001
0000
1010
0000
0110
0000
0100
0001
,
1001
0000
1000
0001
0000
0100
0010
0000
1000
0000
0001
0010
0100
0010
0001
1000
,
0010
1000
0001
0000
1000
0000
0100
0010
0001
0000
1000
0000
0010
1000
0001
0000
,
1000
0010
0100
0001
0010
0000
0100
1000
0001
0100
0001
0000
1000
0001
1000
0000
,
0001
0100
0010
0100
0001
1000
0010
1000
0001
0100
0010
0100
0001
1000
0001
1000
,
0001
0010
0100
0010
0001
1000
0100
0010
0001
1000
0010
0100
0001
1000
0010
1000
,
0001
0000
0000
0000
0000
0000
0000
0000
0000
0000
0000
0000
0000
0000
0000
0000
0000
0000
0000
0000
0000
0000
0000
0000
M000
M000
M000
M000
M000
M000
M000
M000
M000
M000
M000
M000
M000
0000
0000
0000
0000
0000
0000
0000
0000
0000
0000
0000
,
000M
0M00
00M0
0MM0
,
1000
0010
0100
0001
1000
0001
0100
0010
0100
0001
1000
0010
1000
0001
0100
0001
,
1000
0100
0010
0100
1000
0001
0010
0001
1000
0100
0010
0001
1000
0100
0010
0100
,
1000
0001
0100
0010
0100
0001
1000
0001
0100
0010
0100
0001
1000
0010
1000
0001
,
1000
0100
0010
0001
1000
0100
0010
0100
1000
0001
0100
0010
0100
0001
1000
0010
,
1000
0001
0010
0001
1000
0100
0010
0001
1000
0100
0010
0100
1000
0001
0010
0001
,
1000
0010
0100
0001
1000
0001
0100
0010
0100
0001
1000
0010
1000
0001
0100
0010
,
1000
0001
0010
0100
1000
0001
0010
0100
0010
0001
1000
0100
1000
0001
0010
0100
,
1000
0010
0100
0001
1000
0001
0100
0010
4000
0000
0000
0000
0000
0000
3000
0000
,
0001
0100
0010
1000
0001
1000
0010
0100
0010
1000
0001
0100
0001
1000
0010
1000
,
0001
0010
0100
0010
0001
1000
0100
1000
0001
0010
0100
1000
0001
0010
0100
0010
,
0001
1000
0010
0100
0010
1000
0001
1000
0010
0100
0010
1000
0001
0100
0001
1000
,
0001
0010
0100
1000
0001
0010
0100
0010
0001
1000
0010
0100
0010
1000
0001
0100
,
0001
1000
0100
1000
0001
0010
0100
1000
0001
0010
0100
0010
0001
1000
0100
1000
,
0001
0100
0010
1000
0001
1000
0010
0100
0010
1000
0001
0100
0001
1000
0010
0100
,
0001
1000
0100
0010
0001
1000
0100
0010
0100
1000
0001
0010
0001
1000
0100
0010
,
0001
0100
0010
1000
0001
1000
0010
0100
0002
0000
0000
0000
0000
0000
0003
0000
,
2002
0000
0000
0000
,
3003
0000
0000
0000
;
