#TITLE:Through the fire and the flames;
#SUBTITLE:;
#ARTIST:Dragonforce;
#TITLETRANSLIT:;
#SUBTITLETRANSLIT:;
#ARTISTTRANSLIT:;
#CREDIT:;
#BANNER:;
#BACKGROUND:;
#LYRICSPATH:;
#CDTITLE:;
#MUSIC:DragonForce - Through The Fire And Flames.ogg;
#OFFSET:0.040;
#SAMPLESTART:30.000;
#SAMPLELENGTH:12.000;
#SELECTABLE:YES;
#BPMS:0.000=200.000,732.000=100.000,770.000=170.000,898.000=200.000,1162.000=100.000,1194.000=200.000;
#STOPS:;
#BGCHANGES:;
// cache tags:
#FIRSTBEAT:4.000;
#LASTBEAT:1375.000;
#SONGFILENAME:Songs/toune/Through the fire and the flames/ttfatf.sm;
#HASMUSIC:1;
#HASBANNER:0;
#MUSICLENGTH:444.000;
// end cache tags

//---------------dance-single - ----------------
#NOTES:
     dance-single:
     :
     Hard:
     13:
     1.000,1.000,0.766,0.453,1.000,3305.000,340.000,201.000,0.000,9.000:
0000
0000
0000
0000
,
1100
0100
0010
0001
0010
0100
1000
0010
,
0100
0001
0100
0010
1000
0001
0010
0100
,
1100
0100
0010
0001
0010
0100
1000
0010
,
0100
0001
0100
0010
1000
0001
0010
0100
,
1100
0000
0000
0000
,
0000
0000
0000
0000
,
1001
0000
0000
0000
,
0011
0000
0000
0000
,
0101
0001
0100
0010
1000
0010
0100
0001
,
0010
0100
1000
0100
0010
0001
1000
0001
,
0101
0001
0100
0010
1000
0010
0100
0001
,
0010
0100
1000
0100
0010
0001
1000
0001
,
0101
0000
0000
0000
,
0000
0000
0000
0000
,
1001
0000
0000
0000
,
1010
1010
1010
0000
,
1000
0100
1000
0100
1000
0100
0010
0100
1000
0001
1000
0100
0010
0001
1000
0001
,
0100
0010
0100
0010
1000
0010
0100
0001
0100
0010
0100
0001
0010
0100
1000
0100
,
1000
0001
1000
0100
1000
0010
0100
0010
0100
0001
0010
0100
1000
0001
1000
0100
,
1000
0010
0100
0010
1000
0001
0100
0001
0010
0100
0010
0001
0100
0001
0100
0010
,
0100
0001
1000
0001
0100
0010
1000
0100
1000
0010
0100
0010
1000
0001
0100
0001
,
0100
0010
1000
0010
0100
0010
1000
0100
1000
0100
0010
0100
0010
0001
1000
0001
,
1000
0100
0010
0100
1000
0010
0100
0001
0100
0010
0100
0010
1000
0001
0100
0010
,
0100
0001
1000
0001
1000
0100
1000
0010
1000
0010
0100
0010
0200
0000
0000
0000
,
0310
1000
0010
1000
0010
0100
0001
1000
0100
0010
0100
0010
0001
0010
0001
0100
,
0010
1000
0010
1000
0100
1000
0010
0100
0001
0010
0100
0010
0100
0010
0100
1000
,
0001
0100
0001
0010
0001
0010
0001
0100
0010
1000
0010
0100
0001
0100
0010
0100
,
0001
1000
0001
1000
0100
1000
0010
1000
0010
0100
0010
0100
0001
0100
0001
1000
,
0100
1000
0100
0010
0001
0010
0100
0010
0001
1000
0001
0100
0001
0100
0010
1000
,
0001
1000
0001
0100
0001
0100
0010
0100
0001
0100
0001
0010
0100
0010
0001
1000
,
0100
0010
0100
0010
0001
0010
0100
1000
0010
0100
0010
0100
0001
0100
0010
1000
,
0001
1000
0001
0100
0001
0100
0010
0100
0001
1000
0001
1000
0100
1000
0010
0100
,
0001
0000
1000
0010
0100
0000
0010
1000
,
0100
0000
0011
0000
0000
0000
0001
1000
,
0100
0000
0010
0001
0000
1001
0000
0101
,
0000
0010
1000
0100
1000
0000
1001
0000
,
0022
0033
0000
0000
0000
0000
0000
0000
1001
0000
0000
0000
0000
0000
0000
0000
0110
0000
0000
0000
0000
0000
0000
0000
0101
0000
0000
0000
0000
0000
0000
0000
,
1010
0000
0001
0010
0000
0100
1000
0001
,
0100
0000
0010
1000
0000
1001
0000
1100
,
0000
0000
1001
0000
0001
0100
0001
0010
0100
0000
1000
0001
0100
0010
1000
0001
,
2000
0000
0000
0000
0001
3000
0001
0000
1000
0100
1000
0000
0010
0000
0010
0000
,
0100
0000
0100
0001
0100
0000
0010
0000
0000
0000
1000
0001
0100
0000
0010
0000
,
1001
1000
1100
0100
0110
0011
0001
0220
,
0000
0330
0000
0000
1001
0000
0000
0000
1100
0000
0000
0000
0011
0000
0000
0000
,
1001
0000
1000
0100
0000
0010
0001
0000
,
0101
0000
0001
0100
0000
0010
1000
0000
,
1001
0000
1000
0100
0001
0100
0110
0000
,
2002
0000
0000
0000
0000
0000
3003
0000
0000
0000
0000
0000
1000
0001
0010
0001
,
0200
0000
0301
0010
0100
0001
0100
1000
,
0010
0100
0000
1001
1100
0000
0010
0001
,
1001
0000
0100
0001
0100
0110
0000
2200
,
0000
0000
3301
0000
0001
1000
0001
0100
,
0101
0001
0000
1001
0000
1000
0100
0000
,
0011
0000
0001
1000
0000
0000
0110
0100
,
0001
0000
0110
0100
0000
1100
0000
1001
,
0000
0000
0000
2200
3300
0000
0000
0000
0000
0022
0033
0000
0000
0000
0000
2002
3003
0000
0000
0000
0000
0001
0000
0000
,
1000
0100
0010
0001
1000
0100
0010
0001
1000
0010
0100
0001
1000
0010
0100
0001
,
1000
0100
1000
0010
0100
0001
0010
0001
0100
0010
0100
0010
1000
0100
1000
0001
,
1000
0010
0100
0001
0100
0010
1000
0001
0010
0100
0010
0001
0010
0100
0010
0100
,
1000
0001
0100
0010
0100
0001
1000
0010
0100
0010
1000
0001
1000
0100
0010
0100
,
1000
0001
0100
0010
1000
0001
0010
0100
1000
0100
0010
0001
1000
0010
1000
0100
,
1000
0001
0100
0001
0010
0100
0010
0001
0100
0001
0100
0010
1000
0001
1000
0010
,
0100
0001
1000
0100
0010
0001
0010
0100
0010
0001
0100
0010
0100
0001
1000
0010
,
0200
0010
0010
0010
,
0310
1000
0010
0000
0100
0000
0001
0000
0010
0001
0010
0000
0100
0000
1000
0000
,
0001
1000
0001
0000
0100
0000
0010
0000
1000
0010
1000
0000
0100
0000
0010
0000
,
0001
1000
0001
0000
0100
0000
0010
0000
1000
0100
1000
0000
0010
0000
0100
0000
,
0001
0010
0001
0000
1000
0000
0001
0000
0100
0010
0100
0000
0010
0000
1000
0000
,
0001
0100
0001
0000
0010
0000
0100
0000
1000
0100
1000
0000
0001
0000
0100
0000
,
0010
1000
0010
0000
0100
0000
0010
0000
1000
0100
1000
0000
0010
0000
0100
0000
,
0001
1000
0001
0000
1000
0000
0100
0000
0010
0100
0010
0000
0001
0000
0100
0000
,
0001
1000
0001
1000
0010
0100
0001
1000
0100
0010
0001
1000
0010
0100
0001
0000
,
1000
0001
1000
0000
0010
0000
0101
0000
0001
0000
0010
0000
0100
0000
1000
0000
,
0001
0100
0001
0000
0010
0000
1100
0000
1000
0000
0001
0000
0100
0000
0010
0000
,
0100
0001
0100
0000
0010
0000
1001
0000
1000
0000
0001
0000
0010
0000
0100
0000
,
0010
0100
0010
0000
0001
0000
1001
0000
1000
0000
0010
0000
0100
0000
0001
0000
,
1000
0100
1000
0000
1000
0100
1000
0000
0001
0100
0001
0000
0001
0100
0001
0000
,
1000
0100
0010
0000
0001
0100
0010
0000
0100
0001
1000
0000
0100
1000
0001
0000
,
1000
0100
0010
0001
1000
0010
0100
0001
0010
0100
1000
0100
0010
0001
1000
0100
,
0020
0001
1000
0100
,
1031
1000
0010
1000
0001
0010
0100
1000
,
1001
0001
0100
1001
0100
1000
1000
0100
,
1010
0001
1001
1100
0100
0100
0100
0010
,
0001
0100
0100
0010
1001
1000
1010
0001
,
1001
0001
0001
1100
0100
0100
0110
0010
,
0011
0001
0001
1100
0100
1000
1100
0100
,
1001
0000
0001
0000
0010
0100
0010
0000
0001
0000
1000
0000
0010
0100
0010
0000
,
0100
0010
0100
0010
1000
0010
1000
0010
1000
0001
1000
0001
0100
0001
1000
0000
,
1001
0001
0001
0001
0100
0010
0101
0010
,
1001
1000
0010
0101
0100
0010
1000
1000
,
1001
0100
0011
1001
1000
0100
1010
0100
,
1001
0001
0001
1000
1001
1000
1100
0100
,
0110
0011
0010
1001
0001
0001
0101
0010
,
1001
1000
1100
0010
0110
0001
1010
0100
,
1001
1000
0100
0020
0000
0031
0100
0001
,
0010
0010
0000
0001
0100
0001
2000
0000
,
3100
0010
0001
0100
0010
0100
0001
1000
,
1001
1100
0011
0002
0000
0000
0003
0000
,
1000
0010
0000
1002
0000
1003
0010
0100
,
0010
0010
0000
1001
0000
1100
0000
0001
,
0100
0100
0001
0100
0100
0100
0001
0100
,
0010
1000
0010
0100
0010
1000
0001
1000
0100
0010
0001
0100
0001
0100
0010
1000
,
0100
0100
0010
0001
1001
1100
0011
0000
,
1000
0001
0000
0100
0001
0110
1010
0000
,
1000
0001
1000
0010
0100
0000
0001
0000
1000
0100
1000
0010
0100
0001
0010
0001
,
1000
0010
0100
0001
0010
0000
0200
0000
0000
0000
0000
0000
0000
0000
0000
0000
,
0310
0010
0010
0001
1001
0110
0101
1001
,
0100
0000
0100
0000
0000
0000
0010
1000
0010
0000
0100
0000
0101
0000
0000
0000
,
1000
0001
1000
0100
1000
0010
0100
0001
0010
0001
1000
0100
0010
0001
1000
0010
,
0100
0000
0000
0010
0000
0000
1000
0000
0000
0001
0000
0000
0100
0000
0000
0000
0000
0000
0000
0000
0000
0000
0000
0000
1001
0000
0000
0000
0000
0000
0000
0000
1100
0000
0000
0000
0000
0000
0000
0000
0101
0000
0000
0000
0000
0000
0000
0000
,
1001
1000
0100
1000
1000
1000
0100
0010
,
0001
0001
0100
0001
0001
0001
0100
0010
,
1001
0000
0100
0001
0010
0000
0100
1000
,
1001
0000
0110
0000
0000
0000
0001
0100
,
0101
0000
1001
0000
1100
0000
0010
0002
,
0000
0000
0003
0000
0000
0000
1000
0001
,
1100
0011
0101
0110
,
1010
0000
0100
0101
0000
0010
1000
0010
,
0200
0000
0010
0000
0001
0001
0000
0020
,
0002
0000
0000
0000
,
0333
0000
0110
0010
1001
0000
1000
0001
,
0101
0110
0000
1000
1100
0000
0010
0001
,
0100
0000
0110
0100
0000
0001
0000
2002
,
0000
3003
0000
1001
,
1100
0000
0011
0001
0100
0000
0010
1000
,
1001
0001
0000
0101
0000
0000
0100
0010
,
1000
0000
1100
0100
0000
1001
0000
0110
,
0000
0000
1001
0110
,
1000
0010
0100
0001
1000
0010
0100
0001
0010
0100
1000
0001
0010
0100
1000
0001
,
0010
0100
0010
0001
1000
0010
0100
0010
1000
0001
0100
0010
1000
0100
0010
0100
,
1000
0001
0010
0100
1000
0001
1000
0100
0010
0001
1000
0100
0010
0001
0100
0001
,
0010
0100
0010
0001
1000
0010
0100
0010
1000
0001
0010
0100
1000
0010
0100
0001
,
0010
0100
1000
0010
0100
0010
1000
0100
0010
0001
0100
0001
1000
0100
1000
0001
,
0010
0100
1000
0001
0100
0010
1000
0010
0100
0010
1000
0001
0100
0001
1000
0100
,
0020
0000
0000
0000
,
0030
1100
0011
0110
,
1000
0010
0100
0000
0010
0000
1000
0000
0010
0100
0001
0000
1000
0000
0001
0000
,
1000
0100
0010
0000
0001
0000
1000
0000
0001
0010
0100
0000
0010
0000
0001
0000
,
1000
0001
0100
0000
0010
0000
1000
0000
0001
1000
0100
0000
0010
0000
0001
0000
,
0010
0001
0100
0000
0010
0000
0100
0000
0010
1000
0100
0000
0010
0000
0100
0000
,
0110
0010
1001
1100
0010
0010
0010
0100
,
0110
0010
1010
1001
1000
1000
1100
0010
,
0011
0001
1001
0011
0010
0010
0011
0001
,
2001
0000
0000
3000
,
1001
0100
1001
0110
0010
0010
1010
1000
,
1001
0001
0010
0101
0010
0010
0100
0001
,
1001
1000
1100
0110
0001
1000
0110
0100
,
0110
0001
1000
1001
0001
1000
0010
0010
,
1000
0010
1000
0000
1000
0010
1000
0000
0001
0010
0001
0000
0001
0010
0001
0000
,
1000
0001
0010
0000
0001
1000
0010
0000
1000
0100
0010
0000
0001
0100
0010
0000
,
1000
0100
0010
0001
0010
0100
1000
0010
0100
0001
0100
0010
1000
0001
0100
0010
,
2000
0000
0010
0000
0100
0000
0001
3000
,
1001
1000
0010
1000
0001
0010
0100
1000
,
1001
0001
0100
1001
0100
1000
1000
0100
,
1010
0001
1001
1100
0100
0100
0100
0010
,
0001
0100
0100
0010
1001
1000
1010
0001
,
1001
0001
0001
1100
0100
0100
0110
0010
,
0011
0001
0001
1100
0100
1000
1100
0100
,
1001
0000
0001
0000
0010
0100
0010
0000
0001
0000
1000
0000
0010
0100
0010
0000
,
0100
0010
0100
0010
1000
0010
1000
0010
1000
0001
1000
0001
0100
0001
1000
0000
,
1001
0001
0001
0001
0100
0010
0101
0010
,
1001
1000
0010
0101
0100
0010
1000
1000
,
1001
0100
0011
1001
1000
0100
1010
0100
,
1001
0001
0001
1000
1001
1000
1100
0100
,
0110
0011
0010
1001
0001
0001
0101
0010
,
1001
1000
1100
0010
0110
0001
1010
0100
,
1001
1000
0000
0010
1001
0100
1001
0000
,
0001
0001
0000
1000
1100
0010
0011
0000
,
1000
0010
0100
0010
1000
0010
0001
0010
,
0100
0100
0100
0200
0000
0000
0300
0000
,
0010
1000
0000
1010
0000
0100
0001
0010
,
0100
0100
0100
0010
0000
1001
0000
1000
,
0001
0010
0100
0000
1000
0000
1001
0000
1001
0000
0001
0000
0100
0000
0001
0000
,
1000
1000
0010
0100
0200
0000
0300
0000
,
0000
1001
1100
0010
0001
0001
0001
1000
,
1010
1001
0011
0001
1000
1000
2000
0000
,
3001
0010
0100
1000
0010
0100
0010
1000
0001
0100
0010
1000
0010
0100
0001
1000
,
0100
1000
0010
0100
0001
0000
2200
0000
0000
0000
0000
0000
0000
0000
3300
0000
,
0000
0000
1100
0000
1010
0000
0100
0001
0010
0000
1001
0000
1000
0000
0010
0000
,
0100
0000
1001
0000
1100
0000
0010
0001
1000
0100
0010
0000
2002
0000
0000
3003
,
1000
0100
1000
0010
0100
0010
1000
0001
0100
0001
0010
0100
0010
0001
1000
0010
,
0100
0000
0000
0010
0000
0000
0100
0000
0000
0020
0000
0000
0000
0000
0000
0000
0000
0000
0000
0000
0000
0030
0000
0000
1001
0000
0000
0000
0000
0000
0000
0000
1100
0000
0000
0000
0000
0000
0000
0000
0011
0000
0000
0000
0000
0000
0000
0000
,
0220
0000
0000
0000
0000
0000
0000
0000
0000
0000
0000
0000
0000
0330
1001
0000
,
1100
0000
0000
0000
0002
0000
0000
0000
2003
0000
0000
0000
3200
0000
0000
0310
,
1010
0000
0020
0000
0032
0000
2003
3100
,
0110
0000
0000
0000
0200
0000
0000
0000
0320
0000
0000
2000
0030
0000
3002
0000
,
0203
0000
0000
0000
0000
0000
0000
0000
0000
0000
0000
0300
0000
0000
1001
0000
,
0110
0000
1001
0000
1100
0000
0011
1100
,
0110
0000
0000
0000
0011
0000
0000
0000
1100
0000
0000
0000
1001
0000
0000
1000
,
1100
0000
0000
0000
0011
0000
0000
0000
1001
0000
0000
0101
0000
0000
1010
0000
,
2002
0000
0000
0000
0000
0000
0000
0000
0000
0000
0000
0000
0000
0000
3003
0000
1000
0001
1000
0000
0010
0000
0100
0001
0100
0000
0010
0000
1000
0010
1000
0000
,
0100
0000
0000
0000
0000
0000
0001
0000
0000
0000
0000
0000
0100
0000
0000
0000
0000
0000
0001
0000
0000
0000
0000
0000
1000
0000
0000
0000
0000
0000
0010
0000
0000
0000
0000
0000
1000
0000
0000
0000
0000
0000
0010
0000
0000
0000
0000
0000
0100
0000
0000
0000
0000
0000
0000
0000
0001
0000
0000
0000
0000
0000
0000
0000
1000
0000
0000
0000
0000
0000
0000
0000
0100
0000
0000
0000
0000
0000
0000
0000
0010
0000
0000
0000
0000
0000
0000
0000
0001
0000
0000
0000
0000
0000
0000
0000
1000
0000
0000
0000
0000
0000
0000
0000
0000
0000
0000
0000
0001
0000
0000
0000
0000
0000
0000
0000
0000
0000
0000
0000
1000
0000
0000
0000
0000
0000
0000
0000
0000
0000
0000
0000
0001
0000
0000
0000
0000
0000
0000
0000
0000
0000
0000
0000
1000
0000
0000
0000
0000
0000
0000
0000
0000
0000
0000
0000
0001
0000
0000
0000
0000
0000
0000
0000
0000
0000
0000
0000
0100
0000
0000
0000
0000
0000
0000
0000
0000
0000
0000
0000
0001
0000
0000
0000
0000
0000
0000
0000
0000
0000
0000
0000
,
0010
0001
0010
0001
0010
0001
1000
0001
0100
0010
0100
0010
1000
0010
0100
0001
,
0010
0001
0010
0100
1000
0100
0010
0001
0100
0001
0100
0001
0100
0001
1000
0001
,
0010
0001
0010
0001
0010
0001
1000
0100
0010
0100
0010
0001
0010
0001
1000
0010
,
0100
0001
0100
0010
1000
0010
0100
0010
1000
0010
1000
0010
1000
0010
0100
0010
,
1000
0001
1000
0001
1000
0100
0010
0100
1000
0001
1000
0100
1000
0100
0010
0001
,
1000
0001
1000
0100
0010
0100
0010
0001
0100
0001
0100
0001
0100
0001
1000
0001
,
0100
0010
0100
0010
0100
0001
1000
0001
1000
0100
1000
0010
0100
0010
1000
0001
,
0100
0001
0100
0010
1000
0010
0100
0001
2000
0000
0000
0000
0000
0000
3200
0000
,
0320
0032
0203
0000
0320
0000
0000
0230
,
0301
1000
0200
0000
0320
0000
0000
0000
1030
0100
0010
0100
1000
0100
0010
0001
,
1000
0100
0010
0001
1000
0010
0100
0001
1000
0001
0100
0001
0010
0001
0100
0001
,
1000
0010
0100
0010
1000
0100
0020
0000
0032
0000
0000
0000
0000
0000
2003
0000
,
3200
0000
0000
0320
0000
0000
0032
0000
0203
0000
0000
0320
0000
0000
2030
0000
,
0002
0000
0000
0000
0000
0000
3003
0000
1000
0100
0010
0100
1000
0001
1000
0001
,
1000
0010
0100
0010
1000
0001
1000
0001
0100
0010
0100
0010
1000
0001
1000
0001
,
0020
0000
0000
0000
0000
0000
0030
0000
0001
0100
0001
0100
0001
0100
0010
0100
,
0001
0100
0001
0100
0001
0100
0001
1000
0100
1000
0100
0010
0100
0010
0001
0010
,
0001
1000
0001
0100
0010
0100
0010
1000
0100
1000
0100
1000
0100
1000
0001
1000
,
0100
1000
0100
1000
0100
1000
0001
1000
0010
0100
0010
0100
0001
0100
0001
0010
,
0100
0010
0100
1000
0100
1000
0001
0100
0010
1000
0010
1000
0010
1000
0100
0010
,
0100
1000
0100
1000
0100
1000
0010
0100
0001
0100
0001
0010
0001
0010
0100
1000
,
0100
0010
0100
1000
0100
1000
0010
0100
0001
1000
0001
1000
0001
1000
0100
1000
,
0010
0100
0010
0100
0010
0100
0010
1000
0001
0100
0001
0010
0001
0010
0100
1000
,
0010
0100
0010
1000
0001
1000
0100
0010
0001
0000
0010
0100
1000
0000
0000
0000
,
2000
3002
0003
2020
3030
0001
0100
0010
,
2000
0000
0000
0000
0000
0000
3000
0000
0001
0100
0010
1000
0001
0100
0010
1000
,
0001
0010
0100
1000
0001
0010
0100
1000
0001
0100
0001
0100
0010
1000
0010
1000
,
0001
1000
0001
1000
0200
0000
0000
0000
0311
0000
0000
1001
0000
0000
1100
0000
,
1001
0000
0000
0110
0000
0000
0101
0000
0011
0000
0010
0100
2000
0000
0000
0000
,
3001
0100
0010
0200
0000
0000
0000
0000
0310
1000
0010
1000
0100
1000
0100
1000
,
0010
0100
0001
0010
0100
1000
0100
0010
0001
0100
0010
0100
0001
1000
0010
1000
,
0100
0000
0000
0010
0000
0000
0001
0000
0000
1000
0000
0000
0010
0000
0000
0000
0100
0000
0000
0000
0010
0000
0000
0000
1001
0000
0000
0000
0000
0000
1000
0000
0000
0100
0000
0000
1000
0000
0000
0000
0000
0000
0010
0000
0000
0000
0000
0000
,
0100
0000
0010
0000
1000
0000
0001
0000
1100
0000
0100
0010
0100
0000
0010
0000
,
0001
0000
0100
0000
0020
0000
0000
0000
1130
0000
1000
0001
1000
0000
0010
0000
,
0100
0000
0010
0000
1000
0000
0001
0000
0001
1000
0010
0100
0010
1000
0100
1000
,
0001
0100
0001
1000
0020
0000
0000
0000
1031
0000
0100
0001
0010
0000
0100
0000
,
1000
0000
0010
0000
0100
0000
0001
0000
1100
0000
0010
0100
1000
0000
0010
0000
,
1000
0000
0001
0000
0200
0000
0000
0000
1310
0000
1000
0010
0100
0000
0010
0000
,
1000
0000
0010
0000
0100
0000
0001
0000
0010
0100
0010
0100
0010
0100
0010
0100
,
2000
3000
0002
0003
2000
3000
0002
0003
0100
0010
0100
0010
0100
0010
0100
0000
,
0002
0003
2000
3000
0002
0003
2000
3000
0002
0000
0000
0000
0200
0000
0000
0000
,
0020
0000
0000
0000
2000
0000
3333
0000
1000
0010
0100
0001
1000
0010
0100
0001
,
1000
0001
0010
0100
1000
0001
0010
0100
1000
0010
0100
0010
1000
0001
0010
0100
,
0010
0001
1000
0010
0200
0000
0000
0000
0310
1000
0010
0100
0010
1000
0001
0010
,
0100
0010
0001
1000
0001
0010
0100
1000
0010
1000
0010
0100
0001
1000
0010
0100
,
0002
0000
0000
0000
0000
0000
1003
0000
0001
0010
0100
1000
0001
0010
0100
1000
,
0001
0010
0100
1000
0010
1000
0010
1000
0010
0100
0001
1000
0010
0100
0001
1000
,
0010
0100
0001
1000
0010
0100
0010
0100
0001
1000
0100
1000
0001
1000
0010
1000
,
0001
1000
0100
1000
0001
1000
0010
1000
0001
0010
0001
0100
0010
1000
0100
1000
,
0010
0100
0001
0010
0100
1000
0010
0100
0020
0000
0000
0000
2030
0000
3200
0000
,
0000
0320
0230
2300
3020
0230
0302
2003
,
3200
2300
3020
0030
1000
1000
0200
0010
,
0310
0001
1000
0000
0001
0001
0200
0010
,
0310
0000
1000
0000
0001
0000
0000
0000
1000
0100
1000
0100
1000
0010
0100
0010
,
0100
0010
1000
0001
0100
0001
0010
0100
0010
0001
1000
0010
0100
0001
1000
0100
,
0010
0001
1000
0020
0000
0000
0000
0030
0001
0010
0100
1000
0001
0010
0100
1000
,
0001
0100
0010
1000
0001
0100
0010
1000
0010
0100
0001
1000
0010
0100
0010
1000
,
0002
0000
0000
0000
2000
0000
0003
0000
3001
0010
0001
0100
0010
1000
0100
1000
,
0010
0100
0001
1000
0100
0010
0001
0000
0100
0000
0200
0000
0000
0000
0310
0000
,
1000
0000
0010
0000
0200
0000
0000
0000
0301
0100
0010
1000
0100
0010
0001
0100
,
0010
1000
0100
0010
0001
0100
0010
1000
0100
0010
0100
0000
0020
0030
0002
0003
,
2000
3000
0020
0030
0200
0300
0002
0003
1000
0010
0100
0010
1000
0001
0010
0100
,
0010
0001
1000
0010
0100
0001
1000
0100
0010
0000
0001
0000
1000
0000
1000
0000
,
0010
0100
0010
0100
0001
0000
0000
0000
1000
0100
1000
0100
0010
0001
0010
0001
,
0200
0000
0000
0000
0010
0300
0000
0000
1000
0100
0010
0001
1000
0100
0010
0001
,
0200
0000
0000
0300
2200
0000
3300
0020
,
0032
0000
0000
0000
0003
0000
0000
1000
0100
0000
0010
0000
0001
0000
0200
0000
,
0000
0000
0300
0000
0000
0000
0002
0003
0200
0300
0020
0030
0200
0300
0002
0003
,
0020
0030
0200
0300
2000
3000
0020
0030
0200
0300
0020
0030
2000
3000
0002
0003
,
0200
0000
0000
0300
0000
0000
2200
3300
,
0022
0033
1000
0010
0200
0000
0310
0020
,
0000
0130
0000
0100
0010
1000
0001
0010
,
0100
1000
0010
0100
0010
1000
0001
0100
,
0020
0000
0200
0330
1000
0001
0101
0002
,
0000
1003
0010
0100
0010
1000
0001
1000
,
0100
0000
0010
0001
1000
0000
0000
0000
2200
0000
3300
0000
0022
0000
0033
0000
,
0220
0330
2002
3003
1000
0001
0200
0010
,
0320
0000
1000
0000
1030
0000
0000
0000
0010
0100
0010
1000
0001
0100
0010
1000
,
0001
0010
0100
1000
0010
0100
0001
1000
0100
0010
0001
1000
0001
0010
0100
0010
,
0001
0010
0100
1000
0020
0000
0000
0000
1030
0100
1000
0100
0010
0100
1000
0100
,
0010
0001
0010
0100
1000
0001
0010
0100
0010
0001
1000
0100
0010
0001
0010
0100
,
0010
0001
1000
0100
0010
0000
0000
0000
2002
0000
0000
0000
0000
0000
0000
0000
,
3000
1000
0003
1000
0100
0010
0000
0202
,
0303
0000
2002
0000
3003
0000
1000
0000
0100
0010
0001
0100
0010
0000
1000
0000
,
1001
0000
1000
0000
1001
0000
0001
0000
0020
0030
0200
0300
2000
3000
0020
0000
,
0000
0000
0030
0000
0000
0000
0000
0000
2000
3000
0002
0003
0200
0300
0010
0000
,
0000
0000
0002
0003
0020
0030
0002
0003
0100
0000
0100
0000
0010
0000
0010
0000
,
0000
0000
1001
0000
2000
0000
0000
3000
0001
0010
0001
0100
0010
0100
0001
1000
,
0100
0010
0001
1000
0010
0100
0010
1000
0001
1000
0001
1000
0010
1000
0010
1000
,
0010
0100
0010
0100
0001
1000
0001
1000
0001
0010
0100
1000
0001
0010
0100
1000
,
0001
0010
0100
1000
0001
0010
0100
1000
0010
0100
0010
0100
0010
0100
0010
0100
,
0010
0100
0010
0100
0010
0100
0010
0100
0010
1000
0010
0100
0001
1000
0100
1000
,
0010
0100
0001
1000
0100
1000
0001
0100
0010
1000
0001
0010
0001
0010
0100
0010
,
0001
1000
0010
0100
0020
0000
0000
0030
2000
3000
0200
0300
0020
0030
0200
0300
,
0000
0000
2002
3003
0000
0000
0001
0000
0002
0000
2000
3003
0000
0000
0010
0000
,
1000
0000
0001
0000
0200
0000
0000
0300
0010
1000
0010
0100
0010
1000
0001
1000
,
0100
0010
0100
1000
0001
0100
0001
0010
0100
0010
0001
1000
0010
0100
0001
1000
,
0100
0010
0100
0010
0001
1000
0010
0100
0010
0000
0000
1001
0000
0000
1000
0000
,
0100
0000
0000
0011
0000
0000
1000
0000
1010
0000
0000
0000
0011
0000
0000
0000
,
1001
0000
1000
0000
0010
0000
0100
0000
0101
0000
0000
0010
0000
0000
0100
0000
,
0001
0000
0000
1100
0000
0000
0010
0000
0200
0000
0000
0000
0300
0000
0001
0000
,
0010
0000
0100
0000
1000
0000
0010
0000
0101
0000
0000
0010
0000
0000
1000
0000
,
1010
0000
0000
0100
0000
0000
0001
0000
0010
0000
0000
1100
0000
0000
0001
0000
,
1001
0000
0000
0000
0000
0000
1000
0000
0010
0000
0000
0101
0000
0000
0001
0000
,
1000
0000
0000
0000
0000
0000
0110
0000
0000
0000
0000
0000
0110
0000
0000
0000
1001
0000
0000
0000
1000
0100
1000
0100
1000
0000
0000
0000
0001
0100
0001
0100
,
0001
0000
0000
0000
0010
0100
0010
0100
0010
0000
0000
0000
0000
0000
0000
0000
1001
0000
0000
0000
1000
0000
0000
0000
0010
0000
0000
0000
1000
0000
0000
0000
,
0001
0010
0100
1000
1001
0001
0100
1001
,
0100
1000
1000
0100
1010
0001
1001
1100
,
0100
0100
0100
0010
0001
0100
0100
0010
,
1001
1000
1010
0001
1001
0001
0001
1100
,
0100
0100
0110
0010
0011
0001
0001
1100
,
0100
0000
1000
0000
1100
0000
0100
0000
1001
0000
0001
0000
0010
0100
0010
0000
,
0001
0000
1000
0000
0010
0100
0010
0000
0100
0010
0100
0010
1000
0010
1000
0010
,
1000
0001
1000
0001
0100
0001
1000
0000
1001
0000
0001
0000
0001
0000
0001
0000
,
0100
0010
0101
0010
1001
1000
0010
0101
,
0100
0010
1000
1000
1001
0100
0011
1001
,
1000
0100
1010
0100
1001
0001
0001
1000
,
1001
1000
1100
0100
0110
0011
0010
1001
,
0001
0001
0101
0010
1001
1000
1100
0010
,
0110
0000
0001
0000
1010
0000
0100
0000
1000
0100
1000
0100
1000
0100
0010
0100
,
1000
0001
1000
0100
0010
0001
1000
0001
0100
0010
0100
0010
1000
0010
0100
0001
,
0100
0010
0100
0001
0010
0100
1000
0100
1000
0001
1000
0100
1000
0010
0100
0010
,
0100
0001
0010
0100
1000
0001
1000
0100
1000
0010
0100
0010
1000
0001
0100
0001
,
0010
0100
0010
0001
0100
0001
0100
0010
0100
0001
1000
0001
0100
0010
1000
0100
,
1000
0010
0100
0010
1000
0001
0100
0001
0100
0010
1000
0010
0100
0010
1000
0100
,
1000
0100
0010
0100
0010
0001
1000
0001
1000
0100
0010
0100
1000
0010
0100
0001
,
0100
0010
0100
0010
1000
0001
0100
0010
0100
0001
1000
0001
1000
0100
1000
0010
,
1000
0010
0100
0010
0200
0000
0000
0000
0310
1000
0010
1000
0010
0100
0001
1000
,
0100
0010
0100
0010
0001
0010
0001
0100
0010
1000
0010
1000
0100
1000
0010
0100
,
0001
0010
0100
0010
0100
0010
0100
1000
0001
0100
0001
0010
0001
0010
0001
0100
,
0010
1000
0010
0100
0001
0100
0010
0100
0001
1000
0001
1000
0100
1000
0010
1000
,
0010
0100
0010
0100
0001
0100
0001
1000
0100
1000
0100
0010
0001
0010
0100
0010
,
0001
1000
0001
0100
0001
0100
0010
1000
0001
1000
0001
0100
0001
0100
0010
0100
,
0001
0100
0001
0010
0100
0010
0001
1000
0100
0010
0100
0010
0001
0010
0100
1000
,
0010
0100
0010
0100
0001
0100
0010
1000
0001
1000
0001
0100
0001
0100
0010
0100
,
0001
1000
0001
1000
0100
1000
0010
0100
0001
0000
0001
0000
0001
0000
1001
0000
,
0000
1100
0000
0011
0000
0110
0000
1000
,
0010
0100
0001
0000
1000
0100
0010
0100
,
0000
0011
0000
1100
0000
1001
0000
0100
,
0001
0100
0010
0000
0100
0001
0010
0100
,
0000
0011
0000
0110
0000
0011
0000
1000
,
0010
0000
0100
0000
0100
0000
0000
0000
0001
1000
0001
1000
0001
1000
0001
1000
,
0010
0100
0001
1000
0001
1000
0001
1000
0001
1000
0001
1000
0001
1000
0001
1000
,
0010
0100
0001
1000
0001
1000
0001
1000
0001
1000
0001
1000
0001
1000
0001
1000
,
0010
0100
0001
1000
0001
1000
0001
1000
0001
1000
0001
1000
0001
1000
0001
1000
,
0010
0100
0001
1000
0001
1000
0001
1000
0001
1000
0001
1000
0001
1000
0001
1000
,
0010
0100
0001
1000
0001
1000
0001
1000
0001
1000
0001
1000
0001
1000
0001
1000
,
0010
0100
0001
1000
0001
1000
0001
1000
0010
0000
0010
0000
0100
0000
0001
0000
,
1000
0100
0010
0001
0100
0000
0000
0000
,
0220
0000
0000
0330
0000
0000
0000
0000
1001
0000
0000
0000
0000
0000
0000
0000
,
1100
0000
0101
0000
0110
0000
2002
0000
0000
3003
0000
0000
;
