#TITLE:Shadows Drunk again;
#SUBTITLE:-JKZ Jam Jam-;
#ARTIST:JAKAZiD -Featuring Shadowman;
#TITLETRANSLIT:;
#SUBTITLETRANSLIT:;
#ARTISTTRANSLIT:;
#CREDIT:;
#BANNER:Shadows.png;
#BACKGROUND:Shadowsbg.png;
#LYRICSPATH:Shadows.LRC;
#CDTITLE:Shadowtitle.png;
#MUSIC:drunk 110bpm.mp3;
#OFFSET:0.000;
#SAMPLESTART:54.545;
#SAMPLELENGTH:12.000;
#SELECTABLE:YES;
#BPMS:0.000=110.000;
#STOPS:;
#BGCHANGES:0.000=-random-=1.000=0=0=1,
159.125=Shadowsbg2.png=1.000=0=0=1,
159.250=Shadowsbg.png=1.000=0=0=1,
99999=-nosongbg-=1.000=0=0=0 // don't automatically add -songbackground-
;
// cache tags:
#FIRSTBEAT:0.000;
#LASTBEAT:160.500;
#SONGFILENAME:Songs/DDRExtreme.co.uk presents ChristmasMix/Shadows Drunk again/Shadows.sm;
#HASMUSIC:1;
#HASBANNER:1;
#MUSICLENGTH:88.006;
// end cache tags

//---------------dance-single - Hardon----------------
#NOTES:
     dance-single:
     Hardon:
     Hard:
     6:
     0.393,0.410,0.034,0.000,0.023,239.000,3.000,0.000,0.000,0.000:
1000
0001
1000
0001
,
1000
0001
1000
0001
,
1000
0010
0100
0010
,
0100
0001
0010
0100
,
1000
0010
0100
1000
,
0010
1000
0100
0010
,
0100
1000
0001
0010
,
0100
1000
0100
0010
,
1001
1000
0100
1000
0100
0001
0010
0010
,
0100
1000
1000
0100
1000
0100
1000
0100
,
0010
0010
0001
0001
0010
0100
0001
0010
,
0100
0001
1000
0001
1000
0000
0000
0000
,
1000
0001
1000
0001
1000
0001
0001
0001
,
0001
1000
1000
1000
1000
0001
0001
0001
,
1000
0001
1000
0001
1000
0001
1000
0001
,
1000
1000
1000
0010
1000
0000
0000
0000
,
1000
0001
0010
0100
,
1000
0001
0100
1000
,
0100
0010
0001
0010
,
0100
1000
0100
1000
,
0001
0001
1000
0010
,
0100
1000
0010
0100
,
1000
0100
0010
0001
,
0010
0100
1000
0100
,
0010
0100
0001
0010
0100
1000
0100
1000
,
0010
0001
0010
0100
1000
0100
1000
0100
,
1000
0010
0001
0010
0001
0010
0001
0001
,
0010
1000
0100
1000
0010
0000
0000
0000
,
1000
1000
1000
0001
0010
0010
0010
0010
,
0100
1000
0100
1000
0100
1000
0100
1000
,
0010
0001
0010
0001
0010
0001
0010
0001
,
0010
0000
1000
0000
1000
0000
1000
0000
1000
0000
0000
0000
0000
0000
0000
0000
0000
0000
,
1000
0001
1000
0001
1000
0001
1000
0001
,
0010
0100
0100
1000
0100
1000
0100
1000
,
0100
1000
1000
1000
1000
1000
1000
1000
,
0001
0001
0001
0001
0001
0000
0000
0000
,
1001
1000
1000
1000
1000
1000
1000
1000
,
0010
0010
0100
0001
0010
0010
0100
0100
,
1000
1000
1000
1000
1000
0001
0001
0001
,
1000
0001
1000
0001
1000
0000
0000
0000
,
0000
1001
0000
0000
0000
0000
0000
0000
;

//---------------dance-single - ----------------
#NOTES:
     dance-single:
     :
     Medium:
     4:
     0.289,0.386,0.261,0.000,0.000,155.000,23.000,0.000,0.000,0.000:
1001
1000
1000
1000
,
1000
1000
1000
1000
,
1001
0001
0001
0001
,
0001
0001
0001
0001
,
0001
0001
1000
1000
,
1000
1000
1000
1000
,
1000
1000
1000
1000
,
0010
0010
0010
0010
,
1001
0110
1001
0110
,
1100
0011
1100
0011
,
0100
1000
0100
1000
,
0010
0001
0010
0000
,
1001
0110
1001
0110
,
1000
0100
0010
0001
,
0001
1000
1000
0010
,
0100
1000
0010
0000
,
0001
0010
0100
0100
,
0100
0010
0010
0010
,
0100
0100
0100
0100
,
1000
1000
1000
1000
,
0001
0001
0001
0001
,
0001
0001
1000
1000
,
1000
1000
1000
1000
,
0010
0010
0010
0010
,
0100
0100
0100
1000
,
0100
0010
0001
0010
,
0100
0100
0100
1000
,
0010
0100
0110
0000
,
0100
0010
0100
1000
,
0100
0010
0001
0001
,
0011
0100
1000
0100
,
0010
0001
1001
0000
,
0010
0100
1000
0100
,
0010
0001
0010
0100
,
1000
0100
1000
0100
,
0010
0001
0010
0000
,
1001
0110
1100
0011
,
0100
1000
0100
0010
,
0001
0100
1000
0100
,
0001
0010
1001
0000
,
1001
0000
0000
0000
;

//---------------dance-single - ----------------
#NOTES:
     dance-single:
     :
     Easy:
     2:
     0.157,0.205,0.182,0.000,0.000,81.000,16.000,0.000,0.000,0.000:
1000
0000
1000
0000
,
0001
0000
0001
0000
,
0010
0000
0100
0000
,
1000
0000
0001
0000
,
0010
0000
0100
0000
,
0100
0000
0010
0000
,
0100
0000
1000
0000
,
0010
0000
0100
0000
,
1001
0000
0010
0000
,
0100
0000
1000
0000
,
0010
0000
0010
0000
,
0100
0000
0100
0000
,
1001
0000
1001
0000
,
0010
0000
0100
0000
,
1001
0000
0010
0000
,
0100
0000
1001
0000
,
0010
0000
0100
0000
,
1000
0000
1000
0000
,
0001
0000
0001
0000
,
1000
0000
0010
0000
,
1001
0000
0110
0000
,
0110
0000
1001
0000
,
1000
0000
0001
0000
,
0110
0000
0100
0000
,
0010
0000
0110
0000
,
0100
0000
0100
0000
,
1001
0000
0110
0000
,
0001
0000
1000
0000
,
0010
0000
0100
0000
,
0100
0000
0010
0000
,
0010
0000
0100
0000
,
0010
0000
0100
0000
,
1001
0000
0010
0000
,
0100
0000
0100
0000
,
0010
0000
0100
0000
,
0010
0000
0100
0000
,
0010
0000
0100
0000
,
0001
0000
1000
0000
,
0010
0000
0100
0000
,
0001
0000
1001
0000
,
1001
0000
0000
0000
;
