#TITLE:Beast Mode;
#SUBTITLE:;
#ARTIST:xKore;
#TITLETRANSLIT:;
#SUBTITLETRANSLIT:;
#ARTISTTRANSLIT:;
#CREDIT:;
#BANNER:../Wubstream - ban.png;
#BACKGROUND:../Wubstream - bg.png;
#LYRICSPATH:;
#CDTITLE:~CDTitle-@@.png;
#MUSIC:xKore - Beast Mode.ogg;
#OFFSET:-3.097;
#SAMPLESTART:71.668;
#SAMPLELENGTH:27.420;
#SELECTABLE:YES;
#BPMS:0.000=140.000;
#STOPS:;
#BGCHANGES:;
// cache tags:
#FIRSTBEAT:0.000;
#LASTBEAT:592.000;
#SONGFILENAME:Songs/Wubstream/Beast Mode - [@@]/Beast Mode.sm;
#HASMUSIC:1;
#HASBANNER:1;
#MUSICLENGTH:259.160;
// end cache tags

//---------------dance-single - @@----------------
#NOTES:
     dance-single:
     @@:
     Challenge:
     16:
     1.000,1.000,0.185,0.359,1.000,1926.000,48.000,93.000,2.000,0.000:
1000
0010
0100
0001
0100
0010
1000
0001
0100
0001
1000
0010
1000
0100
0010
0001
0100
0001
0010
0100
1000
0010
0100
0001
,
0010
0100
0010
0001
1000
0100
0010
0100
1000
0001
0010
0100
1000
0010
0100
0001
0010
0001
0100
0010
1000
0100
0010
0001
,
0100
0010
1000
0001
0100
0001
1000
0010
0100
0001
0100
0010
1000
0100
1000
0010
0100
0001
0010
0100
1000
0010
0100
0001
,
0010
0001
1000
0100
0010
0100
1000
0001
0010
0100
0010
0001
0100
0010
1000
0100
1000
0010
0100
0001
0010
0100
1000
0010
,
0100
0001
0100
0010
1000
0001
0100
0001
1000
0010
0100
0001
0010
0001
0100
0010
1000
0100
0010
0100
1000
0010
0100
0001
,
0010
0100
1000
0001
0010
0001
1000
0100
0010
0001
0010
0100
1000
0010
1000
0100
0010
0001
0100
0001
0010
0100
1000
0010
,
0100
0001
0100
0010
1000
0001
0100
0001
1000
0010
0100
0001
0010
0001
0100
0010
1000
0100
0010
0001
0100
0010
1000
0100
,
0010
1100
1001
0101
,
0001
0010
0100
1000
0100
0010
0001
0100
0010
1000
0010
0100
0001
0010
0001
1000
0001
0100
0010
1000
0010
1000
0100
0010
,
0001
0100
0010
1000
0010
0100
0001
0010
0100
1000
0001
0100
0001
0010
0100
1000
0001
0010
0001
0100
0010
1000
0010
0100
,
0001
0010
0100
1000
0100
0010
0001
0100
0010
1000
0010
0100
0001
1000
0100
1000
0001
1000
0010
0100
0010
0100
0001
0010
,
0001
0100
0010
1000
0001
0100
0001
0010
0100
1000
0100
0010
0001
0100
0010
1000
0001
0100
0001
0010
0100
1000
0100
0010
,
0001
0100
0010
1000
0010
0100
0001
0010
0100
1000
0100
0010
0001
0100
0001
1000
0001
0010
0100
1000
0100
1000
0010
0100
,
0001
0010
0100
1000
0100
0010
0001
0100
0010
1000
0001
0010
0001
0100
0010
1000
0001
0100
0001
0010
0100
1000
0100
0010
,
0001
0100
0010
1000
0010
0100
0001
0010
0100
1000
0100
0010
0001
1000
0010
1000
0001
1000
0100
0010
0100
0010
0001
0100
,
0001
0010
0100
1000
0001
0010
0001
0100
0010
1000
0001
0100
0001
0010
0100
1000
0001
0010
0001
0100
0010
1000
0001
0100
,
0040
0000
0000
0000
,
0000
0000
0000
0000
,
0000
0000
0000
0000
,
0000
0000
1030
0000
,
0400
0000
0000
0000
,
0000
0000
0000
0000
,
0000
0000
0000
0000
,
0000
0000
1300
0000
,
0020
0000
1000
0000
,
1000
0000
1000
0030
,
1000
0100
0010
0001
,
1000
0010
0100
0001
,
1000
0100
0010
0001
1000
0010
0100
0001
,
1000
0100
0010
0001
1000
0010
0100
0001
,
1000
0100
0010
0001
1000
0010
0100
0001
1000
0100
0010
0001
1000
0010
0100
0001
,
0000
0000
1001
0000
,
2000
0000
0000
0000
3000
0000
0000
0001
0010
0000
0000
0000
0100
0000
0000
0000
,
2000
0000
0000
0000
0000
0000
0000
0000
0000
0000
0000
0000
0000
0000
0000
0000
0000
0000
3000
0000
0000
0001
0000
0000
0100
0000
0010
0000
1000
0000
0100
0000
0010
0000
0001
0000
0200
0000
0000
0000
0000
0000
0300
0000
0000
0000
0000
0000
,
0002
0000
0000
0000
0000
0000
0003
1000
0100
0000
0000
0000
1000
0000
0001
0000
,
2002
0000
0000
3003
0000
0000
0000
0000
0000
0000
0000
0000
2020
0000
0000
3030
0000
0000
0000
0000
0000
0000
0000
0000
1000
0000
0010
0000
0100
0000
0001
0000
0010
0000
0001
0000
2000
0000
0000
0000
0000
0000
3000
0000
0000
0000
0000
0000
,
0004
0000
0000
0000
,
0103
0000
0000
0000
0000
0000
0010
0000
0000
0000
0000
0000
1000
0000
0001
0000
0010
0000
0001
0000
1000
0000
0100
0000
1000
0000
0001
0000
0100
0000
0010
0000
0100
0000
0001
0000
0020
0000
0000
0030
0000
0000
0000
0000
0000
0000
0000
0000
,
0002
0000
0000
0000
0000
0000
0003
1000
0010
0000
0000
0000
0100
0000
0001
0000
,
2002
3003
0000
0000
2020
3030
0000
0000
1000
0000
0010
0100
0001
0000
1000
0100
,
0020
0000
0000
0000
0000
0000
0030
0001
1000
0000
0000
0000
0010
0000
0000
0000
,
1000
0010
1000
0001
0010
0001
0100
0010
0100
0001
1000
0001
0010
0100
1000
0010
0100
0001
2000
0000
0000
3000
0000
0000
,
0200
0000
0000
0000
0000
0000
0300
1000
0001
0000
0000
0000
0100
0000
0010
0000
,
2020
0000
0000
3030
0000
0000
0000
0000
0000
0000
0000
0000
2002
0000
0000
3003
0000
0000
0000
0000
0000
0000
0000
0000
0001
0000
0010
0000
0001
0000
0100
0000
0010
0000
1000
0000
0200
0000
0000
0000
0000
0000
0300
0000
0000
0000
0000
0000
,
4000
0000
0000
0000
,
3001
0000
0000
0000
0000
0000
0100
0000
0000
0000
0000
0000
0010
0000
1000
0000
0001
0000
0100
0000
0001
0000
1000
0000
0100
0000
0010
0000
0100
0000
1000
0000
0000
0010
0000
0000
0100
0000
0000
0010
0000
0000
0100
0000
0000
0010
0000
0000
,
2000
0000
0000
0000
0000
0000
0000
0000
0000
0000
0000
0000
0000
0000
0000
0000
3000
0000
0000
0000
0000
0001
0000
0000
1000
0000
0000
0000
0000
0000
0000
0000
0000
0000
0000
0000
0100
0000
0000
0000
0000
0000
0010
0000
0000
0000
0000
0000
,
0022
0033
0000
0000
2002
3003
0000
0000
1000
0000
0010
1000
0100
0000
0010
0001
,
0100
0010
1000
0001
0100
0010
1000
0001
1000
0010
0100
0001
0010
0001
0100
0010
1000
0100
0010
0001
0100
0010
0100
0001
,
0010
0100
0010
0001
1000
0100
0010
0100
1000
0001
0010
0100
1000
0010
0100
0001
0010
0100
1000
0010
1000
0100
0010
0001
,
0100
0010
1000
0001
0100
0001
1000
0010
0100
0001
0100
0010
1000
0100
1000
0010
0100
0001
0010
0100
1000
0010
0100
0001
,
0010
0100
0010
0001
1000
0100
0010
0100
1000
0001
0010
0100
1000
0010
1000
0100
0010
0001
0100
0010
1000
0100
0010
0001
,
0100
0010
0100
0001
1000
0010
1000
0001
0100
0010
0100
0001
0010
0001
0100
0010
0100
0001
0010
0100
1000
0010
0100
0001
,
0010
0001
1000
0100
0010
0100
1000
0001
0010
0100
0010
0001
0100
0010
1000
0100
1000
0010
0100
0001
0010
0100
1000
0010
,
0100
0001
0100
0010
1000
0001
0100
0001
1000
0010
0100
0001
0010
0001
0100
0010
1000
0100
0010
0001
0100
0010
1000
0100
,
1000
0000
0010
0100
0001
0000
1000
0100
0010
0000
0001
1000
0020
0000
0030
0000
,
0200
0000
0000
0000
0000
0000
0300
0001
1000
0000
0000
0000
0100
0000
0000
0000
,
1000
0100
1000
0001
0100
0001
0010
0100
0010
0001
1000
0001
0100
0010
1000
0100
0010
0001
2000
0000
0000
3000
0000
0000
,
0020
0000
0000
0000
0000
0000
0030
1000
0001
0000
0000
0000
0010
0000
0100
0000
,
2200
0000
0000
3300
0000
0000
0000
0000
0000
0000
0000
0000
2002
0000
0000
3003
0000
0000
0000
0000
0000
0000
0000
0000
0001
0000
0100
0000
0001
0000
0010
0000
0100
0000
1000
0000
0000
0000
0000
0000
0000
0000
0000
0000
0000
0000
0000
0000
,
4000
0000
0000
0000
,
3001
0000
0000
0000
0000
0000
0010
0000
0000
0000
0000
0000
0100
0000
1000
0000
0001
0000
0010
0000
0001
0000
1000
0000
0010
0000
0100
0000
0010
0000
1000
0000
0000
0100
0000
0000
0010
0000
0000
0100
0000
0000
0010
0000
0000
0100
0000
0000
,
2000
0000
0000
0000
0000
0000
0000
0000
0000
0000
0000
0000
0000
0000
0000
0000
3000
0000
0000
0000
0000
0001
0000
0000
1000
0000
0000
0000
0000
0000
0000
0000
0000
0000
0000
0000
0010
0000
0000
0000
0000
0000
0100
0000
0000
0000
0000
0000
,
0202
0303
0000
0000
2002
3003
0000
0000
1000
0000
0100
1000
0010
0000
0100
0001
,
0010
0100
1000
0001
0010
0001
1000
0100
0010
0001
0010
0100
1000
0001
1000
0010
0100
0001
1000
0010
1000
0001
0100
0010
,
1000
0001
0010
0001
1000
0100
0010
0100
1000
0001
0010
0100
1000
0010
1000
0100
0010
0001
0100
0010
1000
0100
0010
0100
,
1000
0010
0100
0001
0100
0010
1000
0001
0100
0001
1000
0010
1000
0100
0010
0001
0100
0010
1000
0100
1000
0010
0100
0001
,
0010
0001
1000
0100
0010
0100
1000
0001
0010
0100
0010
0001
0100
0010
1000
0100
1000
0010
0100
0001
0010
0100
1000
0010
,
0100
0001
1000
0010
1000
0001
0010
0100
0010
0001
1000
0100
1000
0010
0100
0001
0010
0100
1000
0010
1000
0100
0010
0001
,
0100
0010
1000
0001
0100
0001
1000
0100
0010
0001
1000
0100
1000
0010
0100
0001
0010
0001
0100
0010
1000
0100
0010
0001
,
0100
0010
1000
0001
0100
0001
1000
0100
0010
0001
0010
0100
1000
0010
1000
0100
0010
0001
0100
0010
1000
0100
1000
0010
,
0100
0101
1001
1100
,
1000
0100
0010
0001
0010
0100
1000
0010
0100
0001
0100
0010
1000
0100
1000
0001
1000
0010
0100
0001
0100
0001
0010
0100
,
1000
0010
0100
0001
0100
0010
1000
0100
0010
0001
1000
0010
1000
0100
0010
0001
1000
0100
1000
0010
0100
0001
0100
0010
,
1000
0100
0010
0001
0010
0100
1000
0010
0100
0001
0100
0010
1000
0001
0010
0001
1000
0001
0100
0010
0100
0010
1000
0100
,
1000
0010
0100
0001
1000
0010
1000
0100
0010
0001
0010
0100
1000
0010
0100
0001
1000
0010
1000
0100
0010
0001
0010
0100
,
1000
0010
0100
0001
0100
0010
1000
0100
0010
0001
0010
0100
1000
0010
1000
0001
1000
0100
0010
0001
0010
0001
0100
0010
,
1000
0100
0010
0001
0010
0100
1000
0010
0100
0001
1000
0100
1000
0010
0100
0001
1000
0010
1000
0100
0010
0001
0010
0100
,
1000
0010
0100
0001
0100
0010
1000
0100
0010
0001
0010
0100
1000
0001
0100
0001
1000
0001
0010
0100
0010
0100
1000
0010
,
1000
0100
0010
0001
1000
0100
1000
0010
0100
0001
1000
0010
1000
0100
0010
0001
1000
0100
1000
0010
0100
0001
1000
0100
,
0040
0000
0000
0000
,
0000
0000
0000
0000
,
0000
0000
0000
0000
,
0032
0003
0000
0000
0002
0003
0000
0000
1002
0003
0000
0000
0002
0003
0000
0000
,
0400
0000
0000
0000
,
0000
0000
0000
0000
,
0000
0000
0000
0000
,
0302
0003
0000
0000
0002
0003
0000
0000
1002
0003
0000
0000
0002
0003
0000
0000
,
0020
0000
0001
0000
,
0001
0000
0001
0030
,
0001
0100
0010
1000
,
0001
0010
0100
1000
,
0001
0100
0010
1000
0001
0010
0100
1000
,
0001
0100
0010
1000
0001
0010
0100
1000
,
0001
0100
0010
1000
0001
0010
0100
1000
0001
0100
0010
1000
0001
0010
0100
1000
,
0000
0000
1001
0000
,
0002
0000
0000
0000
0003
0000
0000
1000
0010
0000
0000
0000
0100
0000
0000
0000
,
0002
0000
0000
0000
0000
0000
0000
0000
0000
0000
0000
0000
0000
0000
0000
0000
0000
0000
0003
0000
0000
1000
0000
0000
0100
0000
0010
0000
0001
0000
0100
0000
0010
0000
1000
0000
0200
0000
0000
0000
0000
0000
0300
0000
0000
0000
0000
0000
,
2000
0000
0000
0000
0000
0000
3000
0001
0010
0000
0000
0000
0001
0000
1000
0000
,
2002
0000
0000
3003
0000
0000
0000
0000
0000
0000
0000
0000
0022
0000
0000
0033
0000
0000
0000
0000
0000
0000
0000
0000
0001
0000
0010
0000
0100
0000
1000
0000
0010
0000
1000
0000
0002
0000
0000
0000
0000
0000
0003
0000
0000
0000
0000
0000
,
4000
0000
0000
0000
,
3100
0000
0000
0000
0000
0000
0010
0000
0000
0000
0000
0000
0001
0000
1000
0000
0010
0000
1000
0000
0001
0000
0100
0000
0001
0000
1000
0000
0100
0000
0010
0000
0100
0000
1000
0000
0020
0000
0000
0030
0000
0000
0000
0000
0000
0000
0000
0000
,
2000
0000
0000
0000
0000
0000
3000
0001
0010
0000
0000
0000
0100
0000
1000
0000
,
2002
3003
0000
0000
0022
0033
0000
0000
0001
0000
0010
0100
1000
0000
0001
0100
,
0020
0000
0000
0000
0000
0000
0030
1000
0001
0000
0000
0000
0010
0000
0000
0000
,
0001
0010
0001
1000
0010
1000
0100
0010
0100
1000
0001
1000
0010
0100
0001
0010
0100
1000
0002
0000
0000
0003
0000
0000
,
0200
0000
0000
0000
0000
0000
0300
0001
1000
0000
0000
0000
0100
0000
0010
0000
,
0022
0000
0000
0033
0000
0000
0000
0000
0000
0000
0000
0000
2002
0000
0000
3003
0000
0000
0000
0000
0000
0000
0000
0000
1000
0000
0010
0000
1000
0000
0100
0000
0010
0000
0001
0000
0200
0000
0000
0000
0000
0000
0300
0000
0000
0000
0000
0000
,
0004
0000
0000
0000
,
1003
0000
0000
0000
0000
0000
0100
0000
0000
0000
0000
0000
0010
0000
0001
0000
1000
0000
0100
0000
1000
0000
0001
0000
0100
0000
0010
0000
0100
0000
0001
0000
0000
0010
0000
0000
0100
0000
0000
0010
0000
0000
0100
0000
0000
0010
0000
0000
,
0002
0000
0000
0000
0000
0000
0000
0000
0000
0000
0000
0000
0000
0000
0000
0000
0003
0000
0000
0000
0000
1000
0000
0000
0001
0000
0000
0000
0000
0000
0000
0000
0000
0000
0000
0000
0100
0000
0000
0000
0000
0000
0010
0000
0000
0000
0000
0000
,
2020
3030
0000
0000
2002
3003
0000
0000
0001
0000
0010
0001
0100
0000
0010
1000
,
0100
0010
0001
1000
0100
0010
0001
1000
0001
0010
0100
1000
0010
1000
0100
0010
0001
0100
0010
1000
0100
0010
0100
1000
,
0010
0100
0010
1000
0001
0100
0010
0100
0001
1000
0010
0100
0001
0010
0100
1000
0010
0100
0001
0010
0001
0100
0010
1000
,
0100
0010
0001
1000
0100
1000
0001
0010
0100
1000
0100
0010
0001
0100
0001
0010
0100
1000
0010
0100
0001
0010
0100
1000
,
0010
0100
0010
1000
0001
0100
0010
0100
0001
1000
0010
0100
0001
0010
0001
0100
0010
1000
0100
0010
0001
0100
0010
1000
,
0100
0010
0100
1000
0001
0010
0001
1000
0100
0010
0100
1000
0010
1000
0100
0010
0100
1000
0010
0100
0001
0010
0100
1000
,
0010
1000
0001
0100
0010
0100
0001
1000
0010
0100
0010
1000
0100
0010
0001
0100
0001
0010
0100
1000
0010
0100
0001
0010
,
0100
1000
0100
0010
0001
1000
0100
1000
0001
0010
0100
1000
0010
1000
0100
0010
0001
0100
0010
1000
0100
0010
0001
0100
,
0001
0000
0010
0100
1000
0000
0001
0100
0010
0000
1000
0001
0020
0000
0030
0000
,
0200
0000
0000
0000
0000
0000
0300
1000
0001
0000
0000
0000
0100
0000
0000
0000
,
0001
0100
0001
1000
0100
1000
0010
0100
0010
1000
0001
1000
0100
0010
0001
0100
0010
1000
0002
0000
0000
0003
0000
0000
,
0020
0000
0000
0000
0000
0000
0030
0001
1000
0000
0000
0000
0010
0000
0100
0000
,
0202
0000
0000
0303
0000
0000
0000
0000
0000
0000
0000
0000
2002
0000
0000
3003
0000
0000
0000
0000
0000
0000
0000
0000
1000
0000
0100
0000
1000
0000
0010
0000
0100
0000
0001
0000
0020
0000
0000
0000
0000
0000
0030
0000
0000
0000
0000
0000
,
0004
0000
0000
0000
,
1003
0000
0000
0000
0000
0000
0010
0000
0000
0000
0000
0000
0100
0000
0001
0000
1000
0000
0010
0000
1000
0000
0001
0000
0010
0000
0100
0000
0010
0000
0001
0000
0000
0100
0000
0000
0010
0000
0000
0100
0000
0000
0010
0000
0000
0100
0000
0000
,
0002
0000
0000
0000
0000
0000
0000
0000
0000
0000
0000
0000
0000
0000
0000
0000
0003
0000
0000
0000
0000
1000
0000
0000
0001
0000
0000
0000
0000
0000
0000
0000
0000
0000
0000
0000
0010
0000
0000
0000
0000
0000
0100
0000
0000
0000
0000
0000
,
2200
3300
0000
0000
2002
3003
0000
0000
0001
0000
0100
0001
0010
0000
0100
1000
,
0001
0100
0010
0100
0001
1000
0100
0010
0100
1000
0010
0100
0001
0010
0001
0100
0010
1000
0100
0010
0001
0100
0001
0010
,
0100
1000
0100
0010
0001
0100
0010
1000
0001
0010
0100
1000
0010
1000
0100
0010
0001
0100
0010
1000
0100
0010
0001
0100
,
0001
1000
0010
0100
0001
0010
0100
1000
0001
0100
0010
1000
0100
1000
0010
0100
0001
0010
0100
1000
0010
0100
0010
1000
,
0100
0010
0001
1000
0010
0100
0001
0010
0001
1000
0010
1000
0100
0010
0001
0100
0001
0010
0100
1000
0010
0100
0001
0010
,
0001
0100
0010
1000
0001
0010
0001
0100
0010
1000
0001
0100
0001
0010
0100
1000
0010
0100
0001
0010
0001
0100
0010
1000
,
0100
0010
0001
1000
0100
1000
0010
0100
0001
1000
0010
1000
0100
0010
0001
0100
0001
0010
0100
1000
0010
0100
0001
0010
,
0001
0100
0010
1000
0001
0010
0001
1000
0010
1000
0001
0010
0001
0100
0010
1000
0100
0010
0001
0100
0001
0010
0100
1000
,
0010
1000
0100
0010
0001
0100
0001
0010
0100
1000
0010
0100
0001
0010
0001
0100
0010
1000
0100
0010
0001
0100
0010
1000
,
0100
1000
0001
0010
0001
1000
0010
0100
0010
1000
0100
0010
0001
0100
0001
0010
0100
1000
0010
0100
0001
0010
0001
0100
,
0010
1000
0010
0100
0001
0010
0100
1000
0001
0100
0010
1000
0100
1000
0010
0100
0001
0010
0100
1000
0010
0100
0001
0010
,
0001
1000
0100
0010
0001
0100
0010
1000
0001
0010
0100
1000
0010
1000
0100
0010
0001
0100
0010
1000
0100
0010
0100
1000
,
0010
0100
0001
1000
0100
0010
0001
0100
0001
1000
0100
1000
0010
0100
0001
0010
0001
0100
0010
1000
0100
0010
0001
0100
,
0001
0010
0100
1000
0001
0100
0001
0010
0100
1000
0001
0010
0001
0100
0010
1000
0100
0010
0001
0100
0001
0010
0100
1000
,
0010
0100
0001
1000
0010
1000
0100
0010
0001
1000
0100
1000
0010
0100
0001
0010
0001
0100
0010
1000
0100
0010
0001
0100
,
0001
0010
0100
1000
0001
0100
0001
1000
0100
1000
0001
0100
0001
0010
0100
1000
0010
0100
0001
0010
0001
0100
0010
1000
,
0100
1001
0110
1001
,
1001
0000
0000
0000
,
0000
0000
0000
0000
,
0000
0000
0000
0000
,
0000
0000
0000
0000
,
0MM0
0000
0000
0000
;

//---------------dance-single - @@----------------
#NOTES:
     dance-single:
     @@:
     Hard:
     15:
     0.987,1.000,0.189,0.440,1.000,1626.000,49.000,114.000,2.000,0.000:
1000
0000
0000
0000
1000
0000
0000
0010
0200
0000
0300
0000
0000
0000
0000
0000
,
0001
0000
0010
0100
1000
0100
0010
0001
0200
0000
0300
0000
0000
0000
0000
0000
,
0001
0000
0100
0010
1000
0010
0100
0001
0020
0000
0030
0000
0000
0000
0000
0000
,
0001
0000
0010
0100
1000
0100
0010
0001
0200
0000
0300
0000
0000
0000
0000
0000
,
0001
0000
0100
0010
1000
0001
0100
0001
0020
0000
0030
0000
0000
0000
0000
0000
,
0001
0000
0010
0100
1000
0001
0010
0001
0200
0000
0300
0000
0000
0000
0000
0000
,
0001
0000
0100
0010
1000
0001
0100
0001
0020
0000
0030
0000
0000
0000
0000
0000
,
1001
1100
1001
0101
,
0001
0010
0100
1000
0100
0010
0001
0100
0010
1000
0010
0100
0001
0010
0001
1000
0001
0100
0010
1000
0010
1000
0100
0010
,
0001
0100
0010
1000
0010
0100
0001
0010
0100
1000
0001
0100
0001
0010
0100
1000
0001
0010
0001
0100
0010
1000
0010
0100
,
0001
0010
0100
1000
0100
0010
0001
0100
0010
1000
0010
0100
0001
1000
0100
1000
0001
1000
0010
0100
0010
0100
0001
0010
,
0001
0100
0010
1000
0001
0100
0001
0010
0100
1000
0100
0010
0001
0100
0010
1000
0001
0100
0001
0010
0100
1000
0100
0010
,
0001
0100
0010
1000
0010
0100
0001
0010
0100
1000
0100
0010
0001
0100
0001
1000
0001
0010
0100
1000
0100
1000
0010
0100
,
0001
0010
0100
1000
0100
0010
0001
0100
0010
1000
0001
0010
0001
0100
0010
1000
0001
0100
0001
0010
0100
1000
0100
0010
,
0001
0100
0010
1000
0010
0100
0001
0010
0100
1000
0100
0010
0001
1000
0010
1000
0001
1000
0100
0010
0100
0010
0001
0100
,
0001
0010
0100
1000
0001
0010
0001
0100
0010
1000
0001
0100
0001
0010
0100
1000
0001
0010
0001
0100
0010
1000
0001
0100
,
0040
0000
0000
0000
,
0000
0000
0000
0000
,
0000
0000
0000
0000
,
0000
0000
1030
0000
,
0400
0000
0000
0000
,
0000
0000
0000
0000
,
0000
0000
0000
0000
,
0000
0000
1300
0000
,
0020
0000
1000
0000
,
1000
0000
1000
0030
,
1000
0100
0010
0001
,
1000
0010
0100
0001
,
1000
0100
0010
0001
1000
0010
0100
0001
,
1000
0100
0010
0001
1000
0010
0100
0001
,
1000
0100
0010
0001
1000
0010
0100
0001
1000
0100
0010
0001
1000
0010
0100
0001
,
0000
0000
1001
0000
,
2000
0000
0000
0000
3000
0000
0000
0001
0010
0000
0000
0000
0100
0000
0000
0000
,
2000
0000
0000
0000
0000
0000
0000
0000
0000
0000
0000
0000
0000
0000
0000
0000
0000
0000
3000
0000
0000
0001
0000
0000
0100
0000
0010
0000
1000
0000
0100
0000
0010
0000
0001
0000
0200
0000
0000
0000
0000
0000
0300
0000
0000
0000
0000
0000
,
0002
0000
0000
0000
0000
0000
0003
1000
0100
0000
0000
0000
1000
0000
0001
0000
,
2002
0000
0000
3003
0000
0000
0000
0000
0000
0000
0000
0000
2020
0000
0000
3030
0000
0000
0000
0000
0000
0000
0000
0000
1000
0000
0010
0000
0100
0000
0001
0000
0010
0000
0001
0000
2000
0000
0000
0000
0000
0000
3000
0000
0000
0000
0000
0000
,
0004
0000
0000
0000
,
0103
0000
0000
0000
0000
0000
0010
0000
0000
0000
0000
0000
1000
0000
0001
0000
0010
0000
0001
0000
1000
0000
0100
0000
1000
0000
0001
0000
0100
0000
0010
0000
0100
0000
0001
0000
0020
0000
0000
0030
0000
0000
0000
0000
0000
0000
0000
0000
,
0002
0000
0000
0000
0000
0000
0003
1000
0010
0000
0000
0000
0100
0000
0001
0000
,
2002
3003
0000
0000
2020
3030
0000
0000
1000
0000
0010
0100
0001
0000
1000
0100
,
0020
0000
0000
0000
0000
0000
0030
0001
1000
0000
0000
0000
0010
0000
0000
0000
,
1000
0010
1000
0001
0010
0001
0100
0010
0100
0001
1000
0001
0010
0100
1000
0010
0100
0001
2000
0000
0000
3000
0000
0000
,
0200
0000
0000
0000
0000
0000
0300
1000
0001
0000
0000
0000
0100
0000
0010
0000
,
2020
0000
0000
3030
0000
0000
0000
0000
0000
0000
0000
0000
2002
0000
0000
3003
0000
0000
0000
0000
0000
0000
0000
0000
0001
0000
0010
0000
0001
0000
0100
0000
0010
0000
1000
0000
0200
0000
0000
0000
0000
0000
0300
0000
0000
0000
0000
0000
,
4000
0000
0000
0000
,
3001
0000
0000
0000
0000
0000
0100
0000
0000
0000
0000
0000
0010
0000
1000
0000
0001
0000
0100
0000
0001
0000
1000
0000
0100
0000
0010
0000
0100
0000
1000
0000
0000
0010
0000
0000
0100
0000
0000
0010
0000
0000
0100
0000
0000
0010
0000
0000
,
2000
0000
0000
0000
0000
0000
0000
0000
0000
0000
0000
0000
0000
0000
0000
0000
3000
0000
0000
0000
0000
0001
0000
0000
1000
0000
0000
0000
0000
0000
0000
0000
0000
0000
0000
0000
0100
0000
0000
0000
0000
0000
0010
0000
0000
0000
0000
0000
,
0022
0033
0000
0000
2002
3003
0000
0000
1000
0000
0010
1000
0100
0000
0010
0001
,
0200
0000
0000
0000
0000
0000
0000
0000
0000
0000
0000
0000
0300
0000
0000
0000
0000
0000
0000
0000
0000
0001
0000
0000
0010
0000
0100
0000
1000
0000
0001
0000
0010
0000
0001
0000
1000
0000
0100
0000
0010
0000
0001
0000
0100
0000
0010
0000
,
0200
0000
0000
0000
0000
0000
0300
0000
0000
0001
0000
0000
0100
0010
1000
0001
0100
0001
1000
0010
0100
0001
0010
0100
,
0020
0000
0000
0000
0000
0000
0000
0000
0000
0000
0000
0000
0030
0000
0000
0000
0000
0000
0000
0000
0000
0001
0000
0000
0100
0000
0010
0000
1000
0000
0001
0000
0100
0000
0001
0000
1000
0000
0010
0000
0100
0000
0001
0000
0010
0000
0100
0000
,
0020
0000
0000
0000
0000
0000
0030
0000
0000
0100
1000
0001
0100
0010
1000
0001
0010
0100
1000
0010
1000
0100
0010
0001
,
0020
0000
0000
0000
0000
0000
0000
0000
0000
0000
0000
0000
0030
0000
0000
0000
0000
0000
0000
0000
0000
0001
0000
0000
0100
0000
0010
0000
1000
0000
0001
0000
0100
0000
0001
0000
1000
0000
0010
0000
0100
0000
0001
0000
0010
0000
0100
0000
,
0020
0000
0000
0000
0000
0000
0030
0000
0000
0001
0000
0000
0010
0100
1000
0001
0010
0001
1000
0100
0010
0001
0100
0010
,
0200
0000
0000
0000
0000
0000
0000
0000
0000
0000
0000
0000
0300
0000
0000
0000
0000
0000
0000
0000
0000
0001
0000
0000
0010
0000
0100
0000
1000
0000
0001
0000
0010
0000
0001
0000
1000
0000
0100
0000
0010
0000
0001
0000
0100
0000
0010
0000
,
1000
0000
0010
0100
0001
0000
1000
0100
0010
0000
0001
1000
0020
0000
0030
0000
,
0200
0000
0000
0000
0000
0000
0300
0001
1000
0000
0000
0000
0100
0000
0000
0000
,
1000
0100
1000
0001
0100
0001
0010
0100
0010
0001
1000
0001
0100
0010
1000
0100
0010
0001
2000
0000
0000
3000
0000
0000
,
0020
0000
0000
0000
0000
0000
0030
1000
0001
0000
0000
0000
0010
0000
0100
0000
,
2200
0000
0000
3300
0000
0000
0000
0000
0000
0000
0000
0000
2002
0000
0000
3003
0000
0000
0000
0000
0000
0000
0000
0000
0001
0000
0100
0000
0001
0000
0010
0000
0100
0000
1000
0000
0000
0000
0000
0000
0000
0000
0000
0000
0000
0000
0000
0000
,
4000
0000
0000
0000
,
3001
0000
0000
0000
0000
0000
0010
0000
0000
0000
0000
0000
0100
0000
1000
0000
0001
0000
0010
0000
0001
0000
1000
0000
0010
0000
0100
0000
0010
0000
1000
0000
0000
0100
0000
0000
0010
0000
0000
0100
0000
0000
0010
0000
0000
0100
0000
0000
,
2000
0000
0000
0000
0000
0000
0000
0000
0000
0000
0000
0000
0000
0000
0000
0000
3000
0000
0000
0000
0000
0001
0000
0000
1000
0000
0000
0000
0000
0000
0000
0000
0000
0000
0000
0000
0010
0000
0000
0000
0000
0000
0100
0000
0000
0000
0000
0000
,
0202
0303
0000
0000
2002
3003
0000
0000
1000
0000
0100
1000
0010
0000
0100
0001
,
0040
0000
0000
0000
,
0000
0000
0000
0000
0000
0000
0000
0030
,
0001
0100
0010
1000
0010
0100
0001
1000
0010
1000
0001
0100
0001
0010
0100
1000
0010
0100
0001
0010
0001
0100
0010
1000
,
0100
1000
0001
0010
0100
0010
0001
1000
0100
0010
0100
1000
0010
0100
0001
0010
0001
0100
0010
1000
0100
0010
0001
0100
,
0010
1000
0001
0100
0001
1000
0100
0010
0100
1000
0001
0010
0001
0100
0010
1000
0100
0010
0001
0100
0001
0010
0100
1000
,
0010
0100
0001
1000
0010
1000
0001
0010
0100
1000
0001
0010
0001
0100
0010
1000
0100
1000
0010
0100
0001
0010
0100
1000
,
0010
0100
0001
1000
0010
1000
0001
0010
0100
1000
0100
0010
0001
0100
0001
0010
0100
1000
0010
0100
0001
0010
0001
0100
,
0010
0101
1001
1100
,
1000
0100
0010
0001
0010
0100
1000
0010
0100
0001
0100
0010
1000
0100
1000
0001
1000
0010
0100
0001
0100
0001
0010
0100
,
1000
0010
0100
0001
0100
0010
1000
0100
0010
0001
1000
0010
1000
0100
0010
0001
1000
0100
1000
0010
0100
0001
0100
0010
,
1000
0100
0010
0001
0010
0100
1000
0010
0100
0001
0100
0010
1000
0001
0010
0001
1000
0001
0100
0010
0100
0010
1000
0100
,
1000
0010
0100
0001
1000
0010
1000
0100
0010
0001
0010
0100
1000
0010
0100
0001
1000
0010
1000
0100
0010
0001
0010
0100
,
1000
0010
0100
0001
0100
0010
1000
0100
0010
0001
0010
0100
1000
0010
1000
0001
1000
0100
0010
0001
0010
0001
0100
0010
,
1000
0100
0010
0001
0010
0100
1000
0010
0100
0001
1000
0100
1000
0010
0100
0001
1000
0010
1000
0100
0010
0001
0010
0100
,
1000
0010
0100
0001
0100
0010
1000
0100
0010
0001
0010
0100
1000
0001
0100
0001
1000
0001
0010
0100
0010
0100
1000
0010
,
1000
0100
0010
0001
1000
0100
1000
0010
0100
0001
1000
0010
1000
0100
0010
0001
1000
0100
1000
0010
0100
0001
1000
0100
,
0040
0000
0000
0000
,
0000
0000
0000
0000
,
0000
0000
0000
0000
,
0032
0003
0000
0000
0002
0003
0000
0000
1002
0003
0000
0000
0002
0003
0000
0000
,
0400
0000
0000
0000
,
0000
0000
0000
0000
,
0000
0000
0000
0000
,
0302
0003
0000
0000
0002
0003
0000
0000
1002
0003
0000
0000
0002
0003
0000
0000
,
0020
0000
0001
0000
,
0001
0000
0001
0030
,
0001
0100
0010
1000
,
0001
0010
0100
1000
,
0001
0100
0010
1000
0001
0010
0100
1000
,
0001
0100
0010
1000
0001
0010
0100
1000
,
0001
0100
0010
1000
0001
0010
0100
1000
0001
0100
0010
1000
0001
0010
0100
1000
,
0000
0000
1001
0000
,
0002
0000
0000
0000
0003
0000
0000
1000
0010
0000
0000
0000
0100
0000
0000
0000
,
0002
0000
0000
0000
0000
0000
0000
0000
0000
0000
0000
0000
0000
0000
0000
0000
0000
0000
0003
0000
0000
1000
0000
0000
0100
0000
0010
0000
0001
0000
0100
0000
0010
0000
1000
0000
0200
0000
0000
0000
0000
0000
0300
0000
0000
0000
0000
0000
,
2000
0000
0000
0000
0000
0000
3000
0001
0010
0000
0000
0000
0001
0000
1000
0000
,
2002
0000
0000
3003
0000
0000
0000
0000
0000
0000
0000
0000
0022
0000
0000
0033
0000
0000
0000
0000
0000
0000
0000
0000
0001
0000
0010
0000
0100
0000
1000
0000
0010
0000
1000
0000
0002
0000
0000
0000
0000
0000
0003
0000
0000
0000
0000
0000
,
4000
0000
0000
0000
,
3100
0000
0000
0000
0000
0000
0010
0000
0000
0000
0000
0000
0001
0000
1000
0000
0010
0000
1000
0000
0001
0000
0100
0000
0001
0000
1000
0000
0100
0000
0010
0000
0100
0000
1000
0000
0020
0000
0000
0030
0000
0000
0000
0000
0000
0000
0000
0000
,
2000
0000
0000
0000
0000
0000
3000
0001
0010
0000
0000
0000
0100
0000
1000
0000
,
2002
3003
0000
0000
0022
0033
0000
0000
0001
0000
0010
0100
1000
0000
0001
0100
,
0020
0000
0000
0000
0000
0000
0030
1000
0001
0000
0000
0000
0010
0000
0000
0000
,
0001
0010
0001
1000
0010
1000
0100
0010
0100
1000
0001
1000
0010
0100
0001
0010
0100
1000
0002
0000
0000
0003
0000
0000
,
0200
0000
0000
0000
0000
0000
0300
0001
1000
0000
0000
0000
0100
0000
0010
0000
,
0022
0000
0000
0033
0000
0000
0000
0000
0000
0000
0000
0000
2002
0000
0000
3003
0000
0000
0000
0000
0000
0000
0000
0000
1000
0000
0010
0000
1000
0000
0100
0000
0010
0000
0001
0000
0200
0000
0000
0000
0000
0000
0300
0000
0000
0000
0000
0000
,
0004
0000
0000
0000
,
1003
0000
0000
0000
0000
0000
0100
0000
0000
0000
0000
0000
0010
0000
0001
0000
1000
0000
0100
0000
1000
0000
0001
0000
0100
0000
0010
0000
0100
0000
0001
0000
0000
0010
0000
0000
0100
0000
0000
0010
0000
0000
0100
0000
0000
0010
0000
0000
,
0002
0000
0000
0000
0000
0000
0000
0000
0000
0000
0000
0000
0000
0000
0000
0000
0003
0000
0000
0000
0000
1000
0000
0000
0001
0000
0000
0000
0000
0000
0000
0000
0000
0000
0000
0000
0100
0000
0000
0000
0000
0000
0010
0000
0000
0000
0000
0000
,
2020
3030
0000
0000
2002
3003
0000
0000
0001
0000
0010
0001
0100
0000
0010
1000
,
0200
0000
0000
0000
0000
0000
0000
0000
0000
0000
0000
0000
0300
0000
0000
0000
0000
0000
0000
0000
0000
1000
0000
0000
0010
0000
0100
0000
0001
0000
1000
0000
0010
0000
1000
0000
0001
0000
0100
0000
0010
0000
1000
0000
0100
0000
0010
0000
,
0200
0000
0000
0000
0000
0000
0300
0000
0000
1000
0000
0000
0100
0010
0001
1000
0100
1000
0001
0010
0100
1000
0010
0100
,
0020
0000
0000
0000
0000
0000
0000
0000
0000
0000
0000
0000
0030
0000
0000
0000
0000
0000
0000
0000
0000
1000
0000
0000
0100
0000
0010
0000
0001
0000
1000
0000
0100
0000
1000
0000
0001
0000
0010
0000
0100
0000
1000
0000
0010
0000
0100
0000
,
0020
0000
0000
0000
0000
0000
0030
0000
0000
0100
0001
1000
0100
0010
0001
1000
0010
0100
0001
0010
0001
0100
0010
1000
,
0020
0000
0000
0000
0000
0000
0000
0000
0000
0000
0000
0000
0030
0000
0000
0000
0000
0000
0000
0000
0000
1000
0000
0000
0100
0000
0010
0000
0001
0000
1000
0000
0100
0000
1000
0000
0001
0000
0010
0000
0100
0000
1000
0000
0010
0000
0100
0000
,
0020
0000
0000
0000
0000
0000
0030
0000
0000
1000
0000
0000
0010
0100
0001
1000
0010
1000
0001
0100
0010
1000
0100
0010
,
0200
0000
0000
0000
0000
0000
0000
0000
0000
0000
0000
0000
0300
0000
0000
0000
0000
0000
0000
0000
0000
1000
0000
0000
0010
0000
0100
0000
0001
0000
1000
0000
0010
0000
1000
0000
0001
0000
0100
0000
0010
0000
1000
0000
0100
0000
0010
0000
,
0001
0000
0010
0100
1000
0000
0001
0100
0010
0000
1000
0001
0020
0000
0030
0000
,
0200
0000
0000
0000
0000
0000
0300
1000
0001
0000
0000
0000
0100
0000
0000
0000
,
0001
0100
0001
1000
0100
1000
0010
0100
0010
1000
0001
1000
0100
0010
0001
0100
0010
1000
0002
0000
0000
0003
0000
0000
,
0020
0000
0000
0000
0000
0000
0030
0001
1000
0000
0000
0000
0010
0000
0100
0000
,
0202
0000
0000
0303
0000
0000
0000
0000
0000
0000
0000
0000
2002
0000
0000
3003
0000
0000
0000
0000
0000
0000
0000
0000
1000
0000
0100
0000
1000
0000
0010
0000
0100
0000
0001
0000
0020
0000
0000
0000
0000
0000
0030
0000
0000
0000
0000
0000
,
0004
0000
0000
0000
,
1003
0000
0000
0000
0000
0000
0010
0000
0000
0000
0000
0000
0100
0000
0001
0000
1000
0000
0010
0000
1000
0000
0001
0000
0010
0000
0100
0000
0010
0000
0001
0000
0000
0100
0000
0000
0010
0000
0000
0100
0000
0000
0010
0000
0000
0100
0000
0000
,
0002
0000
0000
0000
0000
0000
0000
0000
0000
0000
0000
0000
0000
0000
0000
0000
0003
0000
0000
0000
0000
1000
0000
0000
0001
0000
0000
0000
0000
0000
0000
0000
0000
0000
0000
0000
0010
0000
0000
0000
0000
0000
0100
0000
0000
0000
0000
0000
,
2200
3300
0000
0000
2002
3003
0000
0000
0001
0000
0100
0001
0010
0000
0100
1000
,
0001
0100
0001
1000
0010
1000
0001
0010
0100
1000
0100
0010
0001
1000
0010
1000
0001
0100
0010
1000
0010
0100
0001
1000
,
0100
0010
0100
1000
0001
0010
0001
1000
0010
1000
0001
0010
0001
1000
0010
1000
0001
0100
0010
1000
0010
0100
0001
1000
,
0100
0010
0100
1000
0001
0010
0001
1000
0010
1000
0001
0010
0001
1000
0010
1000
0001
0100
0001
1000
0010
0100
0001
1000
,
0100
0010
0001
1000
0100
1000
0001
0100
0001
1000
0100
1000
0001
0100
0001
1000
0010
1000
0001
0100
0001
1000
0100
1000
,
0001
0010
0100
0010
0001
1000
0010
0100
0010
1000
0001
0100
0001
1000
0100
0010
0100
1000
0001
0010
0100
1000
0100
0010
,
0001
1000
0010
1000
0001
0100
0001
1000
0100
1000
0001
0100
0001
1000
0100
0010
0100
1000
0001
0010
0100
1000
0100
0010
,
0001
1000
0010
0100
0010
1000
0001
0010
0001
1000
0010
1000
0001
0010
0100
0010
0001
1000
0100
0010
0100
1000
0001
0010
,
0001
1000
0010
0100
0010
1000
0100
0010
0001
0100
0010
1000
0100
1000
0001
0010
0100
0010
0001
0100
0010
1000
0010
0100
,
0001
0010
0001
1000
0100
1000
0001
0100
0010
1000
0010
0100
0001
1000
0100
1000
0001
0010
0100
1000
0100
0010
0001
1000
,
0010
0100
0010
1000
0001
0100
0001
1000
0100
1000
0001
0100
0001
1000
0100
1000
0001
0010
0100
1000
0100
0010
0001
1000
,
0010
0100
0010
1000
0001
0100
0001
1000
0100
1000
0001
0100
0001
1000
0100
1000
0001
0010
0001
1000
0100
0010
0001
1000
,
0010
0100
0001
1000
0010
1000
0001
0010
0001
1000
0010
1000
0001
0010
0001
1000
0100
1000
0001
0010
0001
1000
0010
1000
,
0001
0100
0010
0100
0001
1000
0100
0010
0100
1000
0001
0010
0001
1000
0010
0100
0010
1000
0001
0100
0010
1000
0010
0100
,
0001
1000
0100
1000
0001
0010
0001
1000
0010
1000
0001
0010
0001
1000
0010
0100
0010
1000
0001
0100
0010
1000
0010
0100
,
0001
1000
0100
0010
0100
1000
0001
0100
0001
1000
0100
1000
0001
0100
0010
0100
0001
1000
0010
0100
0010
1000
0001
0100
,
0010
1001
0110
1001
,
1001
0000
0000
0000
,
0000
0000
0000
0000
,
0000
0000
0000
0000
,
0000
0000
0000
0000
,
0MM0
0000
0000
0000
;

//---------------dance-single - @@----------------
#NOTES:
     dance-single:
     @@:
     Medium:
     14:
     0.870,1.000,0.343,0.787,1.000,1284.000,89.000,204.000,2.000,0.000:
1000
0000
0000
0000
1000
0000
0000
0010
0200
0000
0300
0000
0000
0000
0000
0000
,
0001
0000
0010
0100
1000
0100
0010
0001
0200
0000
0300
0000
0000
0000
0000
0000
,
0001
0000
0100
0010
1000
0010
0100
0001
0020
0000
0030
0000
0000
0000
0000
0000
,
0001
0000
0010
0100
1000
0100
0010
0001
0200
0000
0300
0000
0000
0000
0000
0000
,
0001
0000
0100
0010
1000
0001
0100
0001
0020
0000
0030
0000
0000
0000
0000
0000
,
0001
0000
0010
0100
1000
0001
0010
0001
0200
0000
0300
0000
0000
0000
0000
0000
,
0001
0000
0100
0010
1000
0001
0100
0001
0020
0000
0030
0000
0000
0000
0000
0000
,
1001
1100
1001
0101
,
0022
0033
0000
0000
0022
0033
0001
0100
0010
0000
0100
0000
0001
0000
0000
0000
,
2200
3300
0000
0000
2200
3300
0100
0010
0001
0000
0001
0100
0010
0000
0000
0000
,
0202
0303
0000
0000
0202
0303
0100
0010
1000
0000
0001
0000
0010
0000
0000
0000
,
2200
3300
0000
0000
2002
3003
0000
0000
0202
0303
0000
0000
0220
0330
0000
0000
,
2020
3030
0000
0000
2020
3030
1000
0100
0010
0000
0100
0000
1000
0000
0000
0000
,
0202
0303
0000
0000
0202
0303
0100
0010
1000
0000
1000
0100
0010
0000
0000
0000
,
2200
3300
0000
0000
2200
3300
0100
0010
0001
0000
1000
0000
0010
0000
0000
0000
,
0202
0303
0000
0000
2002
3003
0000
0000
2200
3300
0000
0000
0202
0303
0000
0000
,
0040
0000
0000
0000
,
0000
0000
0000
0000
,
0000
0000
0000
0000
,
0000
0000
1030
0000
,
0400
0000
0000
0000
,
0000
0000
0000
0000
,
0000
0000
0000
0000
,
0000
0000
1300
0000
,
0020
0000
1000
0000
,
1000
0000
1000
0030
,
1000
0100
0010
0001
,
1000
0010
0100
0001
,
1000
0100
0010
0001
1000
0010
0100
0001
,
1000
0100
0010
0001
1000
0010
0100
0001
,
1000
0100
0010
0001
1000
0010
0100
0001
1000
0100
0010
0001
1000
0010
0100
0001
,
0000
0000
1001
0000
,
2000
0000
0000
0000
3000
0000
0000
0001
0010
0000
0000
0000
0100
0000
0000
0000
,
2000
0000
0000
0000
0000
0000
0000
0000
0000
0000
0000
0000
0000
0000
0000
0000
0000
0000
3000
0000
0000
0001
0000
0000
0100
0000
0010
0000
1000
0000
0100
0000
0010
0000
0001
0000
0200
0000
0000
0000
0000
0000
0300
0000
0000
0000
0000
0000
,
0002
0000
0000
0000
0000
0000
0003
1000
0100
0000
0000
0000
1000
0000
0001
0000
,
2002
0000
0000
3003
0000
0000
0000
0000
0000
0000
0000
0000
2020
0000
0000
3030
0000
0000
0000
0000
0000
0000
0000
0000
1000
0000
0010
0000
0100
0000
0001
0000
0010
0000
0001
0000
2000
0000
0000
0000
0000
0000
3000
0000
0000
0000
0000
0000
,
0004
0000
0000
0000
,
0103
0000
0000
0000
0000
0000
0010
0000
0000
0000
0000
0000
1000
0000
0001
0000
0010
0000
0001
0000
1000
0000
0100
0000
1000
0000
0001
0000
0100
0000
0010
0000
0100
0000
0001
0000
0020
0000
0000
0030
0000
0000
0000
0000
0000
0000
0000
0000
,
0002
0000
0000
0000
0000
0000
0003
1000
0010
0000
0000
0000
0100
0000
0001
0000
,
2002
3003
0000
0000
2020
3030
0000
0000
1000
0000
0010
0100
0001
0000
1000
0100
,
0020
0000
0000
0000
0000
0000
0030
0001
1000
0000
0000
0000
0010
0000
0000
0000
,
1000
0010
1000
0001
0010
0001
0100
0010
0100
0001
1000
0001
0010
0100
1000
0010
0100
0001
2000
0000
0000
3000
0000
0000
,
0200
0000
0000
0000
0000
0000
0300
1000
0001
0000
0000
0000
0100
0000
0010
0000
,
2020
0000
0000
3030
0000
0000
0000
0000
0000
0000
0000
0000
2002
0000
0000
3003
0000
0000
0000
0000
0000
0000
0000
0000
0001
0000
0010
0000
0001
0000
0100
0000
0010
0000
1000
0000
0200
0000
0000
0000
0000
0000
0300
0000
0000
0000
0000
0000
,
4000
0000
0000
0000
,
3001
0000
0000
0000
0000
0000
0100
0000
0000
0000
0000
0000
0010
0000
1000
0000
0001
0000
0100
0000
0001
0000
1000
0000
0100
0000
0010
0000
0100
0000
1000
0000
0000
0010
0000
0000
0100
0000
0000
0010
0000
0000
0100
0000
0000
0010
0000
0000
,
2000
0000
0000
0000
0000
0000
0000
0000
0000
0000
0000
0000
0000
0000
0000
0000
3000
0000
0000
0000
0000
0001
0000
0000
1000
0000
0000
0000
0000
0000
0000
0000
0000
0000
0000
0000
0100
0000
0000
0000
0000
0000
0010
0000
0000
0000
0000
0000
,
0022
0033
0000
0000
2002
3003
0000
0000
1000
0000
0010
1000
0100
0000
0010
0001
,
0200
0000
0000
0000
0000
0000
0000
0000
0000
0000
0000
0000
0300
0000
0000
0000
0000
0000
0000
0000
0000
0001
0000
0000
0010
0000
0100
0000
1000
0000
0001
0000
0010
0000
0001
0000
1000
0000
0100
0000
0010
0000
0001
0000
0100
0000
0010
0000
,
0200
0000
0000
0000
0000
0000
0300
0000
0000
0001
0000
0000
0100
0010
1000
0001
0100
0001
1000
0010
0100
0001
0010
0100
,
0020
0000
0000
0000
0000
0000
0000
0000
0000
0000
0000
0000
0030
0000
0000
0000
0000
0000
0000
0000
0000
0001
0000
0000
0100
0000
0010
0000
1000
0000
0001
0000
0100
0000
0001
0000
1000
0000
0010
0000
0100
0000
0001
0000
0010
0000
0100
0000
,
0020
0000
0000
0000
0000
0000
0030
0000
0000
0100
1000
0001
0100
0010
1000
0001
0010
0100
1000
0010
1000
0100
0010
0001
,
0020
0000
0000
0000
0000
0000
0000
0000
0000
0000
0000
0000
0030
0000
0000
0000
0000
0000
0000
0000
0000
0001
0000
0000
0100
0000
0010
0000
1000
0000
0001
0000
0100
0000
0001
0000
1000
0000
0010
0000
0100
0000
0001
0000
0010
0000
0100
0000
,
0020
0000
0000
0000
0000
0000
0030
0000
0000
0001
0000
0000
0010
0100
1000
0001
0010
0001
1000
0100
0010
0001
0100
0010
,
0200
0000
0000
0000
0000
0000
0000
0000
0000
0000
0000
0000
0300
0000
0000
0000
0000
0000
0000
0000
0000
0001
0000
0000
0010
0000
0100
0000
1000
0000
0001
0000
0010
0000
0001
0000
1000
0000
0100
0000
0010
0000
0001
0000
0100
0000
0010
0000
,
1000
0000
0010
0100
0001
0000
1000
0100
0010
0000
0001
1000
0020
0000
0030
0000
,
0200
0000
0000
0000
0000
0000
0300
0001
1000
0000
0000
0000
0100
0000
0000
0000
,
1000
0100
1000
0001
0100
0001
0010
0100
0010
0001
1000
0001
0100
0010
1000
0100
0010
0001
2000
0000
0000
3000
0000
0000
,
0020
0000
0000
0000
0000
0000
0030
1000
0001
0000
0000
0000
0010
0000
0100
0000
,
2200
0000
0000
3300
0000
0000
0000
0000
0000
0000
0000
0000
2002
0000
0000
3003
0000
0000
0000
0000
0000
0000
0000
0000
0001
0000
0100
0000
0001
0000
0010
0000
0100
0000
1000
0000
0000
0000
0000
0000
0000
0000
0000
0000
0000
0000
0000
0000
,
4000
0000
0000
0000
,
3001
0000
0000
0000
0000
0000
0010
0000
0000
0000
0000
0000
0100
0000
1000
0000
0001
0000
0010
0000
0001
0000
1000
0000
0010
0000
0100
0000
0010
0000
1000
0000
0000
0100
0000
0000
0010
0000
0000
0100
0000
0000
0010
0000
0000
0100
0000
0000
,
2000
0000
0000
0000
0000
0000
0000
0000
0000
0000
0000
0000
0000
0000
0000
0000
3000
0000
0000
0000
0000
0001
0000
0000
1000
0000
0000
0000
0000
0000
0000
0000
0000
0000
0000
0000
0010
0000
0000
0000
0000
0000
0100
0000
0000
0000
0000
0000
,
0202
0303
0000
0000
2002
3003
0000
0000
1000
0000
0100
1000
0010
0000
0100
0001
,
0040
0000
0000
0000
,
0000
0000
0000
0000
0000
0000
0000
0030
,
0000
0000
0000
0000
0000
0000
0000
0000
0000
0000
0000
0000
0001
0100
0010
1000
0010
0100
0001
0010
0001
0100
0010
1000
,
0200
0000
0000
0300
0000
0000
0000
0000
0000
0000
0000
0000
0200
0000
0000
0300
0000
0000
0000
0000
0000
0000
0000
0000
1000
0000
0001
0000
0010
0000
0100
0000
0010
0000
0001
0000
1000
0000
0010
0000
1000
0000
0100
0000
0010
0000
0001
0000
,
0200
0000
0000
0300
0000
0000
0000
0000
0000
0000
0000
0000
0200
0000
0000
0300
0000
0000
0000
0000
0000
0000
0000
0000
0001
0000
0100
0000
0010
0000
1000
0000
0010
0000
0100
0000
0001
0000
0010
0000
0001
0000
0100
0000
0010
0000
1000
0000
,
0200
0000
0000
0300
0000
0000
0000
0000
0000
0000
0000
0000
0200
0000
0000
0300
0000
0000
0000
0000
0000
0000
0000
0000
1000
0000
0100
0000
1000
0000
0001
0000
0010
0000
0100
0000
1000
0000
0010
0000
0100
0000
0001
0000
0010
0000
0001
0000
,
0200
0000
0000
0300
0000
0000
0000
0000
0000
0000
0000
0000
0200
0000
0000
0300
0000
0000
0000
0000
0000
0000
0000
0000
0001
0000
0100
0000
0010
0000
1000
0000
0010
0000
0100
0000
0001
0000
0010
0000
0100
0000
1000
0000
0010
0000
1000
0000
,
0001
0110
1001
0011
,
2200
3300
0000
0000
2200
3300
1000
0010
0100
0000
0010
0000
1000
0000
0000
0000
,
0022
0033
0000
0000
0022
0033
0010
0100
1000
0000
1000
0010
0100
0000
0000
0000
,
2020
3030
0000
0000
2020
3030
0010
0100
0001
0000
1000
0000
0100
0000
0000
0000
,
0022
0033
0000
0000
2002
3003
0000
0000
2020
3030
0000
0000
0220
0330
0000
0000
,
0202
0303
0000
0000
0202
0303
0001
0010
0100
0000
0010
0000
0001
0000
0000
0000
,
2020
3030
0000
0000
2020
3030
0010
0100
0001
0000
0001
0010
0100
0000
0000
0000
,
0022
0033
0000
0000
0022
0033
0010
0100
1000
0000
0001
0000
0100
0000
0000
0000
,
2020
3030
0000
0000
2002
3003
0000
0000
0022
0033
0000
0000
2200
3300
0000
0000
,
0040
0000
0000
0000
,
0000
0000
0000
0000
,
0000
0000
0000
0000
,
0032
0003
0000
0000
0002
0003
0000
0000
1002
0003
0000
0000
0002
0003
0000
0000
,
0400
0000
0000
0000
,
0000
0000
0000
0000
,
0000
0000
0000
0000
,
0302
0003
0000
0000
0002
0003
0000
0000
1002
0003
0000
0000
0002
0003
0000
0000
,
0020
0000
0001
0000
,
0001
0000
0001
0030
,
0001
0100
0010
1000
,
0001
0010
0100
1000
,
0001
0100
0010
1000
0001
0010
0100
1000
,
0001
0100
0010
1000
0001
0010
0100
1000
,
0001
0100
0010
1000
0001
0010
0100
1000
0001
0100
0010
1000
0001
0010
0100
1000
,
0000
0000
1001
0000
,
0002
0000
0000
0000
0003
0000
0000
1000
0010
0000
0000
0000
0100
0000
0000
0000
,
0002
0000
0000
0000
0000
0000
0000
0000
0000
0000
0000
0000
0000
0000
0000
0000
0000
0000
0003
0000
0000
1000
0000
0000
0100
0000
0010
0000
0001
0000
0100
0000
0010
0000
1000
0000
0200
0000
0000
0000
0000
0000
0300
0000
0000
0000
0000
0000
,
2000
0000
0000
0000
0000
0000
3000
0001
0010
0000
0000
0000
0001
0000
1000
0000
,
2002
0000
0000
3003
0000
0000
0000
0000
0000
0000
0000
0000
0022
0000
0000
0033
0000
0000
0000
0000
0000
0000
0000
0000
0001
0000
0010
0000
0100
0000
1000
0000
0010
0000
1000
0000
0002
0000
0000
0000
0000
0000
0003
0000
0000
0000
0000
0000
,
4000
0000
0000
0000
,
3100
0000
0000
0000
0000
0000
0010
0000
0000
0000
0000
0000
0001
0000
1000
0000
0010
0000
1000
0000
0001
0000
0100
0000
0001
0000
1000
0000
0100
0000
0010
0000
0100
0000
1000
0000
0020
0000
0000
0030
0000
0000
0000
0000
0000
0000
0000
0000
,
2000
0000
0000
0000
0000
0000
3000
0001
0010
0000
0000
0000
0100
0000
1000
0000
,
2002
3003
0000
0000
0022
0033
0000
0000
0001
0000
0010
0100
1000
0000
0001
0100
,
0020
0000
0000
0000
0000
0000
0030
1000
0001
0000
0000
0000
0010
0000
0000
0000
,
0001
0010
0001
1000
0010
1000
0100
0010
0100
1000
0001
1000
0010
0100
0001
0010
0100
1000
0002
0000
0000
0003
0000
0000
,
0200
0000
0000
0000
0000
0000
0300
0001
1000
0000
0000
0000
0100
0000
0010
0000
,
0022
0000
0000
0033
0000
0000
0000
0000
0000
0000
0000
0000
2002
0000
0000
3003
0000
0000
0000
0000
0000
0000
0000
0000
1000
0000
0010
0000
1000
0000
0100
0000
0010
0000
0001
0000
0200
0000
0000
0000
0000
0000
0300
0000
0000
0000
0000
0000
,
0004
0000
0000
0000
,
1003
0000
0000
0000
0000
0000
0100
0000
0000
0000
0000
0000
0010
0000
0001
0000
1000
0000
0100
0000
1000
0000
0001
0000
0100
0000
0010
0000
0100
0000
0001
0000
0000
0010
0000
0000
0100
0000
0000
0010
0000
0000
0100
0000
0000
0010
0000
0000
,
0002
0000
0000
0000
0000
0000
0000
0000
0000
0000
0000
0000
0000
0000
0000
0000
0003
0000
0000
0000
0000
1000
0000
0000
0001
0000
0000
0000
0000
0000
0000
0000
0000
0000
0000
0000
0100
0000
0000
0000
0000
0000
0010
0000
0000
0000
0000
0000
,
2020
3030
0000
0000
2002
3003
0000
0000
0001
0000
0010
0001
0100
0000
0010
1000
,
0200
0000
0000
0000
0000
0000
0000
0000
0000
0000
0000
0000
0300
0000
0000
0000
0000
0000
0000
0000
0000
1000
0000
0000
0010
0000
0100
0000
0001
0000
1000
0000
0010
0000
1000
0000
0001
0000
0100
0000
0010
0000
1000
0000
0100
0000
0010
0000
,
0200
0000
0000
0000
0000
0000
0300
0000
0000
1000
0000
0000
0100
0010
0001
1000
0100
1000
0001
0010
0100
1000
0010
0100
,
0020
0000
0000
0000
0000
0000
0000
0000
0000
0000
0000
0000
0030
0000
0000
0000
0000
0000
0000
0000
0000
1000
0000
0000
0100
0000
0010
0000
0001
0000
1000
0000
0100
0000
1000
0000
0001
0000
0010
0000
0100
0000
1000
0000
0010
0000
0100
0000
,
0020
0000
0000
0000
0000
0000
0030
0000
0000
0100
0001
1000
0100
0010
0001
1000
0010
0100
0001
0010
0001
0100
0010
1000
,
0020
0000
0000
0000
0000
0000
0000
0000
0000
0000
0000
0000
0030
0000
0000
0000
0000
0000
0000
0000
0000
1000
0000
0000
0100
0000
0010
0000
0001
0000
1000
0000
0100
0000
1000
0000
0001
0000
0010
0000
0100
0000
1000
0000
0010
0000
0100
0000
,
0020
0000
0000
0000
0000
0000
0030
0000
0000
1000
0000
0000
0010
0100
0001
1000
0010
1000
0001
0100
0010
1000
0100
0010
,
0200
0000
0000
0000
0000
0000
0000
0000
0000
0000
0000
0000
0300
0000
0000
0000
0000
0000
0000
0000
0000
1000
0000
0000
0010
0000
0100
0000
0001
0000
1000
0000
0010
0000
1000
0000
0001
0000
0100
0000
0010
0000
1000
0000
0100
0000
0010
0000
,
0001
0000
0010
0100
1000
0000
0001
0100
0010
0000
1000
0001
0020
0000
0030
0000
,
0200
0000
0000
0000
0000
0000
0300
1000
0001
0000
0000
0000
0100
0000
0000
0000
,
0001
0100
0001
1000
0100
1000
0010
0100
0010
1000
0001
1000
0100
0010
0001
0100
0010
1000
0002
0000
0000
0003
0000
0000
,
0020
0000
0000
0000
0000
0000
0030
0001
1000
0000
0000
0000
0010
0000
0100
0000
,
0202
0000
0000
0303
0000
0000
0000
0000
0000
0000
0000
0000
2002
0000
0000
3003
0000
0000
0000
0000
0000
0000
0000
0000
1000
0000
0100
0000
1000
0000
0010
0000
0100
0000
0001
0000
0020
0000
0000
0000
0000
0000
0030
0000
0000
0000
0000
0000
,
0004
0000
0000
0000
,
1003
0000
0000
0000
0000
0000
0010
0000
0000
0000
0000
0000
0100
0000
0001
0000
1000
0000
0010
0000
1000
0000
0001
0000
0010
0000
0100
0000
0010
0000
0001
0000
0000
0100
0000
0000
0010
0000
0000
0100
0000
0000
0010
0000
0000
0100
0000
0000
,
0002
0000
0000
0000
0000
0000
0000
0000
0000
0000
0000
0000
0000
0000
0000
0000
0003
0000
0000
0000
0000
1000
0000
0000
0001
0000
0000
0000
0000
0000
0000
0000
0000
0000
0000
0000
0010
0000
0000
0000
0000
0000
0100
0000
0000
0000
0000
0000
,
2200
3300
0000
0000
2002
3003
0000
0000
0001
0000
0100
0001
0010
0000
0100
1000
,
0001
0100
0001
1000
0010
1000
0001
0010
0100
1000
0100
0010
0001
1000
0010
1000
0001
0100
0010
1000
0010
0100
0001
1000
,
0100
0010
0100
1000
0001
0010
0001
1000
0010
1000
0001
0010
0001
1000
0010
1000
0001
0100
0010
1000
0010
0100
0001
1000
,
0100
0010
0100
1000
0001
0010
0001
1000
0010
1000
0001
0010
0001
1000
0010
1000
0001
0100
0001
1000
0010
0100
0001
1000
,
0100
0010
0001
1000
0100
1000
0001
0100
0001
1000
0100
1000
0001
0100
0001
1000
0010
1000
0001
0100
0001
1000
0100
1000
,
0001
0010
0100
0010
0001
1000
0010
0100
0010
1000
0001
0100
0001
1000
0100
0010
0100
1000
0001
0010
0100
1000
0100
0010
,
0001
1000
0010
1000
0001
0100
0001
1000
0100
1000
0001
0100
0001
1000
0100
0010
0100
1000
0001
0010
0100
1000
0100
0010
,
0001
1000
0010
0100
0010
1000
0001
0010
0001
1000
0010
1000
0001
0010
0100
0010
0001
1000
0100
0010
0100
1000
0001
0010
,
0002
0000
0000
0000
0000
0000
0000
0000
0000
0003
0000
0000
0100
0000
0010
0000
0100
0000
0001
0000
1000
0000
0100
0000
2000
0000
0000
0000
0000
0000
0000
0000
0000
3000
0000
0000
0100
0000
0010
0000
0001
0000
1000
0000
0010
0000
0100
0000
,
0001
0010
0001
1000
0100
1000
0001
0100
0010
1000
0010
0100
0001
1000
0100
1000
0001
0010
0100
1000
0100
0010
0001
1000
,
0010
0100
0010
1000
0001
0100
0001
1000
0100
1000
0001
0100
0001
1000
0100
1000
0001
0010
0100
1000
0100
0010
0001
1000
,
0010
0100
0010
1000
0001
0100
0001
1000
0100
1000
0001
0100
0001
1000
0100
1000
0001
0010
0001
1000
0100
0010
0001
1000
,
0010
0100
0001
1000
0010
1000
0001
0010
0001
1000
0010
1000
0001
0010
0001
1000
0100
1000
0001
0010
0001
1000
0010
1000
,
0001
0100
0010
0100
0001
1000
0100
0010
0100
1000
0001
0010
0001
1000
0010
0100
0010
1000
0001
0100
0010
1000
0010
0100
,
0001
1000
0100
1000
0001
0010
0001
1000
0010
1000
0001
0010
0001
1000
0010
0100
0010
1000
0001
0100
0010
1000
0010
0100
,
0001
1000
0100
0010
0100
1000
0001
0100
0001
1000
0100
1000
0001
0100
0010
0100
0001
1000
0010
0100
0010
1000
0001
0100
,
0010
1001
0110
1001
,
1001
0000
0000
0000
,
0000
0000
0000
0000
,
0000
0000
0000
0000
,
0000
0000
0000
0000
,
0MM0
0000
0000
0000
;

//---------------dance-single - @@----------------
#NOTES:
     dance-single:
     @@:
     Easy:
     11:
     0.638,0.885,0.351,0.833,0.507,850.000,91.000,216.000,2.000,0.000:
1000
0000
0000
0000
1000
0000
0000
0010
0200
0000
0300
0000
0000
0000
0000
0000
,
0001
0000
0010
0100
1000
0100
0010
0001
0200
0000
0300
0000
0000
0000
0000
0000
,
0001
0000
0100
0010
1000
0010
0100
0001
0020
0000
0030
0000
0000
0000
0000
0000
,
0001
0000
0010
0100
1000
0100
0010
0001
0200
0000
0300
0000
0000
0000
0000
0000
,
0001
0000
0100
0010
1000
0001
0100
0001
0020
0000
0030
0000
0000
0000
0000
0000
,
0001
0000
0010
0100
1000
0001
0010
0001
0200
0000
0300
0000
0000
0000
0000
0000
,
0001
0000
0100
0010
1000
0001
0100
0001
0020
0000
0030
0000
0000
0000
0000
0000
,
1001
1100
1001
0101
,
0022
0033
0000
0000
0022
0033
0001
0100
0010
0000
0100
0000
0001
0000
0000
0000
,
2200
3300
0000
0000
2200
3300
0100
0010
0001
0000
0001
0100
0010
0000
0000
0000
,
0202
0303
0000
0000
0202
0303
0100
0010
1000
0000
0001
0000
0010
0000
0000
0000
,
2200
3300
0000
0000
2002
3003
0000
0000
0202
0303
0000
0000
0220
0330
0000
0000
,
2020
3030
0000
0000
2020
3030
1000
0100
0010
0000
0100
0000
1000
0000
0000
0000
,
0202
0303
0000
0000
0202
0303
0100
0010
1000
0000
1000
0100
0010
0000
0000
0000
,
2200
3300
0000
0000
2200
3300
0100
0010
0001
0000
1000
0000
0010
0000
0000
0000
,
0202
0303
0000
0000
2002
3003
0000
0000
2200
3300
0000
0000
0202
0303
0000
0000
,
0040
0000
0000
0000
,
0000
0000
0000
0000
,
0000
0000
0000
0000
,
0000
0000
1030
0000
,
0400
0000
0000
0000
,
0000
0000
0000
0000
,
0000
0000
0000
0000
,
0000
0000
1300
0000
,
0020
0000
1000
0000
,
1000
0000
1000
0030
,
1000
0100
0010
0001
,
1000
0010
0100
0001
,
1000
0100
0010
0001
1000
0010
0100
0001
,
1000
0100
0010
0001
1000
0010
0100
0001
,
1000
0100
0010
0001
1000
0010
0100
0001
1000
0100
0010
0001
1000
0010
0100
0001
,
0000
0000
1001
0000
,
2000
0000
0000
0000
3000
0000
0000
0001
0010
0000
0000
0000
0100
0000
0000
0000
,
2000
0000
0000
0000
0000
0000
0000
0000
0000
0000
0000
0000
0000
0000
0000
0000
0000
0000
3000
0000
0000
0001
0000
0000
0100
0000
0010
0000
1000
0000
0001
0000
0010
0000
0001
0000
0200
0000
0000
0000
0000
0000
0300
0000
0000
0000
0000
0000
,
0002
0000
0000
0000
0000
0000
0003
1000
0100
0000
0000
0000
1000
0000
0001
0000
,
2002
0000
0000
3003
0000
0000
0000
0000
0000
0000
0000
0000
2020
0000
0000
3030
0000
0000
0000
0000
0000
0000
0000
0000
1000
0000
0010
0000
1000
0000
0001
0000
0010
0000
0001
0000
2000
0000
0000
0000
0000
0000
3000
0000
0000
0000
0000
0000
,
0004
0000
0000
0000
,
0103
0000
0000
0000
0000
0000
0010
0000
0000
0000
0000
0000
1000
0000
0001
0000
0010
0000
0001
0000
1000
0000
0100
0000
1000
0000
0001
0000
0100
0000
0010
0000
0100
0000
0001
0000
0020
0000
0000
0030
0000
0000
0000
0000
0000
0000
0000
0000
,
0002
0000
0000
0000
0000
0000
0003
1000
0010
0000
0000
0000
0100
0000
0001
0000
,
2002
3003
0000
0000
2020
3030
0000
0000
1000
0000
0010
0100
0001
0000
1000
0100
,
0020
0000
0000
0000
0000
0000
0030
0001
1000
0000
0000
0000
0010
0000
0000
0000
,
0100
0000
0010
0000
0100
0000
0001
0000
0010
0000
0001
0000
0010
0100
1000
0010
0100
0001
2000
0000
0000
3000
0000
0000
,
0200
0000
0000
0000
0000
0000
0300
1000
0001
0000
0000
0000
0100
0000
0010
0000
,
2020
0000
0000
3030
0000
0000
0000
0000
0000
0000
0000
0000
2002
0000
0000
3003
0000
0000
0000
0000
0000
0000
0000
0000
0001
0000
0010
0000
0001
0000
1000
0000
0010
0000
1000
0000
0200
0000
0000
0000
0000
0000
0300
0000
0000
0000
0000
0000
,
4000
0000
0000
0000
,
3001
0000
0000
0000
0000
0000
0100
0000
0000
0000
0000
0000
0010
0000
1000
0000
0001
0000
0100
0000
0001
0000
1000
0000
0100
0000
0010
0000
0100
0000
1000
0000
0000
0010
0000
0000
0100
0000
0000
0010
0000
0000
0100
0000
0000
0010
0000
0000
,
2000
0000
0000
0000
0000
0000
0000
0000
0000
0000
0000
0000
0000
0000
0000
0000
3000
0000
0000
0000
0000
0001
0000
0000
1000
0000
0000
0000
0000
0000
0000
0000
0000
0000
0000
0000
0100
0000
0000
0000
0000
0000
0010
0000
0000
0000
0000
0000
,
0022
0033
0000
0000
2002
3003
0000
0000
1000
0000
0010
1000
0100
0000
0010
0001
,
0200
0000
0000
0000
0300
0000
0000
0001
1000
0000
0001
0000
0010
0100
1000
0000
,
0020
0000
0000
0000
0030
0000
0100
0000
0001
0000
1000
0000
0100
0010
0001
0000
,
0200
0000
0000
0000
0300
0000
0000
0001
1000
0000
0001
0000
0010
0100
1000
0000
,
0020
0000
0030
0100
0001
1000
0000
0000
,
0200
0000
0000
0000
0300
0000
0000
1000
0001
0000
1000
0000
0010
0100
0001
0000
,
0020
0000
0000
0000
0030
0000
0100
0000
1000
0000
0001
0000
0100
0010
1000
0000
,
0200
0000
0000
0000
0300
0000
0000
1000
0001
0000
1000
0000
0010
0100
0001
0000
,
1000
0000
0010
0100
0001
0000
1000
0100
0010
0000
0001
1000
0020
0000
0030
0000
,
0200
0000
0000
0000
0000
0000
0300
0001
1000
0000
0000
0000
0100
0000
0000
0000
,
1000
0000
0001
0000
1000
0000
0010
0000
0100
0000
0010
0000
1000
0001
1000
0100
0010
0001
2000
0000
0000
3000
0000
0000
,
0020
0000
0000
0000
0000
0000
0030
1000
0001
0000
0000
0000
0010
0000
0100
0000
,
2200
0000
0000
3300
0000
0000
0000
0000
0000
0000
0000
0000
2002
0000
0000
3003
0000
0000
0000
0000
0000
0000
0000
0000
0001
0000
0100
0000
0001
0000
1000
0000
0100
0000
1000
0000
0000
0000
0000
0000
0000
0000
0000
0000
0000
0000
0000
0000
,
4000
0000
0000
0000
,
3001
0000
0000
0000
0000
0000
0010
0000
0000
0000
0000
0000
0100
0000
1000
0000
0001
0000
0010
0000
0001
0000
1000
0000
0010
0000
0100
0000
0010
0000
1000
0000
0000
0100
0000
0000
0010
0000
0000
0100
0000
0000
0010
0000
0000
0100
0000
0000
,
2000
0000
0000
0000
0000
0000
0000
0000
0000
0000
0000
0000
0000
0000
0000
0000
3000
0000
0000
0000
0000
0001
0000
0000
1000
0000
0000
0000
0000
0000
0000
0000
0000
0000
0000
0000
0010
0000
0000
0000
0000
0000
0100
0000
0000
0000
0000
0000
,
0202
0303
0000
0000
2002
3003
0000
0000
1000
0000
0100
1000
0010
0000
0100
0001
,
0040
0000
0000
0000
,
0000
0000
0000
0000
0000
0000
0000
0030
,
0000
0000
0000
0000
,
0002
0003
0000
0000
0002
0003
0000
0000
0000
0000
0000
0000
0000
0000
0000
0000
,
0200
0300
0000
0000
0200
0300
0000
0000
0000
0000
0000
0000
0000
0000
0000
0000
,
0020
0030
0000
0000
0020
0030
0000
0000
0000
0000
0000
0000
0000
0000
0000
0000
,
2000
3000
0000
0000
2000
3000
0000
0000
0000
0000
0000
0000
0000
0000
0000
0000
,
1001
0110
1001
0011
,
2200
3300
0000
0000
2200
3300
1000
0010
0100
0000
0010
0000
1000
0000
0000
0000
,
0022
0033
0000
0000
0022
0033
0010
0100
1000
0000
1000
0010
0100
0000
0000
0000
,
2020
3030
0000
0000
2020
3030
0010
0100
0001
0000
1000
0000
0100
0000
0000
0000
,
0022
0033
0000
0000
2002
3003
0000
0000
2020
3030
0000
0000
0220
0330
0000
0000
,
0202
0303
0000
0000
0202
0303
0001
0010
0100
0000
0010
0000
0001
0000
0000
0000
,
2020
3030
0000
0000
2020
3030
0010
0100
0001
0000
0001
0010
0100
0000
0000
0000
,
0022
0033
0000
0000
0022
0033
0010
0100
1000
0000
0001
0000
0100
0000
0000
0000
,
2020
3030
0000
0000
2002
3003
0000
0000
0022
0033
0000
0000
2200
3300
0000
0000
,
0040
0000
0000
0000
,
0000
0000
0000
0000
,
0000
0000
0000
0000
,
0032
0003
0000
0000
0002
0003
0000
0000
1002
0003
0000
0000
0002
0003
0000
0000
,
0400
0000
0000
0000
,
0000
0000
0000
0000
,
0000
0000
0000
0000
,
0302
0003
0000
0000
0002
0003
0000
0000
1002
0003
0000
0000
0002
0003
0000
0000
,
0020
0000
0001
0000
,
0001
0000
0001
0030
,
0001
0100
0010
1000
,
0001
0010
0100
1000
,
0001
0100
0010
1000
0001
0010
0100
1000
,
0001
0100
0010
1000
0001
0010
0100
1000
,
0001
0100
0010
1000
0001
0010
0100
1000
0001
0100
0010
1000
0001
0010
0100
1000
,
0000
0000
1001
0000
,
0002
0000
0000
0000
0003
0000
0000
1000
0010
0000
0000
0000
0100
0000
0000
0000
,
0002
0000
0000
0000
0000
0000
0000
0000
0000
0000
0000
0000
0000
0000
0000
0000
0000
0000
0003
0000
0000
1000
0000
0000
0100
0000
0010
0000
0001
0000
1000
0000
0010
0000
1000
0000
0200
0000
0000
0000
0000
0000
0300
0000
0000
0000
0000
0000
,
2000
0000
0000
0000
0000
0000
3000
0001
0010
0000
0000
0000
0001
0000
1000
0000
,
2002
0000
0000
3003
0000
0000
0000
0000
0000
0000
0000
0000
0022
0000
0000
0033
0000
0000
0000
0000
0000
0000
0000
0000
0001
0000
0010
0000
0001
0000
1000
0000
0010
0000
1000
0000
0002
0000
0000
0000
0000
0000
0003
0000
0000
0000
0000
0000
,
4000
0000
0000
0000
,
3100
0000
0000
0000
0000
0000
0010
0000
0000
0000
0000
0000
0001
0000
1000
0000
0010
0000
1000
0000
0001
0000
0100
0000
0001
0000
1000
0000
0100
0000
0010
0000
0100
0000
1000
0000
0020
0000
0000
0030
0000
0000
0000
0000
0000
0000
0000
0000
,
2000
0000
0000
0000
0000
0000
3000
0001
0010
0000
0000
0000
0100
0000
1000
0000
,
2002
3003
0000
0000
0022
0033
0000
0000
0001
0000
0010
0100
1000
0000
0001
0100
,
0020
0000
0000
0000
0000
0000
0030
1000
0001
0000
0000
0000
0010
0000
0000
0000
,
0100
0000
0010
0000
0100
0000
1000
0000
0010
0000
1000
0000
0010
0100
0001
0010
0100
1000
0002
0000
0000
0003
0000
0000
,
0200
0000
0000
0000
0000
0000
0300
0001
1000
0000
0000
0000
0100
0000
0010
0000
,
0022
0000
0000
0033
0000
0000
0000
0000
0000
0000
0000
0000
2002
0000
0000
3003
0000
0000
0000
0000
0000
0000
0000
0000
1000
0000
0010
0000
1000
0000
0001
0000
0010
0000
0001
0000
0200
0000
0000
0000
0000
0000
0300
0000
0000
0000
0000
0000
,
0004
0000
0000
0000
,
1003
0000
0000
0000
0000
0000
0100
0000
0000
0000
0000
0000
0010
0000
0001
0000
1000
0000
0100
0000
1000
0000
0001
0000
0100
0000
0010
0000
0100
0000
0001
0000
0000
0010
0000
0000
0100
0000
0000
0010
0000
0000
0100
0000
0000
0010
0000
0000
,
0002
0000
0000
0000
0000
0000
0000
0000
0000
0000
0000
0000
0000
0000
0000
0000
0003
0000
0000
0000
0000
1000
0000
0000
0001
0000
0000
0000
0000
0000
0000
0000
0000
0000
0000
0000
0100
0000
0000
0000
0000
0000
0010
0000
0000
0000
0000
0000
,
2020
3030
0000
0000
2002
3003
0000
0000
0001
0000
0010
0001
0100
0000
0010
1000
,
0200
0000
0000
0000
0300
0000
0000
1000
0001
0000
1000
0000
0010
0100
0001
0000
,
0020
0000
0000
0000
0030
0000
0100
0000
1000
0000
0001
0000
0100
0010
1000
0000
,
0200
0000
0000
0000
0300
0000
0000
1000
0001
0000
1000
0000
0010
0100
0001
0000
,
0020
0000
0030
0100
1000
0001
0000
0000
,
0200
0000
0000
0000
0300
0000
0000
0001
1000
0000
0001
0000
0010
0100
1000
0000
,
0020
0000
0000
0000
0030
0000
0100
0000
0001
0000
1000
0000
0100
0010
0001
0000
,
0200
0000
0000
0000
0300
0000
0000
0001
1000
0000
0001
0000
0010
0100
1000
0000
,
0001
0000
0010
0100
1000
0000
0001
0100
0010
0000
1000
0001
0020
0000
0030
0000
,
0200
0000
0000
0000
0000
0000
0300
1000
0001
0000
0000
0000
0100
0000
0000
0000
,
0001
0000
1000
0000
0001
0000
0100
0000
0010
0000
0100
0000
0001
0010
0100
1000
0001
0100
0002
0000
0000
0003
0000
0000
,
0020
0000
0000
0000
0000
0000
0030
0001
1000
0000
0000
0000
0010
0000
0100
0000
,
0202
0000
0000
0303
0000
0000
0000
0000
0000
0000
0000
0000
2002
0000
0000
3003
0000
0000
0000
0000
0000
0000
0000
0000
1000
0000
0100
0000
1000
0000
0001
0000
0100
0000
0001
0000
0020
0000
0000
0000
0000
0000
0030
0000
0000
0000
0000
0000
,
0004
0000
0000
0000
,
1003
0000
0000
0000
0000
0000
0010
0000
0000
0000
0000
0000
0100
0000
0001
0000
1000
0000
0010
0000
1000
0000
0001
0000
0010
0000
0100
0000
0010
0000
0001
0000
0000
0100
0000
0000
0010
0000
0000
0100
0000
0000
0010
0000
0000
0100
0000
0000
,
0002
0000
0000
0000
0000
0000
0000
0000
0000
0000
0000
0000
0000
0000
0000
0000
0003
0000
0000
0000
0000
1000
0000
0000
0001
0000
0000
0000
0000
0000
0000
0000
0000
0000
0000
0000
0010
0000
0000
0000
0000
0000
0100
0000
0000
0000
0000
0000
,
2200
3300
0000
0000
2002
3003
0000
0000
0001
0000
0100
0001
0010
0000
0100
1000
,
0001
0000
0000
0000
0001
0000
0000
0100
0020
0000
0030
0000
0000
0000
0000
0000
,
1000
0000
0100
0010
0001
0010
0100
1000
0020
0000
0030
0000
0000
0000
0000
0000
,
1000
0000
0010
0100
0001
0100
0010
1000
0200
0000
0300
0000
0000
0000
0000
0000
,
1000
0000
0100
0010
0001
0010
0100
1000
0020
0000
0030
0000
0000
0000
0000
0000
,
1000
0000
0010
0100
0001
1000
0010
1000
0200
0000
0300
0000
0000
0000
0000
0000
,
1000
0000
0100
0010
0001
1000
0100
1000
0020
0000
0030
0000
0000
0000
0000
0000
,
1000
0000
0010
0100
0001
1000
0010
1000
0200
0000
0300
0000
0000
0000
0000
0000
,
1000
0001
0100
0010
,
1000
0000
0000
0000
1000
0000
0000
0010
0200
0000
0300
0000
0000
0000
0000
0000
,
0001
0000
0010
0100
1000
0100
0010
0001
0200
0000
0300
0000
0000
0000
0000
0000
,
0001
0000
0100
0010
1000
0010
0100
0001
0020
0000
0030
0000
0000
0000
0000
0000
,
0001
0000
0010
0100
1000
0100
0010
0001
0200
0000
0300
0000
0000
0000
0000
0000
,
0001
0000
0100
0010
1000
0001
0100
0001
0020
0000
0030
0000
0000
0000
0000
0000
,
0001
0000
0010
0100
1000
0001
0010
0001
0200
0000
0300
0000
0000
0000
0000
0000
,
0001
0000
0100
0010
1000
0001
0100
0001
0020
0000
0030
0000
0000
0000
0000
0000
,
0110
1001
0110
1001
,
1001
0000
0000
0000
,
0000
0000
0000
0000
,
0000
0000
0000
0000
,
0000
0000
0000
0000
,
0MM0
0000
0000
0000
;
