#TITLE:You Don't Know What;
#SUBTITLE:;
#ARTIST:DJ Sharpnel;
#TITLETRANSLIT:;
#SUBTITLETRANSLIT:;
#ARTISTTRANSLIT:;
#CREDIT:;
#BANNER:../ban - Jawn2.png;
#BACKGROUND:../Jawn2 - bg.png;
#LYRICSPATH:;
#CDTITLE:../CDa.png;
#MUSIC:You Don't Know What.ogg;
#OFFSET:0.009;
#SAMPLESTART:212.186;
#SAMPLELENGTH:12.000;
#SELECTABLE:YES;
#BPMS:0.000=211.500;
#STOPS:;
#BGCHANGES:;
// cache tags:
#FIRSTBEAT:52.000;
#LASTBEAT:1020.000;
#SONGFILENAME:Songs/Jimmy Jawns 2/You Don't Know What - [Aoreo]/You Don't Know What.sm;
#HASMUSIC:1;
#HASBANNER:1;
#MUSICLENGTH:289.360;
// end cache tags

//---------------dance-single - J. Nero----------------
#NOTES:
     dance-single:
     J. Nero:
     Challenge:
     18:
     1.000,1.000,0.055,0.176,1.000,3104.000,16.000,51.000,1.000,0.000:
0000
0000
0000
0000
,
0000
0000
0000
0000
,
0000
0000
0000
0000
,
0000
0000
0000
0000
,
0000
0000
0000
0000
,
0000
0000
0000
0000
,
0000
0000
0000
0000
,
0000
0000
0000
0000
,
0000
0000
0000
0000
,
0000
0000
0000
0000
,
0000
0000
0000
0000
,
0000
0000
0000
0000
,
0000
0000
0000
0000
,
1001
0000
0000
0000
0101
0000
0000
0100
,
0010
0000
1010
1000
,
1000
0000
0001
0000
0011
0000
0010
0100
,
1000
0001
0000
1000
0100
0000
0020
0000
,
0031
0000
0100
0000
0110
0000
0010
1000
,
0001
0010
1100
1000
,
1000
0000
0001
0000
0101
0000
0100
0010
,
0000
0000
0000
0000
0000
0000
0000
0000
0000
0000
0000
0000
0000
0000
0000
0000
0000
0000
0000
0000
0000
0000
0000
0000
0100
0000
0000
0000
0000
0000
0000
0000
0000
0000
0000
0000
0000
0000
0000
0000
0000
0000
0000
0000
0000
0000
0000
0000
0002
0000
0000
0003
0000
0000
0000
0000
0000
0000
0000
0000
0000
0000
0000
0000
0000
0000
0000
0000
0000
0000
0000
0000
0020
0000
0000
0000
0000
0000
0030
0000
0000
0000
0000
0000
0000
0000
0000
0000
0000
0000
0000
0000
0000
0000
0000
0000
0200
0000
0000
0000
0000
0000
0000
0000
0300
0000
0000
0000
0000
0000
0000
0000
0000
0000
0000
0000
0000
0000
0000
0000
2000
0000
0000
0000
0000
0000
0000
0000
0000
0000
0000
0000
3000
0000
0000
0000
0000
0000
0000
0000
0000
0000
0000
0000
0002
0000
0000
0000
0000
0000
0000
0000
0000
0000
0000
0000
0000
0000
0000
0000
0000
0000
0000
0000
0000
0000
0000
0000
0003
0000
0000
0000
0000
0000
0000
0000
0000
0000
0000
0000
0000
0000
0000
0000
0000
0000
0000
0000
0000
0000
0000
0000
,
1000
0000
0010
0000
1000
1000
0100
0010
,
0010
0000
0001
0000
0100
0000
0001
1000
0001
0010
0100
0000
1000
0000
1000
0000
,
0001
0000
0100
0000
0010
0000
0010
0000
1000
0001
0100
0000
0001
0000
1000
0010
,
0100
0001
0100
0010
1000
0001
1000
0100
0010
0001
1000
0100
1000
0001
0100
0010
,
1000
0000
0100
0000
1000
1000
0010
0100
,
0100
0000
0001
0000
1000
0000
0001
0100
0001
1000
0100
0000
0010
0000
0010
0000
,
0001
0000
1000
0000
0100
0000
0100
0000
1000
0001
1000
0000
0001
0000
1000
0010
,
0200
0000
0000
0300
0000
0001
0010
0100
,
1000
0100
0010
0001
0100
0010
0100
0001
1000
0100
0010
0001
0100
0010
0100
0001
,
1000
0100
1000
0010
0100
0010
1000
0100
0010
0001
0100
0001
0010
0100
0010
0100
,
1000
0010
0100
0001
0010
0100
0010
0001
1000
0010
0100
0001
0010
0100
0010
0001
,
1000
0100
1000
0010
0100
0001
1000
0010
1000
0100
0010
0001
0100
0001
1000
0001
,
0100
0010
1000
0010
0100
0001
1000
0100
0010
0100
1000
0010
0100
0001
0100
0010
,
1000
0100
0010
0001
0100
0001
1000
0100
1000
0010
0100
0001
1000
0010
1000
0100
,
0010
0100
1000
0010
0100
0001
0010
0001
1000
0100
1000
0010
0100
0010
1000
0001
,
2000
0000
3002
0000
0023
0230
2300
3000
,
0001
0010
0001
0100
0010
1000
0010
0100
0001
0010
0001
0100
0010
1000
0010
0100
,
0001
0010
0100
1000
0010
1000
0100
0010
0001
0100
0001
1000
0100
1000
0001
0100
,
0010
1000
0010
0100
0001
0010
0100
1000
0001
0100
0010
1000
0100
1000
0100
0010
,
0001
1000
0001
0100
0010
1000
0100
1000
0001
0100
0010
0100
0001
0010
0100
1000
,
0001
0010
0001
0100
0010
1000
0001
0100
0001
1000
0100
1000
0010
1000
0001
0100
,
0001
0010
0100
1000
0001
1000
0010
0100
0001
0010
0001
0100
0010
1000
0010
1000
,
0100
0010
0001
0100
0001
1000
0010
0100
0001
0010
0100
1000
0010
1000
0001
0100
,
0002
0000
0000
0003
1000
1000
0001
0100
,
0001
1000
0001
0010
0100
1000
0010
1000
0001
0100
0010
1000
0100
1000
0001
1000
,
0010
0100
0001
0010
0001
1000
0100
1000
0010
0100
0001
1000
0001
0010
0100
1000
,
0010
1000
0001
0100
0001
0100
0010
1000
0100
0010
0001
0100
0001
1000
0001
0100
,
0010
1000
0100
0010
0100
1000
0010
0100
0001
1000
0100
0010
0001
0100
0001
1000
,
0100
1000
0010
0100
0001
0100
0010
1000
0001
0010
0001
0100
0010
1000
0010
0100
,
0001
1000
0100
0010
0001
1000
0001
0100
0010
1000
0100
1000
0001
0100
0010
1000
,
0010
0100
0001
0100
0010
1000
0100
1000
0010
0100
0010
1000
0001
0010
0100
1000
,
0001
0010
0001
0100
0010
1000
0010
0100
0001
0000
1000
0001
0200
0000
0000
0300
,
0010
1000
0100
1000
0010
0100
0001
0100
0010
1000
0100
1000
0010
0100
0001
0100
,
0010
1000
0100
0010
0100
1000
0001
0010
0001
0100
0010
1000
0100
0010
0001
1000
,
0010
0100
0001
0010
0001
0100
0010
1000
0010
0100
0001
0010
0001
0100
0010
1000
,
0010
1000
0100
0010
0001
0100
0001
1000
0100
1000
0010
0100
0010
1000
0001
0100
,
0001
1000
0100
1000
0001
0100
0010
0100
0001
1000
0100
0010
0001
1000
0010
1000
,
0100
0010
0001
1000
0010
0100
0001
0010
0001
1000
0100
1000
0010
0100
0010
1000
,
0001
1000
0100
0010
0001
0100
0001
1000
0100
0010
0100
1000
0001
0100
0010
1000
,
0001
0001
0100
0100
0010
0010
1000
1000
,
0002
0003
1000
0001
0101
0000
0100
0010
,
1000
0000
0100
0010
0011
0001
1000
0010
,
0100
0010
1000
0100
0010
0001
0100
0001
,
1000
0100
1000
0001
0100
0001
1000
0100
,
0010
0000
0100
0000
0010
0001
0100
0001
1000
0100
0010
0000
0001
0000
1000
0000
,
0001
0100
0001
0000
0100
0000
0001
1000
0001
0010
0100
1000
0010
0000
1000
0000
,
0100
0000
1000
0000
0001
0010
0001
1000
0010
0000
1000
0000
0100
0000
0100
0000
,
0010
0000
0001
0000
1000
0000
0010
0000
0100
0001
0100
0010
1000
0000
0001
0000
,
0010
0100
1000
0000
0001
0000
0100
0001
0100
0010
1000
0000
0100
0000
1000
0000
,
0010
0000
0100
0000
0001
0000
1000
0001
0100
0010
0100
0001
2000
0000
0000
0000
,
3001
0000
0100
0000
0001
1000
0100
1000
0010
0000
0100
0000
0001
0000
0001
0000
,
0010
0000
0100
0000
1000
0000
0010
0000
1000
0100
1000
0001
0200
0000
0000
0300
,
0001
0000
1000
0000
0100
0000
1000
0001
0100
0001
0010
0000
0100
0000
1000
0000
,
0010
0000
1000
0000
0001
0000
0100
0001
0100
0010
1000
0100
0010
0000
0000
0000
,
0001
0000
1000
0000
0001
0100
0001
1000
0100
0010
0001
0000
1000
0000
1000
0000
,
0002
0003
0000
0000
0002
0003
0000
0000
0002
0003
0000
0000
2002
0000
3003
0000
,
1000
0100
1000
0010
0100
0001
0100
0010
1000
0100
1000
0010
0100
0001
0100
0010
,
1000
0001
0010
0001
0100
0010
1000
0001
1000
0100
0010
0001
0100
0001
1000
0010
,
0100
0010
1000
0100
0010
0001
1000
0010
0100
0010
1000
0100
0010
0001
1000
0100
,
1000
0010
0100
0010
1000
0100
0010
0001
0100
0001
1000
0010
1000
0100
0010
0001
,
0100
0001
1000
0100
1000
0001
0100
0010
1000
0010
0100
0001
0010
0100
0010
0001
,
1000
0010
0100
0010
1000
0100
1000
0001
0100
0010
1000
0001
0010
0100
1000
0001
,
0100
0001
1000
0100
0010
0100
1000
0001
1000
0010
0100
0010
1000
0001
0100
0010
,
0100
0000
0100
0000
0100
0000
0202
0303
,
0001
0100
0001
0010
0100
1000
0010
1000
0001
0100
0001
0010
0100
1000
0010
1000
,
0001
0100
0010
1000
0100
1000
0010
0100
0001
0010
0100
1000
0001
1000
0010
1000
,
0001
0010
0001
0100
0010
1000
0010
0100
0001
1000
0100
0010
0001
0100
0001
1000
,
0100
1000
0010
0100
0001
0010
0100
1000
0010
0100
0001
0010
0001
0100
0010
1000
,
0100
0010
0001
1000
0001
0100
0010
1000
0010
0100
0001
0010
0001
0100
0010
1000
,
0001
1000
0100
0010
0001
0100
0001
1000
0100
0010
0100
1000
0010
0100
0010
1000
,
0001
0100
0010
1000
0001
1000
0100
0010
0001
0100
0001
1000
0100
0010
0001
1000
,
0002
0000
0000
0000
0000
0000
1003
1000
,
0001
0100
0001
0010
0100
1000
0010
1000
0001
0100
0001
0010
0100
1000
0010
1000
,
0001
0010
0001
0100
0010
1000
0100
0010
0001
0100
0001
1000
0100
1000
0010
1000
,
0001
0010
0001
0100
0010
1000
0010
0100
0001
0010
0001
0100
0010
1000
0010
0100
,
0001
0010
0100
0010
0001
0100
0010
1000
0100
1000
0010
0100
0001
0010
0100
1000
,
0010
1000
0001
0100
0001
1000
0100
1000
0010
0100
0001
1000
0100
0010
0100
1000
,
0001
0100
0010
1000
0001
0010
0100
1000
0001
0100
0010
0100
0001
1000
0100
0010
,
0100
1000
0010
0100
0010
1000
0001
1000
0100
0010
0001
0100
0001
1000
0010
0100
,
0001
0000
1000
0100
1000
1000
0010
0100
,
0001
0010
0001
0100
0010
1000
0010
0100
0001
0010
0001
0100
0010
1000
0010
0100
,
0001
0010
0100
0010
0001
0100
0010
1000
0010
0100
0001
0010
0100
1000
0001
1000
,
0010
0100
0001
1000
0100
1000
0010
0100
0001
0100
0010
1000
0100
0010
0001
0100
,
0001
1000
0100
1000
0010
0100
0001
0010
0100
1000
0010
0100
0001
0010
0001
0100
,
0010
1000
0010
0100
0001
1000
0100
1000
0001
0100
0010
1000
0010
0100
0001
1000
,
0100
0010
0001
0100
0001
1000
0100
1000
0001
0010
0001
0100
0010
1000
0010
0100
,
0001
1000
0010
0100
0001
0010
0100
1000
0001
0010
0001
0100
0010
1000
0100
0010
,
0001
0000
0000
0000
0000
0000
2002
3003
,
1000
0000
0000
0010
0000
0000
0110
0000
0000
0100
0000
0001
,
1000
0000
0200
0300
0010
0000
0001
1000
,
0010
0000
0000
1000
0000
0000
0100
0000
0000
0010
0000
0000
0001
0000
0000
1000
0000
0000
0001
0000
0000
0000
0100
0000
,
0010
1000
0200
0310
0001
0000
1000
0000
,
1000
0000
0000
0000
0000
0000
0001
0000
0000
0010
0000
0000
0001
0000
0000
0100
0000
0000
0010
0000
0000
0000
0100
0000
,
0001
1000
0200
0310
0001
0000
1000
0100
,
1000
0000
0000
0001
0000
0000
0010
0000
0000
0100
0000
0000
1000
0000
0000
0010
0000
0000
0100
0000
0000
0000
0001
0000
,
0010
0001
0200
0310
1000
0100
0010
0001
,
0100
0000
0101
0000
0000
0001
1000
0000
,
0100
0010
0002
1003
0001
0000
1000
0000
,
0010
0100
0001
0000
0000
1000
0100
0000
,
0010
0001
2000
3010
0100
0000
0001
0010
,
0001
0000
0000
0100
0000
0000
0010
0000
0000
1000
0000
0000
0100
0000
0000
0010
0000
0000
0001
0000
0000
0000
1000
0000
,
0100
1000
0002
0103
0010
0100
0001
0010
,
0100
0000
1000
0000
0001
0100
0010
1000
,
0100
1000
0000
0001
0000
0001
0000
1000
,
0020
0030
0010
0000
1000
1000
0001
0000
,
0010
0010
0100
0000
1000
1000
0001
0001
,
0100
0000
0100
0000
0001
0001
0010
0000
,
0100
0100
1000
0000
0001
0001
0100
0100
,
0010
0000
0010
0000
1000
1000
0100
0000
,
0010
0010
0001
0000
1000
1000
0001
0001
,
0100
0100
0010
0000
1000
1000
0100
0100
,
0011
0000
0001
1000
0100
1000
0001
0001
,
1000
0100
1000
0001
0100
0010
1000
0010
0100
0001
0010
0100
1000
0001
1000
0010
,
0100
0001
1000
0100
0010
0001
0100
0001
1000
0001
0100
0010
1000
0100
1000
0001
,
1000
0010
0100
0001
0010
0001
1000
0100
1000
0010
0100
0001
1000
0100
1000
0001
,
0100
0001
0010
0001
1000
0100
1000
0001
0100
0001
1000
0100
1000
0010
1000
0001
,
0100
0001
0010
0100
1000
0001
0100
0010
1000
0100
1000
0001
0100
0010
1000
0010
,
0100
0001
0100
0001
0010
0001
1000
0100
1000
0001
0100
0001
1000
0100
1000
0010
,
1000
0001
0010
0100
0010
0001
0100
0010
1000
0001
1000
0100
0010
0001
0100
0001
,
1000
0100
1000
0010
0100
0001
0010
0100
,
1000
0001
1000
0100
0010
0001
0100
0001
1000
0001
0100
0010
1000
0100
1000
0001
,
1000
0010
0100
0001
0100
0010
1000
0001
1000
0100
0010
0001
0100
0001
0010
0001
,
1000
0100
1000
0001
0100
0010
1000
0010
0100
0001
1000
0100
0010
0100
1000
0010
,
1000
0001
0100
0010
0100
0001
1000
0001
0010
0100
0010
0001
1000
0010
1000
0100
,
1000
0001
0100
0010
1000
0010
0100
0001
1000
0100
0010
0100
1000
0001
0100
0010
,
1000
0010
0100
0001
1000
0100
0010
0001
0100
0001
1000
0100
1000
0001
1000
0010
,
0100
0001
0100
0010
1000
0001
0010
0100
0010
0001
0100
0010
1000
0001
0100
0001
,
2000
3200
0320
0030
,
0001
1000
0001
0010
0100
1000
0001
1000
0100
0010
0001
1000
0001
0100
0010
1000
,
0010
0100
0001
1000
0100
1000
0001
0100
0001
1000
0100
0010
0001
0100
0001
1000
,
0001
0100
0010
1000
0010
0100
0001
1000
0100
0010
0100
1000
0001
1000
0010
0100
,
0001
0100
0010
1000
0001
1000
0100
0010
0001
1000
0001
0100
0010
1000
0100
1000
,
0001
1000
0010
0100
0001
0100
0010
1000
0001
1000
0100
0010
0100
1000
0001
0100
,
0001
1000
0010
0100
0010
1000
0001
1000
0100
0010
0001
1000
0100
1000
0010
0100
,
0001
0100
0010
1000
0001
0010
0100
0010
0001
1000
0010
0100
0010
1000
0001
0100
,
0002
0003
0020
0030
0100
1000
0002
0003
,
1000
0100
1000
0010
0100
0001
0010
0001
1000
0001
0100
0010
1000
0001
0100
0001
,
1000
0100
0010
0100
1000
0001
1000
0010
0100
0001
0100
0010
1000
0001
0100
0010
,
1000
0100
0010
0100
1000
0010
1000
0100
1000
0001
0100
0010
0100
0001
1000
0100
,
1000
0001
0010
0100
0010
0001
1000
0010
1000
0001
0100
0010
1000
0001
0010
0100
,
1000
0010
0100
0001
0010
0001
1000
0001
0100
0010
0100
0001
1000
0100
0010
0001
,
1000
0001
0100
0010
1000
0010
0100
0001
1000
0100
0010
0100
1000
0001
0100
0010
,
1000
0010
0100
0001
1000
0100
0010
0001
0100
0001
1000
0001
0100
0010
1000
0001
,
1000
0000
1000
0000
1000
0000
0002
0003
,
1000
0010
1000
0100
0010
0001
0100
0001
1000
0001
0010
0100
1000
0001
0010
0001
,
1000
0010
0100
0010
1000
0001
1000
0100
0010
0001
0010
0100
1000
0001
0010
0100
,
1000
0010
0100
0010
1000
0100
1000
0010
1000
0001
0010
0100
0010
0001
1000
0010
,
1000
0001
0100
0010
0100
0001
1000
0100
1000
0001
0010
0100
1000
0001
0100
0010
,
1000
0100
0010
0001
0100
0001
1000
0001
0010
0100
0010
0001
1000
0010
0100
0001
,
1000
0001
0010
0100
1000
0100
0010
0001
1000
0010
0100
0010
1000
0001
0010
0100
,
1000
0100
0010
0001
1000
0100
0010
0001
0010
0001
1000
0001
0010
0100
1000
0001
,
0100
0010
1000
0000
0010
0000
0100
0000
0001
0000
0010
0000
0100
0000
1000
0000
,
0001
0100
0001
0010
0100
1000
0010
1000
0001
1000
0100
0010
0001
1000
0100
1000
,
0001
0100
0010
0100
0001
1000
0001
0010
0100
1000
0100
0010
0001
1000
0100
0010
,
0001
0100
0010
0100
0001
0010
0001
0100
0001
1000
0100
0010
0100
1000
0001
0100
,
0001
1000
0010
0100
0010
1000
0001
0010
0001
1000
0100
0010
0001
1000
0010
0100
,
0001
0010
0100
1000
0010
1000
0001
1000
0100
0010
0100
1000
0001
0100
0010
1000
,
0001
1000
0100
0010
0001
0010
0100
1000
0001
0100
0010
0100
0001
1000
0100
0010
,
0001
0010
0100
1000
0001
0010
0100
1000
0100
1000
0001
1000
0100
0010
0001
0100
,
0010
1000
0001
0000
0010
0000
0100
0000
1000
0000
0001
0000
1000
0000
0010
0000
,
1000
0100
1000
0010
0100
0001
0010
0001
1000
0001
0100
0010
1000
0001
0100
0001
,
1000
0100
0010
0100
1000
0001
1000
0010
0100
0001
0100
0010
1000
0001
0100
0010
,
1000
0100
0010
0100
1000
0010
1000
0100
1000
0001
0100
0010
0100
0001
1000
0100
,
1000
0001
0010
0100
0010
0001
1000
0010
1000
0001
0100
0010
1000
0001
0010
0100
,
1000
0010
0100
0001
0010
0001
1000
0001
0100
0010
0100
0001
1000
0100
0010
0001
,
1000
0001
0100
0010
1000
0010
0100
0001
1000
0100
0010
0100
1000
0001
0100
0010
,
2000
3000
0000
0000
,
0000
0000
0000
0000
0000
0001
0010
0100
,
1000
0100
1000
0010
0100
0001
0100
0001
1000
0100
1000
0010
0100
0001
0100
0001
,
1000
0100
1000
0010
0100
0001
0010
0100
0010
0001
0100
0010
1000
0100
0010
0001
,
1000
0010
1000
0100
0010
0001
0010
0100
1000
0010
1000
0100
0010
0001
0010
0100
,
1000
0010
1000
0100
0010
0001
0100
0001
0010
0100
1000
0010
1000
0100
0010
0001
,
0100
0010
1000
0001
1000
0100
0010
0001
0100
0001
1000
0010
0100
0010
1000
0100
,
0010
0001
0100
0001
1000
0100
0010
0100
1000
0001
0100
0010
0100
0001
1000
0100
,
0010
0001
0100
0001
1000
0100
1000
0010
0100
0001
0010
0100
1000
0001
0100
0010
,
1000
0000
0001
0000
0100
0010
1000
0000
,
0001
0100
0001
0010
0100
1000
0010
1000
0001
0100
0001
0010
0100
1000
0010
1000
,
0001
0010
0001
0100
0010
1000
0010
0100
0001
0010
0100
1000
0010
1000
0010
0100
,
0001
1000
0100
1000
0010
0100
0001
1000
0100
0010
0100
1000
0010
0100
0001
1000
,
0001
0010
0100
1000
0010
1000
0001
0010
0100
0010
0001
0100
0010
1000
0010
0100
,
0001
1000
0100
0010
0001
0100
0001
1000
0100
0010
0100
1000
0010
0100
0001
1000
,
0010
1000
0100
0010
0001
0100
0001
1000
0100
0010
0100
1000
0010
1000
0001
0100
,
0010
1000
0100
1000
0001
0100
0010
1000
0001
0100
0001
0010
0100
1000
0001
0100
,
0002
0000
0000
0003
1000
0100
1000
0001
,
0100
0010
1000
0100
1000
0001
1000
0010
0100
0010
1000
0100
1000
0001
1000
0010
,
0100
0010
1000
0100
0010
0001
0100
0001
1000
0100
0010
0100
1000
0010
0100
0001
,
1000
0100
1000
0010
0100
0001
0100
0001
1000
0100
1000
0010
0100
0001
0100
0001
,
1000
0100
0010
0100
1000
0010
0100
0001
1000
0001
0010
0100
1000
0010
0100
0001
,
0100
0010
1000
0001
1000
0100
0010
0001
1000
0001
0010
0100
1000
0010
0100
0001
,
1000
0001
0010
0100
0010
0001
0100
0010
1000
0100
1000
0001
0100
0010
1000
0001
,
1000
0100
0010
0001
0100
0001
1000
0001
0010
0100
1000
0001
0100
0001
1000
0100
,
0010
0000
0000
0000
0010
0000
0000
0000
0010
0000
0000
0000
0002
0003
0000
0000
,
1000
0100
1000
0010
0100
0001
0100
0010
1000
0100
1000
0010
0100
0001
0100
0010
,
1000
0001
0010
0100
0010
0001
0100
0010
1000
0010
0100
0001
1000
0100
1000
0001
,
0100
0010
1000
0001
0010
0100
0010
0001
0100
0010
1000
0010
0100
0001
0010
0100
,
1000
0001
1000
0010
0100
0001
1000
0100
1000
0001
0100
0001
0010
0001
0100
0010
,
1000
0001
1000
0100
0010
0001
0100
0001
1000
0100
1000
0010
0100
0001
0100
0010
,
1000
0001
0010
0100
1000
0010
1000
0001
0100
0010
0100
0001
0010
0100
1000
0001
,
1000
0010
0100
0001
0010
0001
1000
0100
0010
0100
1000
0001
0100
0010
1000
0001
,
2000
3002
0003
0000
0000
0000
0000
0000
,
1000
0001
1000
0010
0100
0001
1000
0010
0100
0001
1000
0001
0010
0100
1000
0001
,
1000
0100
1000
0001
0100
0010
1000
0010
0100
0001
1000
0100
0010
0100
1000
0001
,
1000
0010
0100
0001
0100
0010
1000
0001
0010
0100
0010
0001
1000
0001
0100
0010
,
1000
0100
0010
0001
1000
0001
0100
0010
1000
0001
0100
0010
1000
0100
1000
0010
,
0100
0001
1000
0100
1000
0001
0010
0100
1000
0001
0100
0010
1000
0001
0010
0100
,
1000
0001
0100
0001
1000
0100
0010
0100
1000
0001
1000
0100
1000
0001
0100
0010
,
1000
0010
0100
0001
1000
0100
0010
0001
1000
0001
0100
0010
0100
0001
0010
0100
,
1000
0000
0001
0010
0100
0000
1000
0001
1000
0000
0010
0100
0002
0000
0003
0000
,
1000
0100
1000
0001
0100
0010
0100
0001
0100
0010
1000
0100
0010
0100
1000
0001
,
0100
0001
1000
0100
0010
0001
1000
0001
0100
0010
0100
0001
1000
0100
1000
0001
,
0100
0010
1000
0001
0100
0001
0010
0001
1000
0100
0010
0100
1000
0001
0100
0010
,
1000
0100
0010
0001
0100
0001
1000
0100
1000
0001
0100
0001
0010
0100
1000
0010
,
0100
0001
0100
0010
1000
0010
0100
0001
1000
0100
0010
0100
1000
0001
1000
0010
,
0100
0001
1000
0100
1000
0001
0010
0100
1000
0001
0100
0010
0100
0001
1000
0001
,
0100
0010
1000
0100
1000
0001
0100
0001
1000
0001
0010
0100
1000
0010
0100
0001
,
1000
0000
0001
0010
0100
0000
1000
0001
1000
0000
0001
0100
0010
0000
1000
0000
,
0001
0100
0001
1000
0100
0010
0001
0100
0001
0010
0100
1000
0001
0100
0010
0100
,
0001
1000
0100
1000
0010
0100
0001
0100
0010
1000
0100
0010
0001
0100
0001
1000
,
0100
0010
0100
1000
0010
0100
0001
0100
0010
1000
0100
0010
0001
0100
0001
1000
,
0100
1000
0010
0100
0001
1000
0001
0010
0100
1000
0010
0100
0001
1000
0100
0010
,
0001
0100
0001
1000
0100
1000
0010
1000
0001
0100
0001
0010
0001
0100
0010
1000
,
0001
1000
0100
0010
0001
0100
0001
1000
0100
0010
0100
1000
0010
0100
0001
0010
,
0001
1000
0100
1000
0001
0100
0010
0100
0001
1000
0100
0010
0001
0100
0010
1000
,
0001
0000
1000
0000
0001
0000
0010
0100
1000
0001
1000
0000
0002
0000
0003
0000
,
1000
0001
0100
0001
1000
0100
1000
0010
1000
0001
0010
0100
0010
0001
0100
0010
,
1000
0010
0100
0001
1000
0100
0010
0001
0100
0001
0010
0100
1000
0010
1000
0001
,
0100
0010
1000
0100
1000
0001
0010
0001
0100
0001
1000
0010
0100
0001
0010
0100
,
1000
0010
0100
0001
0100
0010
1000
0100
0010
0001
0100
0001
0010
0100
1000
0010
,
0100
0010
1000
0001
1000
0100
0010
0001
0100
0001
1000
0100
1000
0001
0100
0010
,
0100
0001
1000
0100
0010
0001
0100
0001
1000
0100
1000
0010
0100
0001
1000
0001
,
0010
0100
1000
0001
0100
0001
0010
0100
1000
0010
0100
0010
1000
0100
0010
0001
,
1000
0000
0000
2002
,
3003
0000
0000
0000
,
0000
0000
0000
0000
,
00M0
0000
0000
0000
;
