#TITLE:Painless;
#SUBTITLE:Oh Henry!;
#ARTIST:The Berzerker;
#TITLETRANSLIT:;
#SUBTITLETRANSLIT:;
#ARTISTTRANSLIT:;
#CREDIT:;
#BANNER:../Fallback-Ban.png;
#BACKGROUND:../Fallback-BG.png;
#LYRICSPATH:;
#CDTITLE:../~CDTitle-@@.png;
#MUSIC:The Berzerker - Painless.ogg;
#OFFSET:-5.186;
#SAMPLESTART:90.108;
#SAMPLELENGTH:29.538;
#SELECTABLE:YES;
#BPMS:0.000=260.000;
#STOPS:;
#BGCHANGES:;
// cache tags:
#FIRSTBEAT:0.000;
#LASTBEAT:824.000;
#SONGFILENAME:Songs/Oh Henry! Mad Stamina/Painless (16+)/Painless.sm;
#HASMUSIC:1;
#HASBANNER:1;
#MUSICLENGTH:196.179;
// end cache tags

//---------------dance-single - @@----------------
#NOTES:
     dance-single:
     @@:
     Challenge:
     16:
     1.000,1.000,0.163,0.331,1.000,1839.000,32.000,65.000,1.000,0.000:
0001
0100
0010
1000
0010
0100
0001
0010
0100
1000
0001
1000
,
0100
0010
0001
0200
0000
0000
0320
0000
0000
2030
0000
0000
,
3100
0010
0001
1000
0100
1000
0010
0100
0001
1000
0010
1000
,
0001
0000
0100
0000
0001
0000
0020
0000
0000
0000
0000
0000
0130
0000
0000
1000
0000
0000
0010
0000
0000
0000
0000
0000
,
0100
0001
1000
0010
0100
0001
0010
0100
1000
0100
0010
0001
,
1000
0100
1000
0020
0000
0000
0230
0000
0000
0302
0000
0000
,
1003
0100
0010
0001
0010
0100
1000
0010
0100
0001
1000
0010
,
0100
0000
0010
0000
1000
0000
0200
0000
0000
0000
0000
0000
0310
0000
0000
0001
0000
0000
0100
0000
0000
0000
0000
0000
,
0001
1000
0010
1000
0001
0100
0001
0010
0100
0010
0001
1000
,
0100
0010
0001
0200
0000
0000
0320
0000
0000
2030
0000
0000
,
3100
0010
0001
0010
0100
1000
0010
0100
0001
0100
0010
1000
,
0010
0000
0100
0000
0001
0000
0020
0000
0000
0000
0000
0000
0130
0000
0000
1000
0000
0000
0010
0000
0000
0000
0000
0000
,
0100
0010
1000
0010
0100
0001
0010
0001
1000
0100
0010
0001
,
1000
0100
1000
0020
0000
0000
0230
0000
0000
0302
0000
0000
,
1003
0100
1000
0001
0010
0100
1000
0010
0100
0001
1000
0001
,
0100
0000
0010
0000
1000
0000
0200
0000
0000
0000
0000
0000
0310
0000
0000
0001
0000
0000
0100
0000
0000
0000
0000
0000
,
0010
0100
0001
1000
0010
1000
0001
0010
0001
1000
0100
0010
,
0001
0010
0100
1000
0010
0100
0001
0010
0100
1000
0100
0010
,
0001
0100
0010
1000
0010
0100
0001
1000
0100
0010
0001
1000
,
0100
1000
0010
0200
0000
0000
0302
0000
0000
2003
0000
0000
,
3001
0010
0100
1000
0100
0010
0001
0100
0010
1000
0001
1000
,
0010
0100
0001
0020
0000
0000
0230
0000
0000
2300
0000
0000
,
3010
0100
0001
1000
0010
1000
0100
0010
0001
1000
0100
1000
,
0001
0000
0010
0000
0001
0000
0200
0000
0000
0000
0000
0000
0310
0000
0000
1000
0000
0000
0100
0000
0000
0000
0000
0000
,
0010
0001
1000
0100
0010
0001
0100
0010
1000
0010
0100
0001
,
1000
0010
1000
0200
0000
0000
0320
0000
0000
0032
0000
0000
,
1003
0010
0100
0001
0100
0010
1000
0100
0010
0001
1000
0100
,
0010
0000
0100
0000
1000
0000
0020
0000
0000
0000
0000
0000
0130
0000
0000
0001
0000
0000
0010
0000
0000
0000
0000
0000
,
0001
1000
0100
1000
0001
0010
0001
0100
0010
0100
0001
1000
,
0010
0100
0001
0020
0000
0000
0230
0000
0000
2300
0000
0000
,
3010
0100
0001
0100
0010
1000
0100
0010
0001
0010
0100
1000
,
0100
0000
0010
0000
0001
0000
0200
0000
0000
0000
0000
0000
0310
0000
0000
1000
0000
0000
0100
0000
0000
0000
0000
0000
,
0010
0100
1000
0100
0010
0001
0100
0001
1000
0010
0100
0001
,
1000
0010
1000
0200
0000
0000
0320
0000
0000
0032
0000
0000
,
1003
0010
1000
0001
0100
0010
1000
0100
0010
0001
1000
0001
,
0010
0000
0100
0000
1000
0000
0020
0000
0000
0000
0000
0000
0130
0000
0000
0001
0000
0000
0010
0000
0000
0000
0000
0000
,
0100
0010
0001
1000
0100
1000
0001
0100
0001
1000
0010
0100
,
0001
0100
0010
1000
0100
0010
0001
0100
0010
1000
0010
0100
,
0001
0010
0001
1000
0010
1000
0001
0010
0001
1000
0100
1000
,
0001
0100
0001
0020
0000
0000
0032
0000
0000
2003
0000
0000
,
3010
0100
0010
1000
0001
0100
0001
0010
0100
1000
0001
1000
,
0100
0010
0001
0200
0000
0000
0320
0000
0000
2030
0000
0000
,
3001
0010
0100
1000
0100
0010
0001
0100
0010
1000
0001
0100
,
0010
0000
0100
0000
0001
0000
0020
0000
0000
0000
0000
0000
0130
0000
0000
1000
0000
0000
0010
0000
0000
0000
0000
0000
,
1000
0100
0010
0001
1000
0100
1000
0010
0100
0001
1000
0001
,
0100
0010
1000
0200
0000
0000
0320
0000
0000
0032
0000
0000
,
1003
0100
0010
0001
0010
0100
1000
0010
0100
0001
1000
0001
,
0100
0000
0010
0000
1000
0000
0200
0000
0000
0000
0000
0000
0310
0000
0000
0001
0000
0000
0100
0000
0000
0000
0000
0000
,
0010
0000
1000
0001
0010
0100
0010
0001
,
1001
0000
1000
0010
0100
0010
1000
0001
,
0011
0000
0010
0100
1000
0001
0010
0001
,
1000
0010
0100
0001
1000
0000
1000
0000
,
0001
0000
0010
0100
1000
0100
0010
0001
,
1001
0000
1000
0010
0100
0010
1000
0001
,
0010
0100
1000
0001
0010
0001
0200
0000
0000
0310
1000
0001
,
0100
0010
1000
0200
0000
0000
0310
0001
0100
0010
0100
0001
,
1000
0000
0001
1000
0100
0010
0100
1000
,
1001
0000
0001
0100
0010
0100
0001
1000
,
1100
0000
0100
0010
0001
1000
0100
1000
,
0001
0100
0010
1000
0001
0000
0001
0000
,
1000
0000
0100
0010
0001
0010
0100
1000
,
1001
0000
0001
0100
0010
0100
0001
1000
,
0010
0100
0001
1000
0010
1000
0001
0100
0001
0010
0100
1000
,
0100
0010
0001
0100
0010
1000
0100
0010
0001
1000
0010
0100
,
0001
1000
0010
0100
0001
0100
0010
1000
0100
0010
0001
0010
,
0100
1000
0010
0100
0001
0010
0100
0000
0000
0000
0000
0000
,
1000
0100
0010
0001
0010
0100
1000
0001
1000
0100
0010
0001
,
0100
0010
1000
0001
0100
0001
1000
0010
1000
0100
0010
0001
,
0100
0010
1000
0001
0100
0001
1000
0010
0100
0001
0100
0010
,
1000
0100
0010
0001
1000
0100
1000
0001
0010
0001
0100
0010
,
1000
0100
0010
0001
1000
0001
0010
0100
1000
0001
0010
0001
,
0100
0010
1000
0001
1000
0010
0100
0001
1000
0100
0010
0100
,
1000
0010
0100
0001
1000
0010
1000
0001
0100
0010
0100
0001
,
0010
0100
1000
0001
1000
0100
0010
0001
1000
0001
0010
0100
,
1000
0010
0100
0001
0100
0010
1000
0001
1000
0010
0100
0001
,
0010
0100
1000
0001
0010
0001
1000
0100
1000
0010
0100
0001
,
0010
0100
1000
0001
0010
0001
1000
0100
0010
0001
0010
0100
,
1000
0010
0100
0001
1000
0010
1000
0001
0100
0001
0010
0100
,
1000
0010
0100
0001
1000
0001
0100
0010
1000
0001
0100
0001
,
0010
0100
1000
0001
1000
0100
0010
0001
1000
0010
0100
0010
,
1000
0100
0010
0001
1000
0100
1000
0001
0010
0100
0010
0001
,
0100
0010
1000
0001
1000
0010
0100
0001
1000
0001
0100
0010
,
1000
0100
0010
0001
1000
0100
1000
0001
0010
0100
1000
0010
,
0100
0001
1000
0001
0100
0010
1000
0001
0100
0001
1000
0010
,
1000
0000
0100
0010
0001
1000
0010
1000
,
1001
0001
0010
0100
1000
0000
1000
0000
,
1000
0000
0001
0100
0010
1000
0001
0010
,
0011
0000
0001
0010
0100
1000
0001
0100
,
0110
0000
0010
1000
0001
1000
0100
0010
,
0110
0000
0100
1000
0001
1000
0010
0100
,
0101
0000
0001
1000
0010
1000
0001
0010
,
0110
0100
1000
0001
1000
0000
1000
0000
,
0010
0100
0001
0100
0010
1000
0100
0010
0001
0010
0100
1000
,
0001
0010
0001
0100
0010
1000
0100
0010
0001
1000
0010
0100
,
0001
1000
0100
0010
0100
1000
0010
0100
0001
0100
0010
1000
,
0001
0100
0001
0010
0100
1000
0010
1000
0001
0100
0010
1000
,
0001
0010
0100
1000
0001
0010
0001
0100
0010
1000
0001
0100
,
0001
1000
0010
1000
0100
0010
0001
0100
0010
1000
0001
1000
,
0010
0100
0001
1000
0010
1000
0100
0010
0001
0010
0100
1000
,
0001
0010
0001
0100
0010
1000
0100
1000
0010
1000
0001
0100
,
0001
0010
0100
1000
0001
0010
0001
1000
0010
0100
0001
1000
,
0010
0000
0000
0100
0000
0000
0001
0000
0000
1000
0000
0000
0010
0000
0000
1000
0000
0000
0001
0000
0000
0010
0000
0000
0100
0000
0000
1000
0000
0000
0001
0000
0000
1000
0000
0000
0100
0000
0000
0000
0010
0000
0000
0000
0001
0000
0000
0000
,
1000
0000
0000
0000
0100
0000
0000
0000
1000
0000
0000
0000
0001
0000
0000
0000
0100
0000
0000
0000
0010
0000
0000
0000
1000
0000
0000
0000
0001
0000
0000
0000
0100
0000
0000
0000
0001
0000
0000
1000
0000
0000
0010
0000
0000
1000
0000
0000
,
0001
0000
0000
0100
0000
0000
0010
0000
0000
0100
0000
0000
0001
0000
0000
1000
0000
0000
0100
0000
0000
0010
0000
0000
0100
0000
0000
1000
0000
0000
0001
0000
0000
0010
0000
0000
0100
0000
0000
0000
1000
0000
0000
0000
0001
0000
0000
0000
,
0010
0001
1000
0100
0010
0001
0100
0010
1000
0001
0100
0001
,
1000
0010
1000
0100
0010
0001
1000
0001
0010
0100
1000
0001
,
0100
0010
1000
0001
0100
0001
1000
0010
1000
0001
0010
0100
1000
0001
0010
0001
,
0100
0010
1000
0001
0100
0001
1000
0100
0010
0100
1000
0001
1000
0000
0000
0000
,
1000
0100
0010
0001
0010
0100
1000
0001
1000
0100
0010
0001
,
0100
0010
1000
0100
0010
0100
1000
0001
0100
0010
0100
0001
,
1000
0010
1000
0100
0010
0100
1000
0001
1000
0010
0100
0001
,
1000
0010
1000
0001
0100
0001
0010
0100
1000
0001
0010
0001
,
1000
0010
0100
0001
0100
0010
1000
0001
0010
0100
1000
0001
,
0100
0010
1000
0001
0100
0001
1000
0100
0010
0100
1000
0001
,
0100
0010
1000
0010
0100
0001
1000
0100
0010
0001
1000
0001
,
0100
0010
1000
0001
0100
0001
1000
0100
0010
0001
0010
0100
,
1000
0010
1000
0001
1000
0001
0100
0010
0100
0001
1000
0001
,
0010
0100
1000
0001
0010
0001
1000
0010
0100
0010
1000
0001
,
0010
0100
1000
0010
0100
0001
1000
0010
1000
0001
0010
0100
,
1000
0001
1000
0010
0100
0001
1000
0010
1000
0001
0100
0010
,
1000
0100
0010
0001
0100
0010
1000
0001
0100
0001
1000
0010
,
1000
0001
0010
0100
1000
0001
0010
0100
0010
0001
0010
0100
,
0010
0001
0010
0100
0010
0001
0010
0100
0010
0001
1000
0010
,
1000
0001
0100
0001
1000
0100
0010
0100
1000
0001
0100
0010
,
1000
0100
0010
0001
0010
0100
1000
0010
0100
0010
1000
0001
,
0100
0010
1000
0200
0000
0000
0320
0000
0000
0032
0000
0000
,
1003
0010
0100
0001
1000
0010
1000
0100
0010
0001
1000
0100
,
0010
0000
0100
0000
1000
0000
0020
0000
0000
0000
0000
0000
0130
0000
0000
0001
0000
0000
0010
0000
0000
0000
0000
0000
,
0100
1000
0001
0010
0100
1000
0010
0100
0001
1000
0010
1000
,
0001
0100
0001
0020
0000
0000
0230
0000
0000
2300
0000
0000
,
3001
0100
0010
1000
0001
0100
0001
0010
0100
1000
0001
1000
,
0100
0000
0010
0000
0001
0000
0200
0000
0000
0000
0000
0000
0310
0000
0000
1000
0000
0000
0100
0000
0000
0000
0000
0000
,
1000
0010
0100
0001
0100
0010
1000
0100
0010
0100
1000
0001
,
0010
0100
1000
0020
0000
0000
0230
0000
0000
0302
0000
0000
,
1003
0100
0010
0001
1000
0100
1000
0010
0100
0001
1000
0010
,
0100
0000
0010
0000
1000
0000
0200
0000
0000
0000
0000
0000
0310
0000
0000
0001
0000
0000
0100
0000
0000
0000
0000
0000
,
0010
1000
0001
0100
0010
1000
0100
0010
0001
1000
0100
1000
,
0001
0010
0001
0200
0000
0000
0320
0000
0000
2030
0000
0000
,
3001
0010
0100
1000
0001
0010
0001
0100
0010
1000
0001
1000
,
0010
0100
0001
0100
0010
1000
0001
1000
0100
0010
0001
0010
0100
0000
0000
0000
,
0100
1000
0010
0100
0010
1000
0100
0010
,
0001
0010
0100
1000
0001
1000
0010
0100
,
0101
0000
0001
1000
0100
1000
0010
0100
,
0001
0010
0100
1000
0001
1000
0010
0100
,
0001
1000
0100
1000
0001
0010
0100
1000
,
0001
0100
0001
1000
0100
1000
0001
0100
,
0010
0100
0001
1000
0010
1000
0200
0000
0000
0310
0001
1000
,
0100
0010
0001
0200
0000
0000
0310
1000
0100
0010
0100
1000
,
0001
0100
0010
1000
0001
0010
0001
1000
,
0100
0010
0100
1000
0001
0000
1000
0000
,
0001
0100
0010
0100
0001
0010
0100
1000
,
1100
0000
0100
0010
0001
1000
0001
0100
,
0110
0000
0100
0001
1000
0001
0010
0100
,
1000
0001
1000
0010
0100
0001
1000
0001
,
0010
0100
1000
0001
0010
0001
1000
0100
1000
0010
0100
0001
,
0100
0010
1000
0100
0010
0001
0100
0010
1000
0001
0010
0100
,
1000
0001
0010
0100
1000
0100
0010
0001
0100
0010
1000
0010
,
0100
0001
0010
0100
1000
0010
0100
0000
0000
0000
0000
0000
,
0001
0100
0010
1000
0010
0100
0001
1000
0001
0100
0010
1000
,
0100
0010
0001
1000
0100
1000
0001
0010
0001
0100
0010
1000
,
0100
0010
0001
1000
0100
1000
0001
0010
0100
1000
0100
0010
,
0001
0100
0010
1000
0001
0100
0001
1000
0010
1000
0100
0010
,
0001
0100
0010
1000
0001
1000
0010
0100
0001
1000
0010
1000
,
0100
0010
0001
1000
0001
0010
0100
1000
0001
0100
0010
0100
,
0001
0010
0100
1000
0001
0010
0001
1000
0100
0010
0100
1000
,
0010
0100
0001
1000
0001
0100
0010
1000
0001
1000
0010
0100
,
0001
0010
0100
1000
0100
0010
0001
1000
0001
0010
0100
1000
,
0010
0100
0001
1000
0010
1000
0001
0100
0001
0010
0100
1000
,
0010
0100
0001
1000
0010
1000
0001
0100
0010
1000
0010
0100
,
0001
0010
0100
1000
0001
0010
0001
1000
0100
1000
0010
0100
,
0001
0010
0100
1000
0001
1000
0100
0010
0001
1000
0100
1000
,
0010
0100
0001
1000
0001
0100
0010
1000
0001
0010
0100
0010
,
0001
0100
0010
1000
0001
0100
0001
1000
0010
0100
0010
1000
,
0100
0010
0001
1000
0001
0010
0100
1000
0001
1000
0100
0010
,
0001
0100
0010
1000
0001
0100
0001
1000
0010
0100
0001
0010
,
0100
1000
0100
0010
0100
1000
0001
0010
0001
1000
0100
1000
,
0001
0000
0100
0000
,
0010
0000
0100
0110
,
1010
0000
1000
0000
,
0001
0000
0010
0000
,
0110
0000
0100
0000
,
1000
0000
0001
0101
,
1001
0000
1000
0000
,
0010
0000
1000
0000
,
1001
0000
0001
0000
,
1000
0000
0001
0011
,
0110
0000
0100
0000
,
1000
0000
0001
0000
,
1001
0000
1000
0000
,
0100
0000
1000
1100
,
0110
0000
0010
0000
,
0001
0000
0100
0000
,
0110
0000
0010
0000
,
1000
0000
0100
0110
,
0011
0000
0001
0000
,
0100
0000
0010
0000
,
1010
0000
1000
0000
,
0001
0000
1001
0000
,
1001
0000
0000
0000
,
0000
0000
0000
0000
,
0000
0000
0000
0000
,
0000
0000
0000
0000
,
0000
0000
0000
0000
,
0000
0000
0000
0000
,
0000
0000
0000
0000
,
0000
0000
0000
0000
,
000M
0000
0000
0000
;
