#TITLE:Reaf;
#SUBTITLE:;
#ARTIST:m1dy;
#TITLETRANSLIT:;
#SUBTITLETRANSLIT:;
#ARTISTTRANSLIT:;
#CREDIT:;
#BANNER:Reaf-bn.png;
#BACKGROUND:Reaf-bg.png;
#LYRICSPATH:;
#CDTITLE:!dragoonheadTitle.png;
#MUSIC:[03] reaf.mp3;
#OFFSET:0.000;
#SAMPLESTART:22.160;
#SAMPLELENGTH:20.000;
#SELECTABLE:YES;
#BPMS:0.000=220.000;
#STOPS:;
#BGCHANGES:;
// cache tags:
#FIRSTBEAT:0.000;
#LASTBEAT:613.000;
#SONGFILENAME:Songs/new again/Reaf/Reaf.sm;
#HASMUSIC:1;
#HASBANNER:1;
#MUSICLENGTH:170.456;
// end cache tags

//---------------dance-single - ----------------
#NOTES:
     dance-single:
     :
     Challenge:
     13:
     1.000,1.000,1.000,0.616,0.484,1093.000,291.000,105.000,0.000,23.000:

0110
0110
1010
0101
,
0110
1010
0101
1001
,
1001
1100
0101
0011
,
1100
0000
1001
0000
2200
0000
3301
1010
,
1100
0110
1001
1010
,
1100
0101
0011
1010
,
0101
1100
0110
0011
,
1001
0000
0101
0000
2200
0000
3310
0110
,
1001
0101
1100
0110
1001
0101
1010
0101
,
1010
1001
1001
0110
0110
1100
0011
1010
,
0101
0110
1001
0011
1100
1100
0101
0011
,
1010
1100
0011
1001
0220
0000
0001
1000
,
0331
1010
0101
0110
1001
1010
0101
1100
,
0101
0011
1010
1100
1100
0011
0011
0110
,
0110
1001
1001
1010
1010
0101
0101
1001
,
0101
1010
0011
0110
2100
0010
3001
0010
,
0100
0101
1000
0100
0010
0001
0010
0001
,
1000
0000
0001
1000
0100
0010
2001
0000
,
3001
0000
1000
0010
0001
0100
0000
0000
,
1000
0100
0010
0001
1000
0100
0010
0001
0010
0100
0010
0100
,
1001
0000
1000
0010
0001
0100
1000
0001
,
0010
0100
1000
0100
0010
0001
2100
0000
,
3010
0000
0000
0000
0100
0000
1000
0000
0001
1111
0000
0000
0001
0000
0100
0000
,
1000
0000
0000
0000
0001
0000
0000
0000
1000
0000
0000
0000
0001
0000
0000
0000
1000
0000
0000
0000
0001
0000
0000
0000
1000
0000
0000
0000
0001
0000
0100
0000
0000
0010
0000
0000
0100
0000
0000
0010
0000
0000
0100
0000
0000
0010
0000
0000
,
1111
1000
0010
0001
0010
1000
0100
0010
,
0010
0010
0010
1000
0100
0010
1000
0010
,
0001
0100
1000
0100
1000
0100
0010
0100
,
0001
1000
0100
0001
1000
0010
1001
0011
,
1100
0100
0010
1000
0001
0010
0001
1000
,
0100
1000
1000
0010
0001
0100
1000
0001
,
0010
0100
1000
0010
0001
1000
0100
1000
,
0001
1000
0010
0001
0010
0100
0110
1001
,
0210
2300
3001
1000
0100
1000
0100
1000
,
0100
0010
0001
1000
0100
0010
0001
0001
,
0010
0100
1000
0001
0010
0100
1000
0100
,
0001
0010
0001
0100
1000
0010
1010
0101
,
0120
0032
0003
1000
0010
1000
0100
0001
,
0100
0010
1000
0001
0100
0010
0001
1000
,
0100
0001
1000
0010
0100
0001
0100
1000
,
0010
1100
0011
1100
0011
2000
3200
0300
,
2000
3002
0003
1000
0110
0001
0110
0010
,
1100
0100
0011
0100
0110
0001
1010
0100
,
0101
0010
1100
0010
0011
1000
0110
0010
,
1001
0100
0001
1000
0010
0100
1010
0101
,
0210
0320
0030
1100
0011
1010
0101
1100
,
0101
0110
1001
0110
0110
1001
1001
1010
,
0101
1010
0011
1100
1001
1001
0110
0110
,
1100
1100
0011
0011
0110
0110
1001
1111
,
1111
1111
1000
0000
0100
0000
0010
0000
,
0100
1000
0010
0002
,
0103
0010
1000
0100
,
1000
0100
1000
0100
0010
0001
0010
0100
0001
2000
0000
3000
,
0010
0001
0100
1000
,
0010
0100
0001
2000
,
3100
0001
0100
1000
,
0010
1000
0001
0010
0100
1000
0100
0010
0001
0200
0000
0000
,
0300
0010
1000
0100
0001
0100
1000
0010
,
0001
0100
0001
1000
0010
0100
2000
0000
,
3001
0100
1000
0010
0100
0001
1000
0100
,
1000
0020
0032
0000
2003
3200
0320
0000
,
0030
1000
0100
0001
0010
1000
0100
0001
,
0010
1000
0100
0010
0001
1000
0020
0000
,
0130
1000
0100
0001
0010
1000
0001
0010
,
1001
0000
1010
0000
0101
0000
1001
0000
0000
1010
0000
0000
0101
0000
0000
1010
0000
0000
0101
0000
0000
1010
0000
0000
,
0101
0001
1000
0010
1000
0100
0010
0001
,
1000
0010
0001
0100
,
1000
0010
0001
0010
0001
1000
0100
0001
,
0100
0010
0001
1000
0100
0010
1000
0001
,
0001
1000
0001
0100
,
0010
0001
0100
0010
,
1000
0001
1000
0010
0100
0001
1000
0100
,
0010
0100
0001
0010
1000
0100
0001
0010
,
1000
0100
0010
0001
,
1000
0001
0010
0100
1000
0100
0010
0001
,
1000
0001
0100
0010
,
2000
0000
3002
0000
2003
3200
0320
0032
,
1003
0100
0010
0001
1000
0100
0010
0001
,
0010
0001
0010
0100
1000
0001
0010
0100
,
1000
0010
0001
0100
1000
0010
0001
0100
,
1001
0010
0010
0000
1000
0100
2010
3201
,
0000
0000
0000
0300
1000
0100
0001
0100
0010
1000
0001
0100
,
1000
0000
0010
0000
0001
0000
0100
0000
1000
0000
0010
0000
0001
0000
0100
0000
0000
0000
0022
0000
0000
0033
0000
0000
,
1111
1000
0010
0001
0100
1000
0010
0001
0100
1000
0001
0010
,
1000
0100
0001
0010
1000
0001
0100
0010
0001
1000
0000
0000
,
1111
0010
0100
0010
0001
1000
0100
0001
1000
0220
0000
0330
,
1111
0000
0000
0000
,
1111
0000
0110
0000
,
1001
0000
0000
0000
0100
0000
0000
0000
0010
0000
0000
0000
0001
0000
0000
1000
0000
0000
0001
0000
0000
0010
0000
0000
0100
0000
0000
1000
0000
0000
0100
0000
0010
0000
0001
0000
1000
0000
0100
0000
0001
0000
0100
0000
1000
0000
0010
0000
,
0200
2300
3200
0001
2300
0001
3020
2030
,
3200
0010
2300
0010
3200
1000
0320
0032
,
2003
0010
3200
0001
0320
0100
2030
3020
,
0032
1000
0203
0010
0320
0001
2030
3200
,
0320
0000
0032
0000
2003
0000
3002
0203
,
2300
0000
3002
0000
0203
0000
2300
3002
,
0023
0000
2030
0000
3200
0000
0320
2030
,
3002
0203
2302
3000
,
1000
0010
0103
1000
0001
0100
1000
0010
,
0001
1000
0010
0001
0100
1000
0010
0001
,
1000
0100
0001
1000
0001
0100
0001
0100
,
0010
1000
0100
0010
0001
0100
1000
0010
,
0001
1000
0010
0100
0001
0100
0001
0010
,
2000
0000
3200
0000
0320
0000
0032
0023
,
1030
0100
0001
0010
1000
0100
1000
0001
,
0010
0000
0100
0000
0001
0000
1000
0000
0100
0000
0010
0000
0001
0000
0100
2000
0000
0000
0000
0000
0000
3200
0000
0000
,
0311
0000
0000
0110
0000
0000
1100
0000
0000
0011
0000
0000
1100
0000
0110
0000
0011
0000
1100
0000
0110
0000
1001
0000
,
0110
0000
0000
1010
0000
0000
0101
0000
0000
1100
0000
0000
0101
0000
1100
0000
0110
0000
0011
0000
0110
0000
1001
0000
,
0101
0000
0000
0010
0000
0000
1000
0000
0000
0100
0000
0000
0010
0000
0001
0000
1000
0000
0100
0000
0001
0000
0010
0000
,
1000
0000
0000
0010
0000
0000
0001
0000
0000
0100
0000
0000
1000
0000
0001
0000
0100
0000
1000
0000
0010
0000
0001
0000
,
1100
0000
0000
1010
0000
0000
0011
0000
0000
1001
0000
0000
1000
0000
0100
0000
0001
0000
0010
0000
1000
0000
0010
0000
,
1000
0000
0000
0001
0000
0000
0010
0000
0000
0100
0000
0000
1100
0000
0101
0000
1001
0000
0110
0000
0011
0000
1010
0000
,
1001
0000
0000
0100
0000
0000
0001
0000
0000
0010
0000
0000
0100
0000
0010
0000
0001
0000
0010
0000
0100
0000
1000
0000
,
0220
0000
0000
0000
,
0330
2002
0000
0000
0000
0000
0000
0000
0000
0000
0000
0000
0000
0000
0000
0000
0000
0000
0000
0000
0000
0000
0000
0000
0000
0000
0000
0000
0000
0000
0000
0000
0000
0000
0000
0000
0000
0000
0000
0000
0000
0000
0000
0000
0000
0000
0000
0000
0000
0000
0000
0000
0000
0000
0000
0000
0000
0000
0000
0000
0000
0000
0000
0000
,
0000
3003
0000
1110
,
0111
0000
0000
0000
,
1111
1000
0100
0010
0001
1000
0100
0010
0001
1000
0100
0010
0001
1000
0100
0010
,
0001
0000
0000
0000
,
0000
0000
0000
1100
,
1010
0000
1001
0000
,
1001
0100
0010
0001
1000
0100
0010
0001
0100
2010
0001
0010
,
3100
0010
1000
0001
0100
1000
0010
0001
,
0100
1000
0100
1000
0010
0001
0100
1000
,
0010
0100
0001
1000
0001
1000
0010
0100
,
1000
0001
1000
0010
0001
0100
1100
0011
,
0101
0001
1000
0001
0100
0001
0010
0100
,
1000
0001
0001
1000
0010
0001
0100
1000
,
1000
0100
0100
0010
0010
0001
0001
0001
,
0010
0100
1000
1000
0100
0010
1001
0110
,
1001
0100
0001
1000
0010
0001
1000
0001
,
1000
0100
0010
1000
0100
0010
0001
0100
,
1001
0110
1001
0110
1001
0110
1001
0110
,
1001
0110
1001
0110
2001
0010
3100
0110
,
1001
0010
0110
0010
1010
0010
0101
0010
,
1100
0010
0011
0010
1010
0010
0101
1001
,
0010
0100
1000
0100
0010
0001
0010
0100
,
1000
0100
0001
0010
1000
0001
2010
0000
0000
3200
0000
0000
,
0311
0110
1100
0101
,
0011
1010
0110
1001
,
0110
0101
1010
0110
,
0101
0022
0000
0000
,
2033
3200
0300
0000
1010
0000
0011
0000
,
0110
1100
0011
0110
,
1100
1001
0101
1010
,
0110
0220
0000
0000
,
1330
0000
0000
0000
0000
0000
0110
0000
0000
0110
0000
0000
1001
0000
0000
0101
0000
0000
1000
0000
0100
0000
0010
0000
,
0001
0000
0000
0110
0000
0000
1010
0000
0000
0101
0000
0000
1010
0000
0000
0101
0000
0000
0001
0000
0010
0000
0100
0000
,
1000
0000
0000
0100
0000
0000
0010
0000
0000
0001
0000
0000
0010
0000
0000
1000
0000
0000
0011
0000
0110
0000
1100
0000
,
0011
0000
0000
0110
0000
0000
0011
0000
0000
1010
0000
0000
0101
0000
0000
1010
0000
0000
0001
0000
0010
0000
0100
0000
,
1000
0000
0000
0100
0000
0000
0010
0000
0001
0000
0010
0000
0100
0000
1000
0000
0100
0000
1000
0000
0100
0000
0010
0000
,
0001
0010
1000
0100
0010
0001
0100
1000
0010
0001
0100
1000
,
0010
1000
0010
0001
0100
1000
0010
0001
0001
0100
1000
0010
,
0100
0010
0001
1000
0010
0001
0100
1000
0010
0001
0100
1000
0010
0001
0100
1000
,
0020
0000
0000
2030
,
0000
3000
0000
0000
;
