#TITLE:Pedal To the Metal;
#SUBTITLE:;
#ARTIST:Bonehead & Prince ov Darkness;
#TITLETRANSLIT:;
#SUBTITLETRANSLIT:;
#ARTISTTRANSLIT:;
#CREDIT:The Cosmic Pope;
#BANNER:Bn-Pedal.png;
#BACKGROUND:Bg-Pedal.png;
#LYRICSPATH:;
#CDTITLE:;
#MUSIC:Pedal To The Metal.ogg;
#OFFSET:0.010;
#SAMPLESTART:99.921;
#SAMPLELENGTH:12.000;
#SELECTABLE:YES;
#BPMS:0.000=240.000;
#STOPS:;
#BGCHANGES:;
// cache tags:
#FIRSTBEAT:8.000;
#LASTBEAT:810.000;
#SONGFILENAME:Songs/SPEEEDCOOOORE 3/Pedal To the Metal - [Pope]/Pedal To The Metal.sm;
#HASMUSIC:1;
#HASBANNER:1;
#MUSICLENGTH:204.000;
// end cache tags

//---------------dance-single - B. Abear----------------
#NOTES:
     dance-single:
     B. Abear:
     Challenge:
     18:
     1.000,1.000,0.289,0.304,1.000,1763.000,59.000,62.000,31.000,0.000:
0000
0000
0000
0000
,
0000
0000
0000
0000
,
2001
0000
3001
1000
0200
0000
1300
0001
,
0200
0000
0301
1000
0200
0000
1300
0001
,
0200
0000
0310
1000
0000
1000
0000
1000
,
1000
0000
1000
0000
0000
0000
0010
1000
,
2001
0000
3001
0100
0020
0000
1030
0100
,
1100
0000
0000
1001
0000
0000
0101
0000
,
2001
0000
3001
0100
0000
0100
0000
0100
,
0100
0000
0000
0000
0100
00M0
0000
00M0
0000
00M0
0000
00M0
0000
00M0
0000
00M0
,
0102
0000
0000
0003
1000
0000
0000
0000
,
2010
0000
0000
3000
0001
0000
0001
0000
,
0012
0000
0000
0003
1000
0000
0000
0000
,
0010
0000
0010
0000
0010
0000
0100
0001
,
0102
0000
0000
0003
1000
0000
0000
0000
,
2200
3300
0000
0000
0000
0000
2002
3003
0000
0000
0000
0000
0202
0303
0000
0000
,
2001
0000
0000
3000
0001
0000
0000
0000
,
2200
3300
0000
0000
0000
0000
0220
0330
0000
0000
0000
0000
0010
0000
0001
0000
,
2002
0000
3003
0000
,
0000
0000
0000
0000
,
0000
0000
0000
0000
,
0000
0000
0000
0000
,
0000
0000
0000
0M00
0000
0M00
0000
0M00
0000
0M00
0000
0M00
0000
0M00
0000
0M00
,
1000
0000
0001
0000
0010
0000
0100
0000
1000
0001
0100
0000
0010
1000
0001
0000
,
0100
0001
0100
0000
0010
0000
1000
0001
1000
0000
0100
0000
0040
0000
0130
0000
,
1000
0000
0001
0000
0100
0000
0010
0000
1000
0001
0010
0000
0100
1000
0001
0000
,
1000
0100
1000
0000
0001
0000
0010
0100
0010
0000
0100
0000
4000
0000
3001
0000
,
0100
0000
0010
0000
0100
0000
0001
0000
1000
0100
0010
0000
0001
1000
0100
0000
,
1000
0001
1000
0000
0010
0000
0100
0001
0100
0000
0010
0000
4000
0000
3001
0000
,
0010
0000
0100
0000
0010
0000
0001
0000
1000
0010
0100
0000
0001
1000
0010
0000
,
1M0M
0000
0000
0000
,
0001
0000
1000
0000
0100
0000
0010
0000
0001
1000
0010
0000
0100
0001
1000
0000
,
0010
1000
0010
0000
0100
0000
0001
1000
0001
0000
0010
0000
0400
0000
0310
0000
,
0001
0000
1000
0000
0010
0000
0100
0000
0001
1000
0100
0000
0010
0001
1000
0000
,
0001
0010
0001
0000
1000
0000
0100
0010
0100
0000
0010
0000
0004
0000
1003
0000
,
0010
0000
0100
0000
0010
0000
1000
0000
0001
0010
0100
0000
1000
0001
0010
0000
,
0001
1000
0001
0000
0100
0000
0010
1000
0010
0000
0100
0000
0004
0000
1003
0000
,
0100
0000
0010
0000
0100
0000
1000
0000
0001
0100
0010
0000
1000
0001
0100
0000
,
0001
0100
0001
0000
1000
0000
0001
1000
0001
0000
1000
0100
1000
0001
0100
0010
,
1000
0000
0001
0000
0010
0000
0100
0000
1000
0001
0100
0000
0010
1000
0001
0000
,
0100
0001
0100
0000
0010
0000
1000
0001
1000
0000
0100
0000
0040
0000
0130
0000
,
1000
0000
0001
0000
0100
0000
0010
0000
1000
0001
0010
0000
0100
1000
0001
0000
,
1000
0100
1000
0000
0001
0000
0010
0100
0010
0000
0100
0000
4000
0000
3001
0000
,
0100
0000
0010
0000
0100
0000
0001
0000
1000
0100
0010
0000
0001
1000
0100
0000
,
1000
0001
1000
0000
0010
0000
0100
0001
0100
0000
0010
0000
4000
0000
3001
0000
,
0010
0000
0100
0000
0010
0000
0001
0000
1000
0010
0100
0000
0001
1000
0010
0000
,
1000
0010
1000
0000
0001
0000
1000
0100
1000
0000
0001
0010
0100
1000
0001
0100
,
0001
0000
0000
0000
,
0000
0000
0000
0000
,
0000
0000
0000
0000
,
0202
0303
0000
0000
0000
0000
0000
0000
0220
0330
0000
0000
0010
0000
1000
0000
,
2002
3003
0000
0000
0000
0000
0000
0000
,
0000
0000
0000
0000
,
0000
0000
0000
0000
,
2100
0000
0000
0000
3100
0010
0001
1000
,
1001
0001
0100
0010
,
1000
0000
0001
0000
0010
0100
1000
0001
,
0100
0010
0100
0001
,
1000
0100
0010
0001
1000
0010
0110
0100
,
0101
0000
0000
0000
,
0000
0000
0000
0000
,
0000
0000
0000
0000
,
0000
00M0
0000
00M0
0000
00M0
0000
00M0
0000
00M0
0000
00M0
0000
00M0
0000
00M0
,
0102
0000
0000
0000
0000
0000
0000
0003
1000
0000
0000
0000
0001
0000
0000
0000
1200
0000
0000
0000
0000
0000
0000
0000
0000
0000
0000
0000
0000
0000
0000
0000
,
1300
0010
0100
0001
1000
0010
0100
0001
1000
0001
0010
0001
1000
0100
0010
0001
,
0010
0100
1000
0001
1000
0001
0100
0010
1000
0001
1000
0001
0100
0001
0010
0100
,
1000
0001
0100
0010
0100
0001
1000
0001
0010
0100
1000
0001
1000
0010
0100
0001
,
1000
0100
1000
0000
0001
0000
0100
0001
0100
0000
0010
0000
4000
0000
3001
0000
,
1000
0100
0010
0001
1000
0100
0010
0001
1000
0010
1000
0001
0100
0010
1000
0001
,
1000
0010
0100
0001
0100
0010
1000
0001
1000
0001
0010
0100
1000
0001
1000
0001
,
0010
0001
0100
0010
1000
0001
0100
0010
1000
0010
0100
0001
1000
0001
0100
0010
,
1000
0001
1000
0000
0010
0000
1000
0100
1000
0000
0100
0010
0001
1000
0010
1000
,
0001
0100
0010
1000
0001
0100
0010
1000
0001
0010
0001
1000
0100
0010
0001
1000
,
0100
0010
0001
1000
0001
1000
0010
0100
0001
1000
0001
1000
0100
1000
0010
0100
,
0001
1000
0001
0010
0001
1000
0100
0010
0001
1000
0100
0010
0001
1000
0010
1000
,
0001
0010
0001
0000
1000
0000
0010
1000
0010
0000
0100
0000
0004
0000
1003
0000
,
0001
0010
0100
1000
0001
0010
0100
1000
0001
0100
0001
1000
0001
0100
0010
1000
,
0010
0100
0001
1000
0001
1000
0100
0010
0001
1000
0001
1000
0010
1000
0100
0010
,
0001
1000
0010
0100
0010
1000
0010
0100
0001
0100
0010
1000
0001
1000
0010
0100
,
0001
1000
0001
0000
0100
0000
0001
0010
0001
0000
0010
0100
1000
0001
0100
0001
,
1000
0100
0010
0001
1000
0100
0010
0001
1000
0010
1000
0001
0100
0010
1000
0001
,
0010
0100
1000
0001
1000
0001
0100
0010
1000
0001
1000
0001
0100
0001
0010
0100
,
1000
0010
0100
0001
1000
0010
0100
0001
1000
0100
1000
0001
1000
0100
0010
0001
,
0100
0010
1000
0001
1000
0001
0010
0100
1000
0001
1000
0001
0100
0001
0010
0100
,
1000
0100
0010
0001
1000
0100
0010
0001
1000
0010
1000
0001
1000
0010
0100
0001
,
0100
0010
1000
0001
1000
0001
0010
0100
1000
0001
1000
0001
0100
0001
0010
0100
,
1000
0010
0100
0001
1000
0010
0100
0001
1000
0010
1000
0001
0100
0010
1000
0001
,
0010
0100
1000
0001
1000
0001
0100
0010
1000
0001
1000
0001
0010
0001
0100
0010
,
0200
0300
0000
0000
0000
0000
0000
0000
0000
0000
0000
0000
0000
0000
0000
0000
,
0002
0003
0000
0000
0000
0000
0000
0000
0000
0000
0000
0000
0000
0000
0000
0000
,
2000
3000
0000
0000
0000
0000
0000
0000
0000
0000
0000
0000
0000
0000
0000
0000
,
2200
3300
0000
0000
0000
0000
0000
0000
0000
0000
0000
0000
0000
0000
0000
0000
,
2002
3003
0000
0000
0000
0000
0000
0000
,
0000
0000
0000
0000
,
0001
0000
0000
0000
,
0000
00M0
0000
00M0
0000
00M0
0000
00M0
0000
00M0
0000
00M0
0000
00M0
0000
00M0
,
0101
0000
0000
0000
,
0000
0000
0000
0000
,
1001
0000
0000
0000
,
0000
0000
0000
0000
,
1100
0100
0010
0001
,
1000
0000
0001
0000
0100
0010
1000
0001
,
1001
1000
0100
0010
,
0001
0000
0010
0000
0100
0000
1000
0000
0001
0100
0010
1000
0004
0000
0000
0000
,
1003
0000
0010
0000
0100
0000
0001
0000
1000
0001
0100
0000
0010
1000
0001
0000
,
0100
0001
0100
0000
0010
0000
1000
0001
1000
0000
0100
0000
0040
0000
0130
0000
,
1000
0000
0001
0000
0100
0000
0010
0000
1000
0001
0010
0000
0100
1000
0001
0000
,
1000
0100
1000
0000
0001
0000
0010
0100
0010
0000
0100
0000
4000
0000
3001
0000
,
0100
0000
0010
0000
0100
0000
0001
0000
1000
0100
0010
0000
0001
1000
0100
0000
,
1000
0001
1000
0000
0010
0000
0100
0001
0100
0000
0010
0000
4000
0000
3001
0000
,
0010
0000
0100
0000
0010
0000
0001
0000
1000
0010
0100
0000
0001
1000
0010
0000
,
1000
0001
1000
0000
0100
0000
1000
0010
0100
0000
0000
0000
0000
0000
0000
0000
,
0001
0000
1000
0000
0100
0000
0010
0000
0001
1000
0010
0000
0100
0001
1000
0000
,
0010
1000
0010
0000
0100
0000
0001
1000
0001
0000
0010
0000
0400
0000
0310
0000
,
0001
0000
1000
0000
0010
0000
0100
0000
0001
1000
0100
0000
0010
0001
1000
0000
,
0001
0010
0001
0000
1000
0000
0100
0010
0100
0000
0010
0000
0004
0000
1003
0000
,
0010
0000
0100
0000
0010
0000
1000
0000
0001
0010
0100
0000
1000
0001
0010
0000
,
0001
1000
0001
0000
0100
0000
0010
1000
0010
0000
0100
0000
0004
0000
1003
0000
,
0100
0000
0010
0000
0100
0000
1000
0000
0001
0100
0010
0000
1000
0001
0100
0000
,
0001
0100
0001
0000
1000
0000
0001
1000
0001
0000
1000
0100
1000
0001
0100
0010
,
1000
0000
0001
0000
0010
0000
0100
0000
1000
0001
0100
0000
0010
1000
0001
0000
,
0100
0001
0100
0000
0010
0000
1000
0001
1000
0000
0100
0000
0040
0000
0130
0000
,
1000
0000
0001
0000
0100
0000
0010
0000
1000
0001
0010
0000
0100
1000
0001
0000
,
1000
0100
1000
0000
0001
0000
0010
0100
0010
0000
0100
0000
4000
0000
3001
0000
,
0100
0000
0010
0000
0100
0000
0001
0000
1000
0100
0010
0000
0001
1000
0100
0000
,
1000
0001
1000
0000
0010
0000
0100
0001
0100
0000
0010
0000
4000
0000
3001
0000
,
0020
0030
0200
0300
2000
3000
0002
0003
,
0200
0000
0000
0000
0300
0000
0000
0000
0020
0000
0000
0000
0030
0000
0000
0000
2000
0000
0000
0000
0000
0000
0000
0000
0000
0000
0000
0000
0000
0000
0000
3000
,
2002
0000
0000
3003
0000
0000
0000
0000
,
0000
0000
0000
0000
,
0000
0000
0000
0000
,
0000
0000
0000
0000
,
0000
0000
0000
0000
,
0000
0000
0000
0000
,
0000
0000
0000
0000
,
1000
0001
0100
0000
0010
1000
0001
0000
,
1002
0000
0000
1003
0010
0100
0010
1000
,
0100
0010
0001
1000
0100
1000
0001
0100
,
0020
0000
0000
0000
0000
0030
0010
0000
0100
0000
0001
0000
1000
0000
0001
0000
,
0020
0000
0000
0000
0000
0030
0010
0000
0001
0000
1000
0000
0100
0000
1000
0000
,
0020
0000
0000
0000
0000
0030
0010
0000
0100
0000
0001
0000
1000
0000
0100
0000
,
1000
0001
0010
0100
1000
0001
0100
0010
,
0200
0000
0000
0000
0000
0300
0100
0000
0001
0000
1000
0000
0001
0000
0010
0000
,
0200
0000
0000
0000
0000
0300
0100
0000
0010
0000
0001
0000
1000
0000
0001
0000
,
0200
0000
0000
0000
0000
0300
0100
0000
0010
0000
1000
0000
0001
0000
1000
0000
,
0100
0010
0001
1000
0100
1000
0001
0100
,
0020
0000
0000
0000
0000
0030
0010
0000
0100
0000
0001
0000
1000
0000
0001
0000
,
0020
0000
0000
0000
0000
0030
0010
0000
0001
0000
1000
0000
0001
0000
0100
0000
,
0020
0000
0000
0000
0000
0030
0010
0000
0100
0000
0001
0000
1000
0000
0001
0000
,
0010
0100
1000
0001
0100
0010
0100
0001
,
0020
0000
0000
0000
0000
0030
0010
0000
0001
0000
1000
0000
0100
0000
0010
0000
,
0001
0001
0000
1000
0010
0000
0100
0001
,
1000
0100
0010
0001
1000
0010
1000
0001
0100
0010
1000
0010
0100
0001
1000
0010
,
1000
0001
0100
0010
0100
0010
1000
0001
0100
0010
0100
0010
1000
0100
0010
0001
,
1000
0010
0100
0001
1000
0100
1000
0001
0010
0100
1000
0001
0010
0001
1000
0010
,
0100
0000
0004
0000
0000
0003
1000
0010
0100
0001
0100
0001
1000
0100
0010
0001
,
1000
0010
0100
0010
1000
0001
0100
0010
1000
0001
1000
0100
1000
0001
0010
0100
,
1000
0100
0010
0001
0010
0001
1000
0100
0010
0001
0010
0001
1000
0010
0100
0001
,
1000
0100
0010
0001
1000
0001
0010
0100
1000
0001
0100
0001
1000
0010
0100
0001
,
1000
0100
1000
0000
0001
0000
0100
0010
0100
0000
0001
1000
0100
0010
0001
1000
,
0001
0010
0100
1000
0001
0100
0001
1000
0010
0100
0001
0100
0010
1000
0001
0100
,
0001
1000
0010
0100
0010
0100
0001
1000
0010
0100
0010
0100
0001
0010
0100
1000
,
0001
0100
0010
1000
0001
0010
0001
1000
0100
0010
0001
1000
0100
1000
0001
0100
,
0010
0000
4000
0000
0000
3000
0001
0100
0010
1000
0010
1000
0001
0010
0100
1000
,
0001
0100
0010
0100
0001
1000
0010
0100
0001
1000
0001
0010
0001
1000
0100
0010
,
0001
0010
0100
1000
0100
1000
0001
0010
0100
1000
0100
1000
0001
0100
0010
1000
,
0001
0010
0100
1000
0001
1000
0100
0010
0001
1000
0010
1000
0001
0100
0010
1000
,
0001
0010
0001
0000
1000
0000
0010
0100
0010
0000
1000
0001
0010
0100
1000
0001
,
1000
0010
0100
0010
1000
0001
0100
0010
1000
0010
0100
0001
1000
0001
1000
0010
,
0100
0001
1000
0001
0100
0010
1000
0001
0100
0010
0100
0001
1000
0001
1000
0010
,
1000
0001
0010
0100
1000
0001
0010
0001
1000
0100
1000
0001
0010
0100
1000
0001
,
0100
0010
0100
0000
0001
0000
1000
0100
1000
0000
0100
0000
0040
0000
0130
0000
,
1000
0100
0010
0001
1000
0001
0010
0001
1000
0100
0010
0100
1000
0001
0010
0001
,
1000
0001
1000
0001
1000
0100
0010
0001
1000
0001
0010
0100
1000
0100
1000
0001
,
1000
0010
0100
0001
0100
0010
0100
0001
1000
0010
1000
0001
1000
0001
0100
0001
,
1000
0100
1000
0000
0100
0000
0010
0001
0010
0000
0001
1000
0100
1000
0001
1000
,
0001
0100
0010
0100
0001
1000
0010
0100
0001
0100
0010
1000
0001
1000
0001
0100
,
0010
1000
0001
1000
0010
0100
0001
1000
0010
0100
0010
1000
0001
1000
0001
0100
,
0001
1000
0100
0010
0001
1000
0100
1000
0001
0010
0001
1000
0100
0010
0001
1000
,
0010
0100
0010
0000
1000
0000
0001
0010
0001
0000
0010
0000
0400
0000
0310
0000
,
0001
0010
0100
1000
0001
1000
0100
1000
0001
0010
0100
0010
0001
1000
0100
1000
,
0001
1000
0001
1000
0001
0010
0100
1000
0001
1000
0100
0010
0001
0010
0001
1000
,
0001
0100
0010
1000
0010
0100
0010
1000
0001
0100
0001
1000
0001
1000
0010
1000
,
0001
0010
0001
0000
0010
0000
0100
1000
0100
0000
1000
0001
0010
0001
1000
0001
,
1000
0010
0100
0001
1000
0010
0100
0001
1000
0001
0010
0001
1000
0100
0010
0001
,
0010
0100
1000
0001
1000
0001
0100
0010
1000
0001
1000
0001
0100
0001
0010
0100
,
1000
0001
0100
0010
0100
0001
1000
0001
0010
0100
1000
0001
1000
0010
0100
0001
,
1000
0100
1000
0000
0001
0000
0100
0001
0100
0000
0010
0000
4000
0000
3001
0000
,
1000
0100
0010
0001
1000
0100
0010
0001
1000
0010
1000
0001
0100
0010
1000
0001
,
1000
0010
0100
0001
0100
0010
1000
0001
1000
0001
0010
0100
1000
0001
1000
0001
,
0010
0001
0100
0010
1000
0001
0100
0010
1000
0010
0100
0001
1000
0001
0100
0010
,
1000
0001
1000
0000
0010
0000
1000
0100
1000
0000
0100
0010
0001
1000
0010
1000
,
0001
0100
0010
1000
0001
0100
0010
1000
0001
0010
0001
1000
0100
0010
0001
1000
,
0100
0010
0001
1000
0001
1000
0010
0100
0001
1000
0001
1000
0100
1000
0010
0100
,
0001
1000
0001
0010
0001
1000
0100
0010
0001
1000
0100
0010
0001
1000
0010
1000
,
0001
0010
0001
0000
1000
0000
0010
1000
0010
0000
0100
0000
0004
0000
1003
0000
,
0001
0100
0010
1000
0001
0100
0010
1000
0001
0010
0001
1000
0100
0010
0001
1000
,
0100
0010
0001
1000
0001
1000
0010
0100
0001
1000
0001
1000
0100
1000
0010
0100
,
0001
1000
0001
0010
0001
1000
0100
0010
0001
1000
0100
0010
0001
1000
0010
1000
,
0001
0100
0001
0000
1000
0000
0100
1000
0100
0000
1000
0100
0010
0001
0100
0010
,
0200
0000
0000
0000
,
0000
0000
0000
0000
,
0000
0000
0300
0000
;
