#TITLE:What's Your Name?;
#SUBTITLE:(Team Rocket's Hardcore Style);
#ARTIST:HAL Laboratory;
#TITLETRANSLIT:;
#SUBTITLETRANSLIT:;
#ARTISTTRANSLIT:;
#CREDIT:;
#BANNER:What's Your Name (Team Rocket's Hardcore Style).png;
#BACKGROUND:What's Your Name (Team Rocket's Hardcore Style)-bg.png;
#LYRICSPATH:;
#CDTITLE:Dj DMA Original Simfile.png;
#MUSIC:What's Your Name (Team Rocket's Hardcore Style).mp3;
#OFFSET:0.140;
#SAMPLESTART:28.653;
#SAMPLELENGTH:12.000;
#SELECTABLE:YES;
#BPMS:0.000=159.780;
#STOPS:;
#BGCHANGES:;
// cache tags:
#FIRSTBEAT:17.000;
#LASTBEAT:657.000;
#SONGFILENAME:Songs/toune 2/What's Your Name (Team Rocket's Hardcore Style)/What's Your Name (Team Rocket's Hardcore Style).sm;
#HASMUSIC:1;
#HASBANNER:1;
#MUSICLENGTH:252.089;
// end cache tags

//---------------dance-single - ----------------
#NOTES:
     dance-single:
     :
     Hard:
     8:
     0.531,0.586,0.254,0.000,0.065,873.000,64.000,0.000,0.000,0.000:
0000
0000
0000
0000
,
0000
0000
0000
0000
,
0000
0000
0000
0000
,
0000
0000
0000
0000
,
0000
0010
0010
0010
,
0010
0010
0010
0010
,
1000
0001
1000
0000
0010
0000
0010
0000
,
0010
0010
0100
0100
,
0001
0100
1000
0000
0100
0000
0100
0000
,
0010
0010
0001
0010
,
1000
0010
1000
0000
0010
0000
0100
0000
,
0010
0001
0001
0100
,
1000
0000
1000
0010
1000
0000
0100
0010
,
0000
0000
0100
0001
0100
0000
1000
0100
,
0000
0000
1000
0010
1000
0000
0100
0010
,
0000
0000
0010
0001
0010
0000
0001
0100
,
0000
0000
1000
0100
0001
0000
0100
0010
,
0000
0000
1000
0100
0100
0001
0010
1000
,
0001
0100
1000
0100
0001
0010
0100
1000
,
0100
0001
1000
0100
1000
0001
1000
0001
,
1000
0001
0101
0000
0010
0000
1000
0000
,
0001
1000
0001
1000
,
0010
1000
0010
0000
0100
0000
0001
0000
,
1000
0010
1000
0100
,
0100
0001
0100
0000
1000
0000
0010
0000
,
1000
0010
0100
0010
,
1000
0010
1000
0000
0010
0000
0100
0000
,
0100
0001
1000
0010
,
1000
0001
1000
0000
0100
0000
0001
0000
,
0010
0001
0010
0100
,
0010
0001
0010
0000
0100
0000
0001
0000
,
0100
1000
0010
1000
,
1000
0010
1000
0000
0100
0000
0001
0000
,
0100
1000
0010
0001
,
0001
0001
0001
0000
0010
0000
0100
0000
,
1000
0100
0010
0001
,
0100
0000
0001
0100
1000
0000
1000
0100
,
0000
0000
1000
0010
0100
0000
0100
0010
,
0000
0000
0010
0001
0010
0000
1000
0010
,
0000
0000
1000
0010
0100
0000
0100
0100
,
0000
0000
0001
0010
1000
0000
1000
1000
,
0000
0000
1000
0001
1000
0000
0010
0010
,
0000
0000
0100
0001
0100
0000
1000
1000
,
0000
0000
1000
0010
0100
0000
0010
0010
,
0000
0000
0010
0100
1000
0001
1000
0010
,
1000
0010
0100
0010
0001
0010
0001
0010
,
0000
0000
1000
0001
0010
0001
0100
0010
,
1000
0100
1000
0001
0001
0010
0100
0001
,
0000
0000
0100
0010
1000
0010
0100
0010
,
0001
0010
0001
0100
0001
1000
0010
1000
,
0000
0000
1000
0100
0001
1000
0100
0001
,
1000
0001
0100
0001
0100
1000
0100
0001
,
0100
0000
0000
0100
0000
0000
1000
0000
0000
0000
0000
0000
0000
0000
0000
0000
0000
0000
0100
0000
0000
0000
0100
0000
,
0000
0000
0000
0100
0000
0000
0100
0000
0000
0000
0001
0000
0000
0000
0000
0000
0000
0000
0000
0000
0000
0000
1000
0000
,
0000
0000
1000
0000
0000
0000
0000
0000
0000
0001
0000
0001
,
0000
0000
0000
1000
0000
0000
0010
0000
0000
0000
1000
0000
0000
0000
0000
0000
0000
0000
0000
0000
0000
0000
0100
0000
,
0000
0000
0000
0000
0100
0000
0000
0000
0000
1000
0000
0000
0001
0000
0000
1000
0000
0000
0010
0000
0000
1000
0000
0000
,
0010
1000
0010
0100
0010
0001
0100
0010
,
0001
0010
0001
0100
1000
0100
1000
0100
,
1000
0010
1000
0010
0100
0010
0010
0001
,
0010
0000
0000
0001
0000
0000
0001
0000
0000
0000
0000
0000
0000
0000
0000
0000
0000
0000
1000
0000
0000
0000
0001
0000
,
0000
0000
0000
1000
0000
0000
0100
0000
0000
0000
0010
0000
0000
0000
0000
0000
0000
0000
0000
0000
0000
0000
0100
0000
,
0000
0000
0001
0000
0000
0000
0000
0000
0000
0100
0000
0010
,
0000
0000
0000
0001
0000
0000
0001
0000
0000
0000
0100
0000
0000
0000
0000
0000
0000
0000
0000
0000
0000
0000
0100
0000
,
0000
0000
0000
0000
0100
0000
0000
0000
0000
1000
0000
0000
0001
0000
0000
1000
0000
0000
0001
0000
0000
1000
0000
0000
,
0010
1000
0010
0100
0010
0100
0001
0100
,
0001
0100
1000
0100
0001
0100
1000
0100
,
0001
0100
1000
0010
1000
0010
0100
0010
,
0100
0000
0000
0010
0000
0000
0100
0000
0000
0000
0000
0000
0000
0000
0000
0000
0000
0000
1000
0000
0000
0000
1000
0000
,
0000
0000
0000
1000
0000
0000
1000
0000
0000
0000
0010
0000
0000
0000
0000
0000
0000
0000
0000
0000
0000
0000
0100
0000
,
0000
0000
0100
0000
0000
0000
0000
0000
0000
0010
0000
0010
,
0000
0000
0000
0100
0000
0000
0001
0000
0000
0000
0100
0000
0000
0000
0000
0000
0000
0000
0000
0000
0000
0000
1000
0000
,
0000
0000
0000
0000
1000
0000
0000
0000
0000
0001
0000
0000
0010
0000
0000
0001
0000
0000
0100
0000
0000
1000
0000
0000
,
1000
0010
1000
0001
0100
1000
0100
0001
,
0100
1000
0100
1000
0010
1000
0010
0100
,
0010
0100
0010
0001
0010
0001
1000
0010
,
1000
0000
0000
0010
0000
0000
1000
0000
0000
0000
0000
0000
0000
0000
0000
0000
0000
0000
0100
0000
0000
0000
0100
0000
,
0000
0000
0000
0100
0000
0000
0100
0000
0000
0000
0001
0000
0000
0000
0000
0000
0000
0000
0000
0000
0000
0000
1000
0000
,
0000
0000
1000
0000
0000
0000
0000
0000
0000
0001
0000
0001
,
0000
0000
0000
1000
0000
0000
0010
0000
0000
0000
1000
0000
0000
0000
0000
0000
0000
0000
0000
0000
0000
0000
0100
0000
,
0000
0000
0000
0000
0100
0000
0000
0000
0000
0100
0000
0000
0010
0000
0000
1000
0000
0000
0010
0000
0000
1000
0000
0000
,
0010
0100
0010
0100
0001
0100
1000
0100
,
1000
0100
1000
0010
1000
0001
1000
0001
,
1000
0010
0100
0001
0100
0010
1000
0010
,
0100
0010
0100
0000
0001
0000
1000
0000
,
0001
1000
1000
1000
,
0001
1010
0001
0100
,
1000
0010
0100
0010
,
0001
0011
0010
0100
,
1000
0100
0001
1000
,
0010
1000
0010
0100
,
0010
0000
0000
0000
0000
0100
0000
0000
0000
0000
0000
0000
0000
0000
0000
0000
,
0000
0101
0100
1000
,
0010
1000
0001
1000
,
0001
0010
1000
0010
,
0010
1000
0010
0001
,
0010
0011
0001
0100
,
1000
0010
1000
0010
,
0100
0110
0010
0001
,
0100
1100
1000
0001
,
0100
0000
0010
0001
0001
0100
0000
1000
,
0001
0000
0000
1000
0010
0100
0000
1000
,
0010
0000
0000
0100
0100
0010
0000
0010
,
0001
0000
0000
1000
0001
0100
0000
0100
,
0001
0000
0000
0010
0100
0010
0000
0010
,
0001
0000
0000
0001
0010
1000
0000
1000
,
0010
0000
0000
0100
0100
0001
0000
1000
,
0001
0000
0000
1000
0010
1000
0000
0010
,
0010
0000
0000
0100
0001
1000
0001
1000
,
0010
1000
0010
1000
0010
0001
0010
0100
,
0001
0010
0100
1000
1000
0100
1000
0010
,
0010
1000
0010
1000
0010
0100
0010
0100
,
0001
0100
1000
0100
1000
0100
1000
0001
,
1000
0001
1000
0001
1000
0010
1000
0010
,
0100
0010
0100
0010
0100
0010
0001
0100
,
1000
0100
0001
1000
1000
0010
0010
1000
,
0010
1000
0010
1001
0000
0010
0000
0001
,
0000
1000
0000
0010
0000
0100
0000
0010
,
0000
0100
0000
0101
0000
0010
0000
1000
,
0000
0010
0000
1010
0000
0100
0000
0010
,
0000
0001
0010
0011
0000
0100
0000
1000
,
0000
0100
0000
1100
0000
0010
0000
1000
,
0000
0010
0100
0110
0000
0010
0000
0001
,
0000
0010
0000
1001
0000
0100
0000
1000
,
0000
0001
0000
1000
0001
1000
0001
1000
,
0010
1000
0010
0100
0010
0100
0010
0001
,
0010
0001
0100
1000
0100
0001
0100
1000
,
0100
0010
0001
1000
0010
1000
0010
0100
,
0010
0100
0010
0001
0010
0001
0100
0001
,
0100
1000
0100
1000
0100
1000
0001
1000
,
0001
1000
0001
1000
0010
1000
0010
0100
,
0010
0100
0010
0001
0010
0001
0100
1000
,
0010
1000
0010
1000
0010
0100
0010
0100
,
0010
0001
1000
0010
0001
0010
0001
0100
,
1000
0100
0001
0010
1000
0100
0100
0001
,
0100
1000
0010
1000
0010
0100
0010
0100
,
0010
1000
0010
0010
0100
0010
0010
0001
,
0100
1000
0100
1000
0100
1000
0001
1000
,
0001
1000
0001
0100
0001
0100
0001
0010
,
0001
0010
1000
0010
1000
0001
0100
1000
,
0100
0100
0101
1100
,
0010
1000
0010
0000
1000
0010
1000
0000
,
1000
0010
0000
0000
0100
0001
0100
0000
,
1000
1000
0000
0000
1000
0010
1000
0000
,
0010
0010
0000
0000
0100
0001
0100
0000
,
1000
1000
0000
0000
1000
0010
0100
0000
,
0100
0100
0000
0000
0010
0001
0010
0001
,
0010
0001
0010
1000
0010
1000
0100
1000
,
0100
1000
0100
0000
0100
0000
1100
0000
,
0100
0101
1000
0101
,
0010
1100
0010
1001
,
1000
0011
0100
0011
,
0100
1100
0010
0101
,
0010
1010
0100
1100
,
0010
0110
0100
0101
,
1000
1100
0010
0011
,
0100
0101
1100
1010
,
1100
0101
0110
1010
,
0101
1010
0101
1100
,
1010
0101
0110
1010
,
0101
0110
0101
0011
,
0101
1100
0101
0101
,
1010
1100
0011
0110
,
0101
1001
1100
0101
,
1100
1010
0000
0000
;

//---------------dance-single - ----------------
#NOTES:
     dance-single:
     :
     Medium:
     7:
     0.484,0.554,0.182,0.040,0.014,798.000,46.000,10.000,0.000,0.000:
0000
0000
0000
0000
,
0000
0000
0000
0000
,
0000
0000
0000
0000
,
0000
0000
0000
0000
,
0000
0000
0000
0000
,
0000
0000
0000
0000
,
0000
0000
0000
0000
,
0000
0000
0000
0000
,
0000
1000
0100
0100
,
0010
0010
0001
0010
,
1000
0010
1000
0000
0010
0000
0100
0000
,
0010
0001
0001
0100
,
1000
0000
1000
0010
1000
0000
0100
0010
,
0000
0000
0100
0001
0100
0000
1000
0100
,
0000
0000
1000
0010
1000
0000
0100
0010
,
0000
0000
0010
0001
0010
0000
0001
0100
,
0000
0000
1000
0100
0001
0000
0100
0010
,
0000
0000
1000
0100
0100
0001
0010
1000
,
0202
0000
0000
0000
,
0000
0000
0000
0000
,
0000
0303
0010
1000
,
0001
1000
0001
1000
,
0010
1000
0010
0000
0100
0000
0001
0000
,
1000
0010
1000
0100
,
0100
0001
0100
0000
1000
0000
0010
0000
,
1000
0010
0100
0010
,
1000
0010
1000
0000
0010
0000
0100
0000
,
0100
0001
1000
0010
,
1000
0001
1000
0000
0100
0000
0001
0000
,
0010
0001
0010
0100
,
0010
0001
0010
0000
0100
0000
0001
0000
,
0100
1000
0010
1000
,
1000
0010
1000
0000
0100
0000
0001
0000
,
0100
1000
0010
0001
,
0001
0001
0001
0000
0010
0000
0100
0000
,
1000
0100
0010
0001
,
0100
0000
0001
0100
1000
0000
1000
0100
,
0000
0000
1000
0010
0100
0000
0100
0010
,
0000
0000
0010
0001
0010
0000
1000
0010
,
0000
0000
1000
0010
0100
0000
0100
0100
,
0000
0000
0001
0010
1000
0000
1000
1000
,
0000
0000
1000
0001
1000
0000
0010
0010
,
0000
0000
0100
0001
0100
0000
1000
1000
,
0000
0000
1000
0010
0100
0000
0010
0010
,
0000
0000
0010
0100
1000
0001
1000
0010
,
1000
0010
0100
0010
0001
0010
0001
0010
,
0000
0000
0010
0001
0010
0001
0100
0010
,
1000
0100
1000
0001
0001
0010
0100
0001
,
0000
0000
0100
0010
1000
0010
0100
0010
,
0001
0010
0001
0100
0001
1000
0010
1000
,
0000
0000
1000
0100
0001
1000
0100
0001
,
1000
0001
0100
0001
0100
1000
0100
0001
,
0100
0100
1000
0000
0000
0000
2000
0000
,
0000
0000
0000
0000
0000
3000
0000
0000
,
0001
0002
0000
0000
,
0000
0000
0003
0000
,
0000
0000
0000
1000
0001
1000
0010
1000
,
0010
1000
0010
0100
0010
0001
0100
0010
,
0001
0010
0001
0100
1000
0100
1000
0100
,
1000
0010
1000
0010
0100
0010
0010
0001
,
0010
0001
0010
0000
0000
0000
2000
0000
,
0000
0000
0000
3000
,
0001
0002
0000
0000
,
0000
0000
0000
0000
0000
0000
0003
0000
0000
0000
0000
1000
,
0000
0000
0000
0000
0001
0000
0000
0000
0000
1000
0000
0000
0001
0000
0000
1000
0000
0000
0001
0000
0000
1000
0000
0000
,
0010
1000
0010
0100
0010
0100
0001
0100
,
0001
0100
1000
0100
0001
0100
1000
0100
,
0001
0100
1000
0010
1000
0010
0100
0010
,
0100
0010
0100
0000
0000
0000
0200
0000
,
0000
0000
0000
0000
0000
0000
0000
0000
0000
0000
0000
0000
0000
0000
0000
0000
0000
0000
0000
0300
0000
0000
0000
0000
,
0001
0200
0000
0000
,
0000
0000
0000
0000
0000
0000
0300
0000
0000
0000
0000
0001
,
0000
0000
0000
0000
1000
0000
0000
0000
0000
0001
0000
0000
0010
0000
0000
0001
0000
0000
0100
0000
0000
1000
0000
0000
,
1000
0010
1000
0001
0100
1000
0100
0001
,
0100
1000
0100
1000
0010
1000
0010
0100
,
0010
0100
0010
0001
0010
0001
1000
0010
,
1000
0010
0100
0000
0000
0000
0002
0000
,
0000
0000
0000
0000
0000
0003
0000
0000
,
0100
0200
0000
0000
,
0000
0000
0000
0000
0000
0000
0300
0000
0000
0000
0000
0100
,
0000
0000
0000
0000
0100
0000
0000
0000
0000
0001
0000
0000
0100
0000
0000
1000
0000
0000
0010
0000
0000
1000
0000
0000
,
0010
0100
0010
0100
0001
0100
1000
0100
,
1000
0100
1000
0010
1000
0001
1000
0001
,
1000
0010
0100
0001
0100
0010
1000
0010
,
0100
0010
0100
0000
1000
0000
0001
0000
,
1000
1000
1000
0001
,
1000
1001
0100
1000
,
0010
0100
0010
0001
,
0010
0011
0100
1000
,
0100
0001
1000
0010
,
1000
0010
0100
0010
,
1000
0000
0000
0000
0000
0010
0000
0000
0000
0000
0000
0000
0000
0000
0000
0000
,
0000
0101
1000
0010
,
1000
0001
1000
0001
,
0010
1000
0010
0010
,
1000
0010
0001
0010
,
0001
0011
0100
1000
,
0010
1000
0010
0100
,
0010
0110
0001
0100
,
1000
1100
0001
0100
,
0010
0000
0010
0001
0001
0000
1000
1000
,
0000
0000
1000
1000
0010
0000
1000
1000
,
0000
0000
0100
0100
0100
0000
0010
0010
,
0000
0000
1000
1000
0001
0000
0100
0100
,
0000
0000
0010
0010
0100
0000
0010
0010
,
0000
0000
0100
0001
0010
0000
1000
1000
,
0000
0000
0100
0100
0100
0000
1000
1000
,
0000
0000
1000
1000
0010
0000
0010
0010
,
0000
0000
0001
0100
0001
1000
0001
1000
,
0010
1000
0010
1000
0010
0001
0010
0100
,
0001
0010
0100
1000
1000
0100
1000
0010
,
0010
1000
0010
1000
0010
0100
0010
0100
,
0001
0100
1000
0100
1000
0100
1000
0001
,
1000
0001
1000
0001
1000
0010
1000
0010
,
0100
0010
0100
0010
0100
0010
0001
0100
,
1000
0100
0001
1000
1000
0010
0010
1000
,
0010
1000
0010
1001
0000
0010
0000
0001
,
0000
1000
0000
0010
0000
0100
0000
0010
,
0000
0100
0000
0101
0000
0010
0000
1000
,
0000
0010
0000
1010
0000
0100
0000
0010
,
0000
0001
0000
0011
0000
0100
0000
1000
,
0000
0100
0000
1100
0000
0010
0000
1000
,
0000
0010
0000
0110
0000
0010
0000
0001
,
0000
0010
0000
1001
0000
0100
0000
1000
,
0000
0001
0000
1000
0001
1000
0001
1000
,
0010
1000
0010
0100
0010
0100
0010
0001
,
0010
0001
0100
1000
0100
0001
0100
1000
,
0100
0010
0001
1000
0010
1000
0010
0100
,
0010
0100
0010
0001
0010
0001
0100
0001
,
0100
1000
0100
1000
0100
1000
0001
1000
,
0001
1000
0001
1000
0010
1000
0010
0100
,
0010
0100
0010
0001
0010
0001
0100
1000
,
0010
1000
0010
1000
0010
0100
0010
0100
,
0010
0001
1000
0010
0001
0010
0001
0100
,
1000
0100
0001
0010
1000
0100
0100
0001
,
0100
1000
0010
1000
0010
0100
0010
0100
,
0010
1000
0010
0010
0100
0010
0010
0001
,
0100
1000
0100
1000
0100
1000
0001
1000
,
0001
1000
0001
0100
0001
0100
0001
0010
,
0001
0010
1000
0010
1000
0001
0100
1000
,
0100
0000
0000
0010
1000
0001
0000
0100
,
0010
0000
0000
0010
1000
0010
0000
0010
,
1000
0000
0000
0010
0100
0001
0000
1000
,
1000
0000
0000
0100
1000
0010
0000
0010
,
0010
0000
0000
0010
1000
0001
0000
1000
,
1000
0000
0000
0100
1000
0010
0000
0100
,
0100
0000
1000
0100
0010
0001
0010
0001
,
0010
0001
0010
1000
0010
1000
0100
1000
,
0100
1000
0100
0000
0100
0000
1100
0000
,
0100
0101
1000
0101
,
0010
1100
0010
1001
,
1000
0011
0100
0011
,
0100
1100
0010
0101
,
0010
1010
0100
1100
,
0010
0110
0100
0101
,
1000
1100
0010
0011
,
0100
0101
1000
1010
,
0100
0101
0100
1010
,
0001
1010
0001
1100
,
0010
0101
0100
1010
,
0001
0110
0001
0011
,
0100
1100
0100
0101
,
0010
1100
0010
0110
,
0100
1001
0100
0101
,
1000
1010
0000
0000
;

//---------------dance-single - ----------------
#NOTES:
     dance-single:
     :
     Easy:
     4:
     0.317,0.326,0.004,0.036,0.002,550.000,1.000,9.000,0.000,0.000:
0000
0000
0000
0000
,
0000
0000
0000
0000
,
0000
0000
0000
0000
,
0000
0000
0000
0000
,
0000
0000
0000
0000
,
0000
0000
0000
0000
,
0000
0000
0000
0000
,
0000
0000
0000
0000
,
0000
1000
0100
1000
,
0001
0010
0100
0010
,
0010
0001
0001
0100
,
0001
0010
1000
0001
,
0100
1000
0001
0100
,
0100
0001
0001
0010
,
1000
0010
0010
1000
,
0100
0001
0001
0001
,
0010
0010
0001
0100
,
1000
0100
0010
0010
,
0200
0000
0000
0000
,
0000
0000
0000
0000
,
0000
0300
0001
0100
,
1000
1000
0010
0010
,
0001
0001
0010
0100
,
0010
1000
0001
0001
,
0100
0100
1000
0001
,
1000
0001
1000
0001
,
1000
0001
1000
0001
,
0100
0001
0100
0100
,
1000
0100
0010
0100
,
0001
0100
0010
0100
,
1000
0100
0010
0100
,
0001
0001
0010
0001
,
0100
1000
0010
0100
,
0001
0001
0010
0001
,
0010
0100
1000
0010
,
0100
0010
0001
1000
,
0001
0100
0010
0001
,
0001
0001
0001
0100
,
1000
1000
0010
1000
,
1000
0010
1000
0100
,
0100
0100
0100
0100
,
0010
1000
0100
0100
,
1000
0100
0001
1000
,
0010
0001
1000
0001
,
1000
1000
0001
0001
,
1000
0100
0100
1000
,
1000
1000
0100
0010
,
1000
0010
0100
1000
,
0001
1000
0010
0001
,
0010
1000
0100
0001
,
0001
0010
0100
0001
,
0010
0100
0100
0001
,
0010
1000
0000
0002
,
0000
0000
0000
0003
,
0001
0200
0000
0000
,
0000
0000
0300
0000
,
0000
0000
0010
0010
,
1000
0001
0010
0100
,
1000
1000
0001
0001
,
0100
0100
1000
0001
,
0100
0010
0000
0002
,
0000
0000
0000
0003
,
0100
0200
0000
0000
,
0000
0000
0300
0000
,
1000
0001
0001
0010
,
1000
0010
0010
0001
,
0001
0010
0001
0001
,
0010
1000
1000
1000
,
0001
0010
0000
0020
,
0000
0000
0000
0030
,
0010
0020
0000
0000
,
0000
0000
0030
0000
,
0010
0100
0100
0100
,
0010
0010
0100
0001
,
1000
0100
0010
0010
,
0010
1000
0001
1000
,
0100
1000
0000
0200
,
0000
0000
0000
0300
,
0100
0020
0000
0000
,
0000
0000
0030
0000
,
1000
0001
0000
0100
,
0100
0001
0100
1000
,
1000
1000
0001
0100
,
0010
1000
0001
1000
,
1000
0100
0100
0000
0001
0000
0010
0000
,
0001
0100
0001
0010
,
1000
0010
1000
0001
,
0010
0001
0100
0001
,
0010
0001
0010
0001
,
0001
0100
0100
0001
,
0010
1000
0001
0100
,
1000
0000
0000
0000
0000
0100
0000
0000
0000
0000
0000
0000
0000
0000
0000
0000
,
0000
0000
0100
0010
,
0010
0010
0100
0001
,
0010
1000
0100
0001
,
1000
0010
0100
0010
,
0100
1000
0100
0100
,
0100
0100
0100
0010
,
0010
0001
0100
0100
,
0001
0100
0001
0001
,
0001
0100
0100
1000
,
0001
0000
0010
0100
,
0001
0000
0001
0100
,
0001
0000
0001
0100
,
0001
0000
0100
0100
,
0100
0000
1000
0010
,
0100
0000
0010
0001
,
0001
0000
0100
0001
,
0010
0000
0001
1000
,
1000
0001
0001
1000
,
0001
0010
0001
1000
,
0100
1000
1000
0010
,
0100
0001
0001
0010
,
1000
1000
0010
1000
,
0010
0100
0001
0010
,
0100
0100
0010
1000
,
0001
0100
0010
0001
,
0001
0001
0001
0010
,
1000
1000
1000
0001
,
0010
0010
0100
1000
,
0100
1100
0000
0001
,
1000
0001
0100
1000
,
0010
0100
0100
0010
,
0010
0001
0010
0010
,
0100
0100
0010
1000
,
0010
1000
0100
0010
,
1000
1000
0010
1000
,
0001
0010
0001
0010
,
0100
0100
0001
0010
,
1000
1000
0001
0010
,
0100
0001
0001
1000
,
0001
1000
0001
0001
,
0100
0100
0001
0001
,
1000
0100
0001
1000
,
0001
0010
0001
0100
,
0001
1000
0010
1000
,
0010
1000
0100
1000
,
0001
0010
1000
0010
,
0010
0010
0010
0100
,
0100
0001
0010
0001
,
0001
0000
0010
0100
,
1000
0000
0001
0010
,
0010
0000
0010
0010
,
0100
0000
1000
1000
,
0010
0000
1000
1000
,
0100
0000
0010
0100
,
0010
0000
1000
0100
,
0100
0001
1000
1000
,
1000
0001
1000
0001
,
0001
0100
0010
1000
,
1000
0100
1000
0010
,
0100
0001
1000
0100
,
1000
0100
0010
0001
,
0001
0001
0001
0100
,
0100
0001
1000
1000
,
0100
1000
1000
0010
,
0001
0010
1000
0100
,
1000
1000
0001
0010
,
0001
1000
0001
1000
,
1000
1000
0010
0100
,
0010
1000
0100
0010
,
1000
0100
0100
1000
,
0001
1000
0010
1000
,
1000
1000
0100
0100
,
0010
0100
0000
0000
;

//---------------dance-single - ----------------
#NOTES:
     dance-single:
     :
     Challenge:
     10:
     0.619,1.000,0.464,0.000,0.256,975.000,117.000,0.000,0.000,0.000:
0000
0000
0000
0000
,
0000
0000
0000
0000
,
0000
0000
0000
0000
,
0000
0000
0000
0000
,
0000
0100
0010
1000
,
0010
1000
0010
1000
,
0100
1000
1000
0000
0010
0000
0010
0000
,
0001
0001
0010
0001
,
0101
0010
0010
0000
1010
0000
0101
0000
,
1100
1001
0101
0011
,
0100
0010
0100
0000
0101
0000
1010
0000
,
1001
0101
1010
0101
,
1001
0000
1000
0100
0001
0000
0010
0001
,
0000
0000
1000
0001
0100
0000
0010
0100
,
0000
0000
0100
1000
0100
0000
0001
0001
,
0000
0000
0001
0001
0001
0000
0100
0001
,
0000
0000
1000
0001
1000
0000
1000
0010
,
0000
0000
0000
0000
0100
0001
0001
0100
0010
0100
0100
0001
0001
0100
1000
0100
,
1000
0010
0010
0001
0001
0001
1000
1000
0100
0010
0100
0010
1000
1000
0010
1000
,
0010
0001
0010
1000
0001
1000
0100
0100
0001
0010
1000
1000
0001
0001
1000
1000
,
0100
1000
0100
0000
0011
0000
0000
0000
0010
0000
0000
0000
0100
0000
0000
0000
,
0001
0100
0001
1000
,
0001
1000
0001
0000
1000
0000
0001
0000
,
0100
0010
0100
0010
,
1000
0001
1000
0000
0100
0000
0001
0000
,
1000
0001
0001
1000
,
0100
0010
0001
0000
1000
0000
1000
0000
,
0001
1000
0100
0010
,
0010
0100
1000
0000
0010
0000
1000
0000
,
0001
1000
0001
1000
,
0001
1000
1000
0000
0010
0000
1000
0000
,
0010
0100
0100
0001
,
0001
0100
0100
0000
0001
0000
0100
0000
,
1000
1000
0001
0001
,
0100
1000
0001
0100
0010
0001
0100
0010
1000
0001
0100
0100
1000
1000
0010
0001
,
0010
0001
0100
0001
0100
1000
0001
0100
0100
1000
0010
0001
1000
0001
0100
1000
,
1000
0000
0001
0001
0001
0000
0010
0001
,
0000
0000
0001
0010
0100
0000
1000
0100
,
0000
0000
1000
0100
1000
0000
0010
0100
,
0000
0000
1000
0100
0010
0000
1000
0001
,
0000
0000
1000
0001
0010
0000
0010
0010
,
0000
0000
0010
0001
0100
0000
0010
0010
,
0000
0000
0010
0010
1000
0000
0001
0100
,
0000
0000
0100
0010
1000
0000
0010
0001
,
0000
0000
0100
0100
0001
0001
1000
0100
,
0100
1000
0001
0010
0001
0100
0010
1000
,
0000
0000
0100
1000
0001
0001
0100
0001
,
0100
0010
0100
0001
0001
0010
0001
0001
,
0000
0000
1000
0010
0100
0010
1000
0010
,
0010
0001
0010
0001
0010
0010
0100
0100
,
0000
0000
0000
0000
0100
1000
0010
0010
0010
0010
0100
1000
0010
1000
0001
0100
,
0001
1000
0010
0001
0010
0100
1000
0010
0100
0001
1000
0001
0100
1000
0001
0100
,
0100
0000
0000
0001
0000
0000
0010
0000
0000
0001
0000
0000
0001
0000
0000
0000
0000
0000
0000
0000
0000
0000
0000
0000
0000
0000
0000
0000
0000
0000
0000
0000
0000
0000
0000
0000
0001
0000
0000
0000
0000
0000
0000
0000
0001
0000
0000
0000
,
0000
0000
0000
0100
0000
0000
0010
0000
0000
0000
1010
0000
0000
0000
0000
0000
0000
0000
0000
0000
0000
0000
0001
0000
,
0000
0000
0110
0000
0000
0000
0000
0000
0000
0110
0000
1000
,
0000
0000
0000
0100
0000
0000
0001
0000
0000
0000
0100
0000
0000
0000
0000
0000
0000
0000
0000
0000
0000
0000
0011
0000
,
0000
0000
0000
0000
0100
0000
0000
0000
0000
0010
0000
0000
1000
0000
0000
0001
0000
0000
0100
0000
0000
0010
0000
0000
,
0010
0010
0010
0010
0001
0010
0001
0001
,
0001
0100
0100
0100
1000
1000
0010
0001
,
0001
0010
0001
0001
0001
0001
0100
1000
,
1000
0000
0000
1000
0000
0000
1000
0000
0000
0000
0000
0000
0000
0000
0000
0000
0000
0000
0110
0000
0000
0000
0001
0000
,
0000
0000
0000
0001
0000
0000
0001
0000
0000
0000
0100
0000
0000
0000
0000
0000
0000
0000
0000
0000
0000
0000
0010
0000
,
0000
0000
0110
0000
0000
0000
0000
0000
0000
1010
0000
0001
,
0000
0000
0000
1000
0000
0000
0100
0000
0000
0000
0010
0000
0000
0000
0000
0000
0000
0000
0000
0000
0000
0000
1100
0000
,
0000
0000
0000
0000
1000
0000
0000
0000
0000
0100
0000
0000
0001
0000
0000
0010
0000
0000
0100
0000
0000
0010
0000
0000
,
0001
0100
0001
0010
0010
1000
0010
0001
,
0001
0010
1000
0001
0100
0100
0010
0100
,
0001
0010
0100
0010
0010
0100
0001
0100
,
0001
0000
0000
0100
0000
0000
0100
0000
0000
0000
0000
0000
0000
0000
0000
0000
0000
0000
1010
0000
0000
0000
0010
0000
,
0000
0000
0000
0100
0000
0000
1000
0000
0000
0000
0100
0000
0000
0000
0000
0000
0000
0000
0000
0000
0000
0000
1000
0000
,
0000
0000
1001
0000
0000
0000
0000
0000
0000
1010
0000
0010
,
0000
0000
0000
0001
0000
0000
0010
0000
0000
0000
0010
0000
0000
0000
0000
0000
0000
0000
0000
0000
0000
0000
0100
0000
,
0000
0000
0000
0000
1100
0000
0000
0000
0000
0001
0000
0000
1000
0000
0000
0010
0000
0000
1000
0000
0000
1000
0000
0000
,
0001
1000
0100
0001
0100
0100
1000
0010
,
1000
0100
0010
0010
0001
0010
1000
0010
,
1000
1000
1000
0010
0001
0001
0001
0001
,
0001
0000
0000
0100
0000
0000
0100
0000
0000
0000
0000
0000
0000
0000
0000
0000
0000
0000
1001
0000
0000
0000
0001
0000
,
0000
0000
0000
0001
0000
0000
0010
0000
0000
0000
0001
0000
0000
0000
0000
0000
0000
0000
0000
0000
0000
0000
0010
0000
,
0000
0000
0011
0000
0000
0000
0000
0000
0000
0101
0000
0100
,
0000
0000
0000
0001
0000
0000
0001
0000
0000
0000
0100
0000
0000
0000
0000
0000
0000
0000
0000
0000
0000
0000
1100
0000
,
0000
0000
0000
0000
1000
0000
0000
0000
0000
0100
0000
0000
0100
0000
0000
0100
0000
0000
0100
0000
0000
1000
0000
0000
,
1000
0001
0001
0001
0010
0010
0010
1000
,
1000
0100
1000
0001
0010
0100
0001
1000
,
0010
0001
0001
0010
0100
0001
0001
1000
,
1000
0100
1000
0000
0110
0000
0001
0000
,
0101
0001
0110
0001
,
1001
1100
0100
1010
,
0011
1000
0011
0100
,
0011
0101
0100
1001
,
0100
0101
0100
1100
,
0100
0011
0010
1100
,
1000
0000
0000
0000
0000
0010
0000
0000
0000
0000
0000
0000
0000
0000
0000
0000
,
0000
1010
0001
0011
,
1000
0101
0100
1010
,
1000
1010
0001
0011
,
0001
0110
0100
0011
,
0010
0110
0001
0011
,
0010
0011
0010
0101
,
0001
0011
0001
0101
,
0100
1100
1000
1010
,
0100
0000
1000
0010
0100
1000
0000
0100
,
0100
0000
0000
0100
0001
1000
0000
1000
,
1000
0000
0000
0010
0001
0010
0000
0010
,
0010
0000
0000
0010
0010
0100
0000
0010
,
1000
0000
0000
0001
1000
0001
0000
0100
,
0100
0000
0000
0010
0010
0100
0000
0001
,
0001
0000
0000
1000
0001
1000
0000
0010
,
1000
0000
0000
0010
0001
0010
0000
0001
,
0100
0000
0000
0010
0001
0001
0010
0001
,
1000
0100
0010
1000
0100
0001
0010
0100
,
0100
0100
0010
1000
0001
0001
0010
0010
,
0100
0100
0100
1000
0001
0100
1000
0010
,
0100
0010
0100
0100
0001
1000
1000
0100
,
1000
0001
0100
1000
0010
0010
0010
0100
,
0100
1000
1000
0001
1000
0100
1000
0010
,
1000
0010
0010
0100
0001
0010
0100
0100
,
0010
0100
1000
0000
0110
0000
0100
0000
,
0001
0001
0010
0010
,
0010
0011
0100
0001
,
1000
1100
0100
0100
,
0001
1010
0010
0001
,
0010
1010
0001
0001
,
1000
1001
0100
0100
,
1000
0010
1100
0001
,
1000
0000
0100
0010
0010
0001
0100
1000
,
0001
0100
0100
1000
0010
0001
0010
0001
,
0010
0100
0001
0100
1000
0001
1000
0100
,
1000
0100
0100
0010
0100
0001
0100
1000
,
0001
0100
1000
1000
0010
0100
0100
1000
,
0100
0100
0001
1000
0001
0100
1000
0100
,
0001
0010
0001
0100
0010
0010
0010
0010
,
0100
1000
0001
0010
0001
1000
0100
1000
,
0010
0010
0010
0001
0010
0010
1000
0100
,
0001
0001
0100
0001
0100
0010
1000
1000
,
0100
0010
0010
0010
1000
0100
0010
0010
,
1000
0001
0010
1000
0100
0100
0010
0100
,
1000
0000
0001
0000
0010
0000
0100
0000
0001
0000
1000
0000
0010
0000
1000
1000
,
0001
0001
1000
0010
0001
0100
0100
0100
0100
0100
1000
0100
0001
0100
0001
1000
,
1000
0001
0010
1000
0010
1000
0100
0001
1000
0001
1000
0010
0001
1000
0001
0010
,
1000
1000
0001
0001
0100
1000
1000
0001
1000
0010
0010
0100
1000
0100
0100
1000
,
0001
0000
0010
0001
0010
0000
1000
0001
,
0000
0000
0100
0010
0100
0000
0001
1000
,
0000
0000
0001
0100
0010
0000
0001
0010
,
0000
0000
1000
0001
0010
0000
0100
1000
,
0000
0000
1000
0001
0100
0000
0100
0010
,
0000
0000
0100
0100
0100
0000
0001
0001
,
0000
0000
0000
0000
1000
0010
0100
0010
1000
0100
0100
0010
0100
0001
1000
0010
,
0001
0010
0100
1000
0001
1000
1000
0001
0001
1000
0100
0001
1000
0100
0100
0010
,
0001
0010
0001
1000
0001
0000
0000
0000
1000
0000
0000
0000
1001
0000
0000
0000
,
0010
0011
1000
0110
,
0010
1001
1000
1001
,
0010
0110
1000
1010
,
1000
1010
0100
1010
,
0010
1100
1000
1001
,
0010
0011
1000
1001
,
0001
1100
1000
1010
,
1000
1100
1010
1001
,
0011
0110
1001
1010
,
1001
0101
0101
0011
,
1100
1001
1100
1010
,
1001
0011
1010
1001
,
0011
0101
1100
1001
,
1001
0101
1010
0110
,
0110
0011
0101
1010
,
0011
0101
0000
0000
;
