#TITLE:Clarity;
#SUBTITLE:(Vicetone & Nightcore Remix);
#ARTIST:Zedd;
#TITLETRANSLIT:;
#SUBTITLETRANSLIT:;
#ARTISTTRANSLIT:;
#CREDIT:owenviau1;
#BANNER:;
#BACKGROUND:;
#LYRICSPATH:;
#CDTITLE:;
#MUSIC:Clarity (Vicetone Remix).mp3;
#OFFSET:-0.212;
#SAMPLESTART:77.012;
#SAMPLELENGTH:29.999;
#SELECTABLE:YES;
#BPMS:0.000=150.000;
#STOPS:;
#BGCHANGES:;
// cache tags:
#FIRSTBEAT:32.000;
#LASTBEAT:544.500;
#SONGFILENAME:Songs/owenviau1 Simfiles 7/Clarity (Vicetone Remix) - [owenviau1] v1.0.2/Clarity.sm;
#HASMUSIC:1;
#HASBANNER:0;
#MUSICLENGTH:225.044;
// end cache tags

//---------------dance-single - 9.20 (9) (owenviau1)----------------
#NOTES:
     dance-single:
     9.20 (9) (owenviau1):
     Medium:
     9:
     0.599,0.756,0.018,0.769,0.076,766.000,4.000,173.000,17.000,1.000:
0000
0000
0000
0000
,
0000
0000
0000
0000
,
0000
0000
0000
0000
,
0000
0000
0000
0000
,
0000
0000
0000
0000
,
0000
0000
0000
0000
,
0000
0000
0000
0000
,
0000
0000
0000
0000
,
1000
0000
0000
0000
0020
0000
0000
0030
0200
0000
0000
0000
0301
0000
1000
0000
,
0002
0000
0000
0000
0023
0000
0000
0000
0230
0000
0000
0300
1000
0000
0001
0000
,
0020
0000
0000
0030
0002
0000
0000
0003
0200
0000
0300
0000
0020
0000
2030
0000
,
3000
000M
0000
00M0
0000
0M00
0000
0000
,
1000
0000
0000
0000
0020
0000
0000
0030
0200
0000
0000
0300
0001
0000
1000
0000
,
0200
0000
0000
0300
2000
0000
0000
3000
0020
0000
0000
0030
0100
0000
0001
0000
,
2000
0000
0000
3000
0200
0000
0000
0300
0020
0000
0000
0030
0001
0000
0200
0000
,
0000
0300
0000
00M0
0000
0000
M000
0000
0000
0000
0000
0000
0000
0000
0000
0000
,
0001
0000
0000
0000
2000
0000
0000
3000
0200
0000
0000
0300
0010
0000
0001
0000
,
2000
0000
0000
3000
0020
0000
0000
0030
0200
0000
0000
0300
0001
0000
1000
0000
,
0002
0000
0000
0003
0020
0000
0000
0030
0200
0000
0000
0300
1000
0000
0020
0000
,
0000
0030
0M00
0000
0000
0000
000M
0000
0000
0000
0000
0000
0000
0000
0000
0000
,
1000
0000
0000
0000
0020
0000
0000
0030
0200
0000
0000
0000
0301
0000
1000
0000
,
0002
0000
0000
0000
0023
0000
0000
0000
0230
0000
0000
0300
1000
0000
0001
0000
,
0020
0000
0000
0030
0002
0000
0000
0003
0200
0000
0300
0000
0020
0000
2030
0000
,
3000
0000
0000
0M00
0000
0000
0000
0000
,
1000
0000
0010
0000
0200
0000
0000
0000
0302
0000
0000
0003
0000
0000
1000
0000
,
0200
0000
0000
0000
0320
0000
0000
0030
0002
0000
0000
0000
0000
0000
0000
0003
,
1000
0000
0000
0000
0020
0000
0000
0030
0200
0000
0000
0300
0000
0000
0001
0000
,
2000
0000
0000
0000
3200
0000
0000
0000
0320
0000
0000
0000
0032
0000
0000
0003
,
0100
0000
0000
0000
0020
0000
0000
0030
0200
0000
0000
0300
0000
0000
0001
0000
,
2000
0000
0000
3000
0200
0000
0000
0300
2000
0000
0000
0000
0000
0000
0000
0000
,
3010
0000
0000
0000
0200
0000
0000
0300
0002
0000
0000
0003
1000
0000
0010
0000
,
0200
0000
0300
0000
0020
0000
0000
0030
2000
0000
0000
0000
3002
0000
0000
0000
,
1003
0000
0000
0000
0020
0000
0000
0030
0200
0000
0000
0000
0301
0000
2000
0000
,
0000
0000
0000
0000
3200
0000
0000
0000
0000
0000
0000
0300
0020
0000
0000
0030
,
0001
1000
0200
0000
2300
0000
3020
0000
,
0230
0000
0000
0000
0302
0000
0000
0000
1003
0000
0010
0000
0200
0000
0000
0300
,
0001
00M0
0000
0000
2000
0000
0000
3000
0020
0000
0000
0000
0130
0000
0002
0000
,
0000
0000
0000
0000
2003
0000
0000
0000
0000
0000
0000
3000
0200
0000
0000
0300
,
0010
0001
2000
0000
3020
0000
0230
0000
,
0302
2003
3020
0200
,
1331
0000
0000
0000
1000
0100
0010
0001
,
0200
0000
0310
1000
0001
0100
0001
1000
,
0200
0000
0310
0001
1000
0010
0100
0001
,
2000
0000
3100
0010
0001
0010
0100
1000
,
0002
0000
0103
0010
0100
0001
1000
0100
,
0020
0000
0031
0100
0010
1000
0100
1000
,
0002
0000
0013
0100
1000
0010
0100
0001
,
2000
0000
0000
0000
0000
0000
3010
0100
,
0001
1000
0100
1000
0010
0100
0001
1000
,
0100
0010
0001
1000
0010
0100
0001
1000
,
0100
1000
0001
0010
0001
0100
0010
1000
,
0001
0010
0100
1000
0010
0100
0001
1000
,
0100
0010
0001
1000
0010
1000
0001
0100
,
0001
0010
0100
1000
0010
0100
0001
1000
,
0100
1000
0001
0010
0001
1000
0100
0010
,
0001
0100
0010
0100
0001
1000
0100
0010
,
1001
1000
0001
1000
0100
0010
0001
1000
,
0010
0100
0010
1000
0001
0010
0100
1000
,
0010
0100
0010
1000
0001
0100
0010
0100
,
0001
1000
0001
0100
0010
1000
0001
0010
,
0100
1000
0010
0100
0001
1000
0100
0010
,
0001
1000
0010
0100
0010
1000
0001
0100
,
0001
1000
0100
0010
0001
0100
0010
1000
,
0001
0010
0100
1000
0010
0100
0001
1000
,
0002
0000
0000
0000
,
0000
0000
0000
0000
,
2003
0000
0000
3100
0010
0000
0001
0100
0000
0010
0100
0000
0001
0000
1000
0000
,
0010
0100
0000
0001
1000
0000
0010
1000
0000
0001
0010
0000
0100
0000
1000
0000
,
0020
0000
0000
0000
0130
0000
0001
1000
0000
0100
1000
0000
0010
0000
0100
0000
,
0001
1000
0000
0010
0100
0000
0001
0010
0000
0100
1000
0000
0010
0000
0100
0000
,
0001
1000
0000
0010
1000
0000
0001
0100
0000
0010
0100
0000
0001
0000
1000
0000
,
0100
0010
0000
0001
0100
0000
0010
1000
0000
0010
0100
0000
0001
0000
1000
0000
,
0200
0000
0000
0000
0320
0000
0000
0030
0002
0000
0000
0000
1003
0000
0010
0000
,
0200
0000
0000
0000
0302
0000
0000
0000
0023
0000
0000
0030
0100
0000
1000
0000
,
0020
0000
0000
0030
0200
0000
0000
0300
0002
0000
0003
0000
2000
0000
3020
0000
,
0030
000M
0000
00M0
0000
0M00
0000
0000
,
1000
0000
0000
0000
0020
0000
0000
0030
0200
0000
0000
0300
0001
0000
1000
0000
,
0200
0000
0000
0300
2000
0000
0000
3000
0020
0000
0000
0030
0100
0000
0001
0000
,
2000
0000
0000
3000
0200
0000
0000
0300
0020
0000
0000
0030
0001
0000
0200
0000
,
0000
0300
0000
00M0
0000
0000
M000
0000
0000
0000
0000
0000
0000
0000
0000
0000
,
0001
0000
0000
0000
2000
0000
0000
3000
0200
0000
0000
0300
0010
0000
0001
0000
,
2000
0000
0000
3000
0020
0000
0000
0030
0200
0000
0000
0300
0001
0000
1000
0000
,
0002
0000
0000
0003
0020
0000
0000
0030
0200
0000
0000
0300
1000
0000
0020
0000
,
0000
0030
0M00
0000
0000
0000
000M
0000
0000
0000
0000
0000
0000
0000
0000
0000
,
1000
0000
0000
0000
0020
0000
0000
0030
0200
0000
0000
0000
0301
0000
1000
0000
,
0002
0000
0000
0000
0023
0000
0000
0000
0230
0000
0000
0300
1000
0000
0001
0000
,
0020
0000
0000
0030
0002
0000
0000
0003
0200
0000
0300
0000
0020
0000
2030
0000
,
3000
0000
0000
0M00
0000
0000
0000
0000
,
1000
0000
0010
0000
0200
0000
0000
0000
0302
0000
0000
0003
0000
0000
1000
0000
,
0200
0000
0000
0000
0320
0000
0000
0030
0002
0000
0000
0000
0000
0000
0000
0003
,
1000
0000
0000
0000
0020
0000
0000
0030
0200
0000
0000
0300
0000
0000
0001
0000
,
2000
0000
0000
0000
3200
0000
0000
0000
0320
0000
0000
0000
0032
0000
0000
0003
,
0100
0000
0000
0000
0020
0000
0000
0030
0200
0000
0000
0300
0000
0000
0001
0000
,
2000
0000
0000
3000
0200
0000
0000
0300
2000
0000
0000
0000
0000
0000
0000
0000
,
3010
0000
0000
0000
0200
0000
0000
0300
0002
0000
0000
0003
1000
0000
0010
0000
,
0200
0000
0300
0000
0020
0000
0000
0030
2000
0000
0000
0000
3002
0000
0000
0000
,
1003
0000
0010
0100
0001
1000
0100
0010
,
0002
0000
0103
0010
1000
0001
0010
0001
,
0200
0000
0310
1000
0100
0010
0001
0100
,
0020
0000
1030
0001
1000
0100
0010
0001
,
0200
0000
0310
1000
0001
0010
0100
1000
,
0020
0000
0130
0001
1000
0100
1000
0010
,
0200
0000
0301
0010
0001
1000
0100
0010
,
0002
0000
0103
0010
1000
0010
0100
0001
,
1000
0100
0010
0001
0100
0010
0100
0001
,
1000
0000
0100
0000
0010
0000
0001
0000
0100
0000
0010
0000
1000
0000
0001
0010
,
0100
1000
0010
0100
0001
1000
0100
1000
,
0010
0000
0100
0000
0001
0000
1000
0000
0010
0000
0100
0000
0010
0000
1000
0001
,
0100
0010
1000
0100
1000
0001
0010
0100
,
1000
0001
0100
0010
0100
0001
1000
0100
,
0010
0001
0100
0010
1000
0001
0010
0001
0100
0010
1000
0100
0010
0001
0100
0010
,
2000
0000
0000
3000
0020
0000
0000
0030
0100
0000
0001
0000
1000
0000
0100
0000
,
1000
0010
0100
0001
1000
0100
0010
0001
,
0100
0010
1000
0001
0010
0100
1000
0010
,
0100
0001
1000
0100
1000
0010
0100
0001
,
0100
0010
1000
0001
0010
0100
1000
0010
,
0100
0001
1000
0100
0010
0001
1000
0010
,
1000
0001
0100
0001
1000
0100
0010
0001
,
0100
0010
0100
0001
1000
0010
0100
0010
,
1000
0001
0010
0100
1000
0010
0100
0010
,
1001
0001
1000
0001
0010
0001
1000
0010
,
0100
0010
1000
0001
0100
0001
1000
0010
,
0100
0010
1000
0001
0010
0001
0100
0010
,
1000
0001
0010
0100
1000
0010
0100
0001
,
1000
0100
1000
0010
0100
0010
1000
0001
,
0100
0001
1000
0100
0010
0001
0010
0100
,
1000
0001
0010
0001
0100
0010
1000
0100
,
1000
0001
0010
0100
1000
0010
1000
0001
,
0010
0100
1000
0010
0100
0001
1000
0100
,
0020
0000
0031
0100
0010
1000
0100
1000
,
0002
0000
0103
0010
0100
0001
1000
0100
,
0020
0000
0031
0100
0010
1000
0100
1000
,
0002
0000
1003
0010
0100
0001
1000
0100
,
0020
0000
0031
0100
0010
1000
0100
1000
,
0002
0000
0103
0010
0100
0001
1000
0100
,
0020
0000
0000
0030
0002
0000
0000
0003
1000
0000
0010
0000
0100
0000
0001
0000
,
2002
3003
0000
0000
0000
0000
0000
0000
,
0000
0000
0000
0000
,
0000
0000
0000
0000
,
0000
0000
0000
0000
,
0000
0000
0000
0000
;

//---------------dance-single - 11.27 (11) (owenviau----------------
#NOTES:
     dance-single:
     11.27 (11) (owenviau:
     Hard:
     11:
     0.755,0.998,0.009,0.769,0.627,1014.000,2.000,173.000,17.000,1.000:
0000
0000
0000
0000
,
0000
0000
0000
0000
,
0000
0000
0000
0000
,
0000
0000
0000
0000
,
0000
0000
0000
0000
,
0000
0000
0000
0000
,
0000
0000
0000
0000
,
0000
0000
0000
0000
,
1000
0000
0000
0000
0020
0000
0000
0030
0200
0000
0000
0000
0301
0000
1000
0000
,
0002
0000
0000
0000
0023
0000
0000
0000
0230
0000
0000
0300
1000
0000
0001
0000
,
0020
0000
0000
0030
0002
0000
0000
0003
0200
0000
0300
0000
0020
0000
2030
0000
,
3000
000M
0000
00M0
0000
0M00
0000
0000
,
1000
0000
0000
0000
0020
0000
0000
0030
0200
0000
0000
0300
0001
0000
1000
0000
,
0200
0000
0000
0300
2000
0000
0000
3000
0020
0000
0000
0030
0100
0000
0001
0000
,
2000
0000
0000
3000
0200
0000
0000
0300
0020
0000
0000
0030
0001
0000
0200
0000
,
0000
0300
0000
00M0
0000
0000
M000
0000
0000
0000
0000
0000
0000
0000
0000
0000
,
0001
0000
0000
0000
2000
0000
0000
3000
0200
0000
0000
0300
0010
0000
0001
0000
,
2000
0000
0000
3000
0020
0000
0000
0030
0200
0000
0000
0300
0001
0000
1000
0000
,
0002
0000
0000
0003
0020
0000
0000
0030
0200
0000
0000
0300
1000
0000
0020
0000
,
0000
0030
0M00
0000
0000
0000
000M
0000
0000
0000
0000
0000
0000
0000
0000
0000
,
1000
0000
0000
0000
0020
0000
0000
0030
0200
0000
0000
0000
0301
0000
1000
0000
,
0002
0000
0000
0000
0023
0000
0000
0000
0230
0000
0000
0300
1000
0000
0001
0000
,
0020
0000
0000
0030
0002
0000
0000
0003
0200
0000
0300
0000
0020
0000
2030
0000
,
3000
0000
0000
0M00
0000
0000
0000
0000
,
1000
0000
0010
0000
0200
0000
0000
0000
0302
0000
0000
0003
0000
0000
1000
0000
,
0200
0000
0000
0000
0320
0000
0000
0030
0002
0000
0000
0000
0000
0000
0000
0003
,
1000
0000
0000
0000
0020
0000
0000
0030
0200
0000
0000
0300
0000
0000
0001
0000
,
2000
0000
0000
0000
3200
0000
0000
0000
0320
0000
0000
0000
0032
0000
0000
0003
,
0100
0000
0000
0000
0020
0000
0000
0030
0200
0000
0000
0300
0000
0000
0001
0000
,
2000
0000
0000
3000
0200
0000
0000
0300
2000
0000
0000
0000
0000
0000
0000
0000
,
3010
0000
0000
0000
0200
0000
0000
0300
0002
0000
0000
0003
1000
0000
0010
0000
,
0200
0000
0300
0000
0020
0000
0000
0030
2000
0000
0000
0000
3002
0000
0000
0000
,
1003
0000
0000
0000
0020
0000
0000
0030
0200
0000
0000
0000
0301
0000
2000
0000
,
0000
0000
0000
0000
3200
0000
0000
0000
0000
0000
0000
0300
0020
0000
0000
0030
,
0001
1000
0200
0000
2300
0000
3020
0000
,
0230
0000
0000
0000
0302
0000
0000
0000
1003
0000
0010
0000
0200
0000
0000
0300
,
0001
00M0
0000
0000
2000
0000
0000
3000
0020
0000
0000
0000
0130
0000
0002
0000
,
0000
0000
0000
0000
2003
0000
0000
0000
0000
0000
0000
3000
0200
0000
0000
0300
,
0010
0001
2000
0000
3020
0000
0230
0000
,
0302
2003
3020
0200
,
1331
0000
0000
0000
1000
0100
0010
0001
,
0200
0000
0310
1000
0001
0100
0001
1000
,
0200
0000
0310
0001
1000
0010
0100
0001
,
2000
0000
3100
0010
0001
0010
0100
1000
,
0002
0000
0103
0010
0100
0001
1000
0100
,
0020
0000
0031
0100
0010
1000
0100
1000
,
0002
0000
0013
0100
1000
0010
0100
0001
,
2000
0000
0000
0000
0000
0000
3010
0100
,
0001
1000
0100
0010
0001
0100
0010
1000
0010
0100
0001
1000
0100
1000
0010
0100
,
0001
0010
0100
1000
0010
0100
0010
1000
0001
0100
0001
1000
0100
0010
0001
0100
,
0010
1000
0001
0010
0100
1000
0010
0100
0010
1000
0001
0010
0001
0100
0010
1000
,
0001
0010
0100
1000
0010
0100
0001
1000
0100
1000
0010
0100
0001
0010
0100
1000
,
0001
0010
0001
0100
0010
1000
0010
0100
0001
1000
0010
1000
0100
0010
0001
0100
,
0001
1000
0010
0100
0010
1000
0001
0010
0001
1000
0100
0010
0001
0100
0010
1000
,
0010
0100
0001
1000
0100
1000
0010
0100
0001
1000
0100
0010
0001
0100
0010
1000
,
0010
0100
0001
0010
0100
1000
0001
0010
0001
0100
0010
1000
0010
0000
0100
0000
,
0001
1000
0010
0100
0010
1000
0001
0100
0010
0100
0001
1000
0100
1000
0010
0100
,
0001
1000
0100
0010
0001
1000
0010
1000
0100
0010
0001
0100
0010
0100
0001
1000
,
0100
0010
0001
0100
0010
1000
0010
0100
0001
0010
0001
1000
0100
1000
0010
0100
,
0001
1000
0010
1000
0100
0010
0001
0100
0010
1000
0001
0100
0001
0010
0100
1000
,
0010
0100
0001
1000
0100
1000
0010
0100
0001
1000
0001
0010
0100
1000
0010
0100
,
0001
1000
0100
1000
0010
0100
0001
1000
0100
1000
0010
0100
0001
1000
0010
1000
,
0100
0010
0001
0100
0010
1000
0001
0010
0001
0100
0010
1000
0010
0100
0001
1000
,
0100
0010
0001
0100
0010
0100
0001
1000
0010
0100
0010
1000
0100
0000
0010
0000
,
0002
0000
0000
0000
,
0000
0000
0000
0000
,
2003
0000
0000
3100
0010
0000
0001
0100
0000
0010
0100
0000
0001
0000
1000
0000
,
0010
0100
0000
0001
1000
0000
0010
1000
0000
0001
0010
0000
0100
0000
1000
0000
,
0020
0000
0000
0000
0130
0000
0001
1000
0000
0100
1000
0000
0010
0000
0100
0000
,
0001
1000
0000
0010
0100
0000
0001
0010
0000
0100
1000
0000
0010
0000
0100
0000
,
0001
1000
0000
0010
1000
0000
0001
0100
0000
0010
0100
0000
0001
0000
1000
0000
,
0100
0010
0000
0001
0100
0000
0010
1000
0000
0010
0100
0000
0001
0000
1000
0000
,
0200
0000
0000
0000
0320
0000
0000
0030
0002
0000
0000
0000
1003
0000
0010
0000
,
0200
0000
0000
0000
0302
0000
0000
0000
0023
0000
0000
0030
0100
0000
1000
0000
,
0020
0000
0000
0030
0200
0000
0000
0300
0002
0000
0003
0000
2000
0000
3020
0000
,
0030
000M
0000
00M0
0000
0M00
0000
0000
,
1000
0000
0000
0000
0020
0000
0000
0030
0200
0000
0000
0300
0001
0000
1000
0000
,
0200
0000
0000
0300
2000
0000
0000
3000
0020
0000
0000
0030
0100
0000
0001
0000
,
2000
0000
0000
3000
0200
0000
0000
0300
0020
0000
0000
0030
0001
0000
0200
0000
,
0000
0300
0000
00M0
0000
0000
M000
0000
0000
0000
0000
0000
0000
0000
0000
0000
,
0001
0000
0000
0000
2000
0000
0000
3000
0200
0000
0000
0300
0010
0000
0001
0000
,
2000
0000
0000
3000
0020
0000
0000
0030
0200
0000
0000
0300
0001
0000
1000
0000
,
0002
0000
0000
0003
0020
0000
0000
0030
0200
0000
0000
0300
1000
0000
0020
0000
,
0000
0030
0M00
0000
0000
0000
000M
0000
0000
0000
0000
0000
0000
0000
0000
0000
,
1000
0000
0000
0000
0020
0000
0000
0030
0200
0000
0000
0000
0301
0000
1000
0000
,
0002
0000
0000
0000
0023
0000
0000
0000
0230
0000
0000
0300
1000
0000
0001
0000
,
0020
0000
0000
0030
0002
0000
0000
0003
0200
0000
0300
0000
0020
0000
2030
0000
,
3000
0000
0000
0M00
0000
0000
0000
0000
,
1000
0000
0010
0000
0200
0000
0000
0000
0302
0000
0000
0003
0000
0000
1000
0000
,
0200
0000
0000
0000
0320
0000
0000
0030
0002
0000
0000
0000
0000
0000
0000
0003
,
1000
0000
0000
0000
0020
0000
0000
0030
0200
0000
0000
0300
0000
0000
0001
0000
,
2000
0000
0000
0000
3200
0000
0000
0000
0320
0000
0000
0000
0032
0000
0000
0003
,
0100
0000
0000
0000
0020
0000
0000
0030
0200
0000
0000
0300
0000
0000
0001
0000
,
2000
0000
0000
3000
0200
0000
0000
0300
2000
0000
0000
0000
0000
0000
0000
0000
,
3010
0000
0000
0000
0200
0000
0000
0300
0002
0000
0000
0003
1000
0000
0010
0000
,
0200
0000
0300
0000
0020
0000
0000
0030
2000
0000
0000
0000
3002
0000
0000
0000
,
1003
0000
0010
0100
0001
1000
0100
0010
,
0002
0000
0103
0010
1000
0001
0010
0001
,
0200
0000
0310
1000
0100
0010
0001
0100
,
0020
0000
1030
0001
1000
0100
0010
0001
,
0200
0000
0310
1000
0001
0010
0100
1000
,
0020
0000
0130
0001
1000
0100
1000
0010
,
0200
0000
0301
0010
0001
1000
0100
0010
,
0002
0000
0103
0010
1000
0010
0100
0001
,
1000
0100
0010
0001
0100
0010
0100
0001
,
1000
0000
0100
0000
0010
0000
0001
0000
0100
0000
0010
0000
1000
0000
0001
0010
,
0100
1000
0010
0100
0001
1000
0100
1000
,
0010
0000
0100
0000
0001
0000
1000
0000
0010
0000
0100
0000
0010
0000
1000
0001
,
0100
0010
1000
0100
1000
0001
0010
0100
,
1000
0001
0100
0010
0100
0001
1000
0100
,
0010
0001
0100
0010
1000
0001
0010
0001
0100
0010
1000
0100
0010
0001
0100
0010
,
2000
0000
0000
3000
0020
0000
0000
0030
0100
0000
0001
0000
1000
0000
0100
0000
,
0010
0001
1000
0001
0100
0010
1000
0010
0100
0001
1000
0100
1000
0010
0100
0001
,
0010
0100
1000
0010
0100
0010
1000
0001
0100
0001
1000
0100
0010
0001
0100
0010
,
1000
0001
0010
0100
1000
0010
0100
0010
1000
0001
0010
0001
0100
0010
1000
0001
,
0010
0100
1000
0010
0100
0001
1000
0100
1000
0010
0100
0001
0010
0100
1000
0001
,
0010
0001
0100
0010
1000
0010
0100
0001
1000
0010
1000
0100
0010
0001
0100
0001
,
1000
0010
0100
0010
1000
0001
0010
0001
1000
0100
0010
0001
0100
0010
1000
0010
,
0100
0001
1000
0100
1000
0010
0100
0001
1000
0100
0010
0001
0100
0010
1000
0010
,
0100
0001
0010
0100
1000
0001
0010
0001
0100
0010
1000
0001
0100
0000
0010
0000
,
1000
0100
0010
0001
0100
0010
1000
0010
0100
0001
1000
0100
1000
0010
0100
0001
,
0010
0100
1000
0010
0100
0010
1000
0001
0100
0001
1000
0100
0010
0001
0100
0010
,
1000
0001
0010
0100
1000
0010
0100
0010
1000
0001
0010
0001
0100
0010
1000
0001
,
0010
0100
1000
0010
0100
0001
1000
0100
1000
0010
0100
0001
0010
0100
1000
0001
,
0010
0001
0100
0010
1000
0010
0100
0001
1000
0010
1000
0100
0010
0001
0100
0001
,
1000
0010
0100
0010
1000
0001
0010
0001
1000
0100
0010
0001
0100
0010
1000
0010
,
0100
0001
1000
0100
1000
0010
0100
0001
1000
0100
0010
0001
0100
0010
1000
0010
,
0100
0001
0010
0100
1000
0001
0100
0010
0100
0001
1000
0100
0010
0000
0001
0000
,
0100
0001
1000
0010
0100
0001
1000
0100
,
0020
0000
0031
0100
0010
1000
0100
1000
,
0002
0000
0103
0010
0100
0001
1000
0100
,
0020
0000
0031
0100
0010
1000
0100
1000
,
0002
0000
1003
0010
0100
0001
1000
0100
,
0020
0000
0031
0100
0010
1000
0100
1000
,
0002
0000
0103
0010
0100
0001
1000
0100
,
0020
0000
0000
0030
0002
0000
0000
0003
1000
0000
0010
0000
0100
0000
0001
0000
,
2002
3003
0000
0000
0000
0000
0000
0000
,
0000
0000
0000
0000
,
0000
0000
0000
0000
,
0000
0000
0000
0000
,
0000
0000
0000
0000
;

//---------------dance-single - ----------------
#NOTES:
     dance-single:
     :
     Challenge:
     15:
     0.912,1.000,0.009,0.769,1.000,1262.000,2.000,173.000,17.000,1.000:
0000
0000
0000
0000
,
0000
0000
0000
0000
,
0000
0000
0000
0000
,
0000
0000
0000
0000
,
0000
0000
0000
0000
,
0000
0000
0000
0000
,
0000
0000
0000
0000
,
0000
0000
0000
0000
,
1000
0000
0000
0000
0020
0000
0000
0030
0200
0000
0000
0000
0301
0000
1000
0000
,
0002
0000
0000
0000
0023
0000
0000
0000
0230
0000
0000
0300
1000
0000
0001
0000
,
0020
0000
0000
0030
0002
0000
0000
0003
0200
0000
0300
0000
0020
0000
2030
0000
,
3000
000M
0000
00M0
0000
0M00
0000
0000
,
1000
0000
0000
0000
0020
0000
0000
0030
0200
0000
0000
0300
0001
0000
1000
0000
,
0200
0000
0000
0300
2000
0000
0000
3000
0020
0000
0000
0030
0100
0000
0001
0000
,
2000
0000
0000
3000
0200
0000
0000
0300
0020
0000
0000
0030
0001
0000
0200
0000
,
0000
0300
0000
00M0
0000
0000
M000
0000
0000
0000
0000
0000
0000
0000
0000
0000
,
0001
0000
0000
0000
2000
0000
0000
3000
0200
0000
0000
0300
0010
0000
0001
0000
,
2000
0000
0000
3000
0020
0000
0000
0030
0200
0000
0000
0300
0001
0000
1000
0000
,
0002
0000
0000
0003
0020
0000
0000
0030
0200
0000
0000
0300
1000
0000
0020
0000
,
0000
0030
0M00
0000
0000
0000
000M
0000
0000
0000
0000
0000
0000
0000
0000
0000
,
1000
0000
0000
0000
0020
0000
0000
0030
0200
0000
0000
0000
0301
0000
1000
0000
,
0002
0000
0000
0000
0023
0000
0000
0000
0230
0000
0000
0300
1000
0000
0001
0000
,
0020
0000
0000
0030
0002
0000
0000
0003
0200
0000
0300
0000
0020
0000
2030
0000
,
3000
0000
0000
0M00
0000
0000
0000
0000
,
1000
0000
0010
0000
0200
0000
0000
0000
0302
0000
0000
0003
0000
0000
1000
0000
,
0200
0000
0000
0000
0320
0000
0000
0030
0002
0000
0000
0000
0000
0000
0000
0003
,
1000
0000
0000
0000
0020
0000
0000
0030
0200
0000
0000
0300
0000
0000
0001
0000
,
2000
0000
0000
0000
3200
0000
0000
0000
0320
0000
0000
0000
0032
0000
0000
0003
,
0100
0000
0000
0000
0020
0000
0000
0030
0200
0000
0000
0300
0000
0000
0001
0000
,
2000
0000
0000
3000
0200
0000
0000
0300
2000
0000
0000
0000
0000
0000
0000
0000
,
3010
0000
0000
0000
0200
0000
0000
0300
0002
0000
0000
0003
1000
0000
0010
0000
,
0200
0000
0300
0000
0020
0000
0000
0030
2000
0000
0000
0000
3002
0000
0000
0000
,
1003
0000
0000
0000
0020
0000
0000
0030
0200
0000
0000
0000
0301
0000
2000
0000
,
0000
0000
0000
0000
3200
0000
0000
0000
0000
0000
0000
0300
0020
0000
0000
0030
,
0001
1000
0200
0000
2300
0000
3020
0000
,
0230
0000
0000
0000
0302
0000
0000
0000
1003
0000
0010
0000
0200
0000
0000
0300
,
0001
00M0
0000
0000
2000
0000
0000
3000
0020
0000
0000
0000
0130
0000
0002
0000
,
0000
0000
0000
0000
2003
0000
0000
0000
0000
0000
0000
3000
0200
0000
0000
0300
,
0010
0001
2000
0000
3020
0000
0230
0000
,
0302
2003
3020
0200
,
1331
0000
0000
0000
1000
0100
0010
0001
,
0200
0000
0310
1000
0001
0100
0001
1000
,
0200
0000
0310
0001
1000
0010
0100
0001
,
2000
0000
3100
0010
0001
0010
0100
1000
,
0002
0000
0103
0010
0100
0001
1000
0100
,
0020
0000
0031
0100
0010
1000
0100
1000
,
0002
0000
0013
0100
1000
0010
0100
0001
,
2000
0000
0000
0000
0000
0000
3010
0100
,
0001
1000
0010
0100
0010
1000
0001
0100
0001
0010
0100
1000
0010
0100
0010
1000
0001
0010
0100
1000
0010
0100
0001
1000
,
0100
1000
0010
0100
0010
1000
0001
0010
0001
0100
0010
1000
0001
0010
0100
1000
0010
0100
0001
1000
0100
1000
0010
0100
,
0010
1000
0100
0010
0001
0100
0010
1000
0001
0010
0001
0100
0010
1000
0100
0010
0001
1000
0010
1000
0001
0100
0010
0100
,
0001
1000
0100
1000
0010
0100
0001
1000
0100
0010
0001
0100
0010
0100
0001
1000
0100
1000
0010
0100
0001
1000
0100
0010
,
0001
0100
0010
1000
0001
0010
0001
0100
0010
1000
0001
0010
0001
0100
0010
1000
0100
0010
0001
0100
0010
0100
0001
1000
,
0100
1000
0010
0100
0010
1000
0001
0100
0001
0010
0100
1000
0010
0100
0001
1000
0100
1000
0010
0100
0010
1000
0001
0010
,
0001
0100
0010
1000
0001
0010
0100
1000
0010
0100
0001
1000
0100
1000
0010
0100
0001
1000
0100
0010
0001
0100
0010
1000
,
0001
0010
0001
1000
0100
0010
0001
0100
0010
1000
0010
0100
0001
1000
0100
0010
0001
1000
0010
0000
0000
0100
0000
0000
,
0001
0010
0100
1000
0010
0100
0001
0010
0001
1000
0010
1000
0001
0100
0010
1000
0001
0010
0100
1000
0010
0100
0001
1000
,
0100
1000
0010
0100
0010
1000
0001
0010
0001
0100
0010
1000
0001
0010
0100
1000
0010
0100
0001
1000
0100
1000
0010
0100
,
0010
1000
0100
0010
0001
0100
0010
1000
0001
0010
0001
0100
0010
1000
0100
0010
0001
1000
0010
1000
0001
0100
0010
0100
,
0001
1000
0100
1000
0010
0100
0001
1000
0100
0010
0001
0100
0010
0100
0001
1000
0100
1000
0010
0100
0001
1000
0100
0010
,
0001
0100
0010
1000
0001
0010
0001
0100
0010
1000
0001
0010
0001
0100
0010
1000
0100
0010
0001
0100
0010
0100
0001
1000
,
0100
1000
0010
0100
0010
1000
0001
0100
0001
0010
0100
1000
0010
0100
0001
1000
0100
1000
0010
0100
0010
1000
0001
0010
,
0001
0100
0010
1000
0001
0010
0100
1000
0010
0100
0001
1000
0100
1000
0010
0100
0001
1000
0100
0010
0001
0100
0010
1000
,
0001
0010
0001
1000
0100
0010
0001
0100
0010
1000
0010
0100
0001
1000
0100
0010
0001
1000
0010
0000
0000
0100
0000
0000
,
0002
0000
0000
0000
,
0000
0000
0000
0000
,
2003
0000
0000
3100
0010
0000
0001
0100
0000
0010
0100
0000
0001
0000
1000
0000
,
0010
0100
0000
0001
1000
0000
0010
1000
0000
0001
0010
0000
0100
0000
1000
0000
,
0020
0000
0000
0000
0130
0000
0001
1000
0000
0100
1000
0000
0010
0000
0100
0000
,
0001
1000
0000
0010
0100
0000
0001
0010
0000
0100
1000
0000
0010
0000
0100
0000
,
0001
1000
0000
0010
1000
0000
0001
0100
0000
0010
0100
0000
0001
0000
1000
0000
,
0100
0010
0000
0001
0100
0000
0010
1000
0000
0010
0100
0000
0001
0000
1000
0000
,
0200
0000
0000
0000
0320
0000
0000
0030
0002
0000
0000
0000
1003
0000
0010
0000
,
0200
0000
0000
0000
0302
0000
0000
0000
0023
0000
0000
0030
0100
0000
1000
0000
,
0020
0000
0000
0030
0200
0000
0000
0300
0002
0000
0003
0000
2000
0000
3020
0000
,
0030
000M
0000
00M0
0000
0M00
0000
0000
,
1000
0000
0000
0000
0020
0000
0000
0030
0200
0000
0000
0300
0001
0000
1000
0000
,
0200
0000
0000
0300
2000
0000
0000
3000
0020
0000
0000
0030
0100
0000
0001
0000
,
2000
0000
0000
3000
0200
0000
0000
0300
0020
0000
0000
0030
0001
0000
0200
0000
,
0000
0300
0000
00M0
0000
0000
M000
0000
0000
0000
0000
0000
0000
0000
0000
0000
,
0001
0000
0000
0000
2000
0000
0000
3000
0200
0000
0000
0300
0010
0000
0001
0000
,
2000
0000
0000
3000
0020
0000
0000
0030
0200
0000
0000
0300
0001
0000
1000
0000
,
0002
0000
0000
0003
0020
0000
0000
0030
0200
0000
0000
0300
1000
0000
0020
0000
,
0000
0030
0M00
0000
0000
0000
000M
0000
0000
0000
0000
0000
0000
0000
0000
0000
,
1000
0000
0000
0000
0020
0000
0000
0030
0200
0000
0000
0000
0301
0000
1000
0000
,
0002
0000
0000
0000
0023
0000
0000
0000
0230
0000
0000
0300
1000
0000
0001
0000
,
0020
0000
0000
0030
0002
0000
0000
0003
0200
0000
0300
0000
0020
0000
2030
0000
,
3000
0000
0000
0M00
0000
0000
0000
0000
,
1000
0000
0010
0000
0200
0000
0000
0000
0302
0000
0000
0003
0000
0000
1000
0000
,
0200
0000
0000
0000
0320
0000
0000
0030
0002
0000
0000
0000
0000
0000
0000
0003
,
1000
0000
0000
0000
0020
0000
0000
0030
0200
0000
0000
0300
0000
0000
0001
0000
,
2000
0000
0000
0000
3200
0000
0000
0000
0320
0000
0000
0000
0032
0000
0000
0003
,
0100
0000
0000
0000
0020
0000
0000
0030
0200
0000
0000
0300
0000
0000
0001
0000
,
2000
0000
0000
3000
0200
0000
0000
0300
2000
0000
0000
0000
0000
0000
0000
0000
,
3010
0000
0000
0000
0200
0000
0000
0300
0002
0000
0000
0003
1000
0000
0010
0000
,
0200
0000
0300
0000
0020
0000
0000
0030
2000
0000
0000
0000
3002
0000
0000
0000
,
1003
0000
0010
0100
0001
1000
0100
0010
,
0002
0000
0103
0010
1000
0001
0010
0001
,
0200
0000
0310
1000
0100
0010
0001
0100
,
0020
0000
1030
0001
1000
0100
0010
0001
,
0200
0000
0310
1000
0001
0010
0100
1000
,
0020
0000
0130
0001
1000
0100
1000
0010
,
0200
0000
0301
0010
0001
1000
0100
0010
,
0002
0000
0103
0010
1000
0010
0100
0001
,
1000
0100
0010
0001
0100
0010
0100
0001
,
1000
0000
0100
0000
0010
0000
0001
0000
0100
0000
0010
0000
1000
0000
0001
0010
,
0100
1000
0010
0100
0001
1000
0100
1000
,
0010
0000
0100
0000
0001
0000
1000
0000
0010
0000
0100
0000
0010
0000
1000
0001
,
0100
0010
1000
0100
1000
0001
0010
0100
,
1000
0001
0100
0010
0100
0001
1000
0100
,
0010
0001
0100
0010
1000
0001
0010
0001
0100
0010
1000
0100
0010
0001
0100
0010
,
2000
0000
0000
3000
0020
0000
0000
0030
0100
0000
0001
0000
1000
0000
0100
0000
,
1000
0001
0100
0010
1000
0001
0100
0001
0010
0100
1000
0010
0100
0010
1000
0001
0010
0100
1000
0010
0100
0001
1000
0100
,
1000
0010
0100
0010
1000
0001
0010
0001
0100
0010
1000
0001
0010
0100
1000
0010
0100
0001
1000
0100
1000
0010
0100
0010
,
1000
0100
0010
0001
0100
0010
1000
0001
0010
0001
0100
0010
1000
0100
0010
0001
1000
0010
1000
0001
0100
0010
0100
0001
,
1000
0100
1000
0010
0100
0001
1000
0100
0010
0001
0100
0010
0100
0001
1000
0100
1000
0010
0100
0001
1000
0100
0010
0001
,
0100
0010
1000
0001
0010
0001
0100
0010
1000
0001
0010
0001
0100
0010
1000
0100
0010
0001
0100
0010
0100
0001
1000
0100
,
1000
0010
0100
0010
1000
0001
0100
0001
0010
0100
1000
0010
0100
0001
1000
0100
1000
0010
0100
0010
1000
0001
0010
0001
,
0100
0010
1000
0001
0010
0100
1000
0010
0100
0001
1000
0100
1000
0010
0100
0001
1000
0100
0010
0001
0100
0010
1000
0001
,
0010
0001
1000
0100
0010
0001
0100
0010
1000
0010
0100
0001
1000
0100
0010
0001
1000
0010
0100
0000
0000
0001
0000
0000
,
1000
0100
0010
0001
1000
0010
0100
0001
0010
0100
1000
0010
0100
0010
1000
0001
0010
0100
1000
0010
0100
0001
1000
0100
,
1000
0010
0100
0010
1000
0001
0010
0001
0100
0010
1000
0001
0010
0100
1000
0010
0100
0001
1000
0100
1000
0010
0100
0010
,
1000
0100
0010
0001
0100
0010
1000
0001
0010
0001
0100
0010
1000
0100
0010
0001
1000
0010
1000
0001
0100
0010
0100
0001
,
1000
0100
1000
0010
0100
0001
1000
0100
0010
0001
0100
0010
0100
0001
1000
0100
1000
0010
0100
0001
1000
0100
0010
0001
,
0100
0010
1000
0001
0010
0001
0100
0010
1000
0001
0010
0001
0100
0010
1000
0100
0010
0001
0100
0010
0100
0001
1000
0100
,
1000
0010
0100
0010
1000
0001
0100
0001
0010
0100
1000
0010
0100
0001
1000
0100
1000
0010
0100
0010
1000
0001
0010
0001
,
0100
0010
1000
0001
0010
0100
1000
0010
0100
0001
1000
0100
1000
0010
0100
0001
1000
0100
0010
0001
0100
0010
1000
0001
,
0010
0001
1000
0100
0010
0001
0100
0010
1000
0010
0100
0001
1000
0100
0010
0001
1000
0010
0100
0000
0000
0001
0000
0000
,
0010
0001
1000
0010
0100
0001
1000
0100
,
0020
0000
0031
0100
0010
1000
0100
1000
,
0002
0000
0103
0010
0100
0001
1000
0100
,
0020
0000
0031
0100
0010
1000
0100
1000
,
0002
0000
1003
0010
0100
0001
1000
0100
,
0020
0000
0031
0100
0010
1000
0100
1000
,
0002
0000
0103
0010
0100
0001
1000
0100
,
0020
0000
0000
0030
0002
0000
0000
0003
1000
0000
0010
0000
0100
0000
0001
0000
,
2002
3003
0000
0000
0000
0000
0000
0000
,
0000
0000
0000
0000
,
0000
0000
0000
0000
,
0000
0000
0000
0000
,
0000
0000
0000
0000
;
