#TITLE:2029 Theme;
#SUBTITLE:;
#ARTIST:2029 Online;
#TITLETRANSLIT:;
#SUBTITLETRANSLIT:;
#ARTISTTRANSLIT:;
#CREDIT:;
#BANNER:Ban.png;
#BACKGROUND:Background.png;
#LYRICSPATH:;
#CDTITLE:b4-cdtitle.png;
#MUSIC:2029.mp3;
#OFFSET:0.100;
#SAMPLESTART:98.577;
#SAMPLELENGTH:8.920;
#SELECTABLE:YES;
#BPMS:0.000=177.402;
#STOPS:;
#BGCHANGES:;
// cache tags:
#FIRSTBEAT:4.000;
#LASTBEAT:360.000;
#SONGFILENAME:Songs/Definitive Keyboard Megapack/2029 Theme [B4-NoA]/2029.sm;
#HASMUSIC:1;
#HASBANNER:1;
#MUSICLENGTH:121.817;
// end cache tags

//---------------dance-single - B4-NoA----------------
#NOTES:
     dance-single:
     B4-NoA:
     Hard:
     11:
     1.000,1.000,1.000,0.673,0.472,651.000,154.000,82.000,0.000,64.000:

0000
0000
0000
0000
,
0102
0000
1003
0000
2000
0000
0000
3100
,
0000
0000
0100
0001
1000
0000
0010
0000
0001
0000
0010
0000
0100
0000
1000
0000
,
0102
0010
1003
0000
2000
0000
0000
3100
,
0000
0000
0100
0001
1000
0000
0010
0000
0001
0000
0010
0000
0100
0000
1000
0000
,
0102
0000
1003
0000
2000
0000
0000
3100
,
0000
0000
0100
0001
1000
0000
0010
0000
0001
0000
0010
0000
0100
0000
1000
0000
,
0102
0010
1003
0000
2000
0000
0000
3100
,
0000
0000
0100
0001
1000
0000
0010
0000
0001
0000
0010
0000
1100
0000
0110
0000
,
0102
1000
0010
0100
1100
0010
1000
0100
,
0000
1000
0010
0100
1010
0100
1000
0010
,
0100
0000
0000
0000
0000
0000
1000
0000
0000
0000
0000
0000
0010
0000
0000
0000
0000
0000
1000
0000
0000
0000
0000
0000
0110
0000
0000
0000
0000
0000
1000
0000
0000
0000
0000
0000
0010
0000
0000
0000
0003
0000
0100
0000
0000
0010
0000
0000
,
2100
0010
0100
0000
0001
0000
0010
0000
0101
0000
0100
0000
0100
0000
0010
0000
,
0001
0100
0010
0100
0101
0010
0001
0010
,
0100
0010
0010
0100
0011
0001
0010
0001
,
3010
0200
1000
0000
0010
0000
0001
0000
1010
0000
0001
0000
0010
0000
1000
0010
,
1302
0010
1000
0000
0000
2000
0003
0000
0200
0000
0000
0000
3320
0000
0000
0030
,
0101
1000
0100
0001
2010
0010
0010
3200
,
0300
0000
1000
0100
0001
0100
1000
0000
1010
0000
0100
0000
0010
0000
0001
0000
,
0100
0000
1010
0000
0100
0000
0010
0000
0102
0000
0010
0000
1000
0000
0013
0100
,
0010
0100
0010
0000
0001
0000
0010
0000
0011
0000
0100
0000
0010
0000
0001
0000
,
0100
1010
0100
1000
0012
0100
0000
1203
,
0300
0000
1000
0100
0001
0100
1000
0000
0011
0000
0100
0000
0010
0000
0001
0000
,
0100
0000
1000
0000
0100
0000
1000
0000
0012
0000
0010
0000
0100
0000
1003
0100
,
0010
0100
0010
0000
0001
0000
0010
0000
1000
0000
0110
0000
1010
0000
0011
0000
,
2001
0000
0001
0000
0011
0000
0100
0100
,
0000
0001
0100
0000
0011
0000
0100
0000
,
3020
0000
0001
0000
1100
0000
0100
1000
,
0000
0001
0001
0000
0101
0000
1000
0000
,
0230
0000
0010
0000
1001
0000
0010
0010
,
0000
0001
1000
0000
1001
0000
0010
0000
,
0321
0000
1000
0000
0101
0000
1000
1000
,
0000
0000
1000
0100
1000
0000
0100
0000
1000
0000
0100
0000
0001
0000
0100
0000
,
2031
0000
0001
0000
0011
0000
0100
0100
,
0000
0001
0100
0000
0011
0000
0100
0000
,
3020
0000
0001
0000
1100
0000
0100
1000
,
0000
0001
0001
0000
0101
0000
1000
0000
,
0230
0000
0010
0000
1001
0000
0010
0010
,
0000
0001
1000
0000
1001
0000
0010
0000
,
0321
0000
1000
0000
0101
0000
1000
1000
,
0000
0000
1000
0100
1000
0000
0100
0000
1000
0000
0100
0000
0001
0000
0100
0000
,
0131
1000
0100
0001
2010
0010
0010
3200
,
0300
0000
1000
0100
0001
0100
1000
0000
1010
0000
0100
0000
0010
0000
0001
0000
,
0100
0000
1010
0000
0100
0000
0010
0000
0102
0000
0100
0000
0100
0000
1003
0100
,
0010
0100
0010
0000
0001
0000
0010
0000
1001
0000
0100
0000
0010
0000
0001
0000
,
0100
1000
0100
1000
0012
0100
0000
1203
,
0300
0000
1000
0100
0001
0100
1000
0000
1010
0000
0100
0000
0010
0000
0001
0000
,
0100
0000
1000
0000
0100
0000
1000
0000
0012
0000
0100
0000
0010
0000
1003
0100
,
0010
0100
0010
0000
0001
0000
0010
0000
0011
0000
0100
0000
0010
0000
0100
0000
,
2100
0000
3210
0000
0321
0000
0000
0230
,
0300
0000
1000
0100
0001
0000
0100
0000
0011
0000
0100
0000
1001
0000
0010
0000
,
1100
0000
0101
0000
0010
0000
0010
0000
2000
0000
0001
0000
3010
0000
0100
0010
,
0100
0010
0100
0000
1000
0000
0100
0000
0011
0000
0100
0000
1001
0000
0010
0000
,
1100
0101
0010
0010
2000
0001
0010
3200
,
0300
0000
1000
0100
0001
0000
0100
0000
1010
0000
0100
0000
0011
0000
0100
0000
,
1100
0000
1000
0011
0000
0000
0011
0100
0000
0000
0000
0100
1010
0000
0000
1010
,
0001
0000
0000
0000
2100
0000
0000
0000
0001
0010
0001
0100
0001
0010
0001
0100
,
3011
0000
0000
0000
0000
0000
0100
0000
1000
0000
0100
0000
1001
0000
0000
0000
0000
0000
0000
0000
0100
0000
1000
0000
0100
0000
0000
0011
0000
0000
0000
0000
0000
0000
0000
0000
0001
0000
0000
0010
0000
0000
1100
0000
0000
0000
0000
0000
,
0110
0000
0101
0000
1000
0000
0011
0100
1000
0000
0100
1000
0110
0000
0010
0000
,
0102
0010
0100
1010
0103
1000
0011
0000
,
2100
0000
0000
0000
0010
0100
0010
0100
0010
0000
0000
0000
0100
0000
0100
0000
0000
0000
0000
0000
0100
0000
0000
0000
0011
0000
0000
0000
3000
0000
0000
0000
,
1100
0000
0010
0000
0100
0000
0010
0000
0101
0000
0010
0000
0100
0000
0010
0000
1001
0000
0000
0000
1000
0000
0001
0000
0000
0000
0000
0210
0000
0000
0000
0000
,
0000
0000
0000
0000
0000
0000
0000
0300
,
1100
0010
0100
0010
1000
0100
1000
0000
0010
0100
0010
0100
0011
0100
1000
0100
,
0011
0100
1000
0100
0011
0100
1000
0100
0010
0000
1000
0100
0011
0000
0010
0000
,
0100
1000
0100
1000
0100
0002
0003
0020
2030
3200
0311
2000
3110
0000
0000
2000
,
3200
0322
0033
0200
0300
2000
3100
0020
0000
0200
0030
0300
2002
0000
3003
0000
,
0022
0033
0220
0330
2020
3030
0202
0303
1100
0010
1100
0010
0101
1000
0011
0100
,
0010
0001
0010
0001
1100
0010
0100
1000
0110
0001
1100
0010
0101
1000
0101
0010
,
1100
0000
0000
0100
0000
0000
0101
0000
0000
0000
0001
0000
1200
0000
0000
0300
0000
0000
1020
0000
0000
0030
0000
0000
,
0001
0010
1000
0010
0001
0010
1000
0010
0001
0010
1000
0000
0120
0000
0000
0030
,
1100
0000
0000
0000
0100
0000
0000
0000
0100
0000
0000
0000
0100
0000
0000
0011
0000
0000
0000
0000
0000
0000
0000
0000
0100
0000
0000
1000
0000
0000
0100
0000
0000
0011
0000
0000
0100
0000
0000
1000
0000
0000
0100
0000
0000
0000
0000
0000
,
0011
0000
0100
0000
1000
0000
0001
0000
0010
0000
0000
0000
1000
0000
0000
0000
0000
0000
0100
0000
0000
0000
0000
0000
0001
0000
0000
0010
0000
0000
0100
0000
0000
0010
0000
0000
0001
0000
0000
0010
0000
0000
0100
0000
0000
0010
0000
0000
,
2001
0000
0001
0000
0011
0000
0100
0100
,
0000
0001
0100
0000
0011
0000
0100
0000
,
3020
0000
0100
0000
0101
0000
0100
1000
,
0000
0100
0100
0000
1001
0000
0001
0000
,
0230
0000
1000
0000
0011
0000
0001
0001
,
0000
0001
1000
0000
1001
0000
0010
0000
,
0321
0000
0100
0000
1100
0000
1100
1100
,
0000
0000
1100
0100
1000
0000
1000
0000
0100
0000
0001
0000
0100
0000
0001
0000
,
2130
0000
0100
0000
0101
0000
0010
0010
,
0000
0100
0010
0000
0011
0000
0001
0000
,
3020
0000
0100
0000
1100
0000
1100
0101
,
0000
0101
1001
0000
1001
0000
0001
0000
,
0230
0000
0001
0000
0011
0000
1000
1000
,
0000
0010
0001
0000
0011
0000
1010
0000
,
0321
0000
0001
0000
0101
0000
1000
1000
,
0000
0000
1001
0100
1000
0000
0100
0000
1000
0000
0100
0000
0001
0000
0100
0000
,
2230
0000
0000
0000
,
3300
0000
0000
0000
;
