#TITLE:Impossible Fidelity;
#SUBTITLE:;
#ARTIST:Kernel PARADOXAL;
#TITLETRANSLIT:;
#SUBTITLETRANSLIT:;
#ARTISTTRANSLIT:;
#CREDIT:;
#BANNER:impossible.png;
#BACKGROUND:impossible-bg.png;
#LYRICSPATH:;
#CDTITLE:kcd.jpg;
#MUSIC:Impossible Fidelity.ogg;
#OFFSET:-1.650;
#SAMPLESTART:14.192;
#SAMPLELENGTH:18.697;
#SELECTABLE:YES;
#BPMS:0.000=150.000,12.000=155.000,14.000=160.000,17.000=162.500,21.000=165.000,32.000=162.500,49.000=150.000,113.000=152.500,121.000=155.000,122.500=157.500,123.500=159.999,129.000=162.499,137.000=164.999,138.500=167.499,139.500=169.999,177.000=162.499,242.000=154.999,275.000=157.499,277.000=159.999,279.000=162.499,281.000=164.999;
#STOPS:;
#BGCHANGES:;
// cache tags:
#FIRSTBEAT:0.000;
#LASTBEAT:290.000;
#SONGFILENAME:Songs/in the groove2/Impossible Fidelity/impossible.sm;
#HASMUSIC:1;
#HASBANNER:1;
#MUSICLENGTH:113.632;
// end cache tags

//---------------dance-single - ----------------
#NOTES:
     dance-single:
     :
     Hard:
     10:
     0.801,0.702,0.466,0.000,0.326,584.000,53.000,0.000,0.000,0.000:
0100
0000
0001
0000
1000
0000
0001
1000
0000
1000
0001
0000
0100
0000
0010
1000
,
0000
0010
1000
0000
0001
0000
0100
0001
0000
0100
0001
0000
1000
0000
0010
0000
,
0100
0000
0001
0000
1000
0000
0001
1000
0000
0001
1000
0000
0100
0000
0010
0000
,
0001
0000
0001
0000
1000
0000
1000
0000
0001
1000
0001
1000
0001
0000
0100
0000
,
0010
1000
1010
0000
0100
0001
1001
0000
,
0010
0010
0110
0000
1000
0001
0100
0000
,
0010
1000
1001
1001
0000
0100
0010
0001
,
0100
0000
0100
0000
0010
0000
0010
0000
1000
0001
1000
0001
1000
0000
0100
0000
,
0110
0000
1000
0001
0101
0000
0001
0000
,
1100
0000
0010
0100
1001
0000
0100
0100
,
0110
0000
1000
0001
0101
0000
0010
0000
,
1010
0000
0000
0000
0001
0000
0001
0000
1000
0000
1000
0000
0001
1000
0001
1000
,
0001
1000
0100
0100
1000
0000
1000
0001
,
0100
0100
0010
0010
1000
0001
1000
1000
,
1000
0001
0100
0010
0010
1000
0001
0001
,
0010
0000
0100
0000
1000
0000
1000
0000
0001
0000
1000
0000
0001
1000
0001
1000
,
0001
0000
0100
0000
0010
0000
1000
0001
1000
0000
0100
0000
0010
0000
0001
1000
,
0001
0000
0100
0000
0010
0000
1000
0100
1000
0000
0001
0000
0100
0010
0100
0010
,
0100
0000
0001
0000
1000
0000
0100
0010
0100
0000
0001
0000
0010
0000
0100
1000
,
0100
0000
0010
0000
0001
0000
1000
0000
0001
0000
1000
0000
0100
0010
0100
0010
,
0100
0010
0100
0010
0100
0000
0000
0000
0001
0100
0000
0100
0001
0000
0010
0000
,
0101
0000
0000
0000
1000
0000
0100
0000
0010
0001
0000
1000
0001
0000
0100
0000
,
0110
0000
0000
0000
0001
0000
1000
0000
1100
0000
0000
0001
1000
0000
0100
0000
,
0110
0000
0000
0000
0001
0000
1000
0000
0001
0000
1000
0000
0010
0100
0010
0100
,
0010
0100
0010
0100
0010
0000
0000
1000
0001
0000
0010
0000
0001
0000
0000
0010
,
1000
0000
0001
0000
1000
0000
0000
0100
0010
0000
1000
0000
0100
0000
0001
0000
,
0101
0000
0000
0000
1100
0000
0000
0001
1000
0000
0100
0000
1000
0000
0000
0010
,
0001
0000
1000
0000
0010
0000
0100
0000
0010
0000
0100
0000
0001
1000
0001
1000
,
0001
1000
0001
1000
0001
0000
0100
0000
0100
0000
0001
0000
1000
0000
0100
0000
,
0100
1000
0001
0100
0100
0001
1000
0100
,
0100
1000
0110
0000
0010
0110
0000
0001
,
1000
0100
0010
0010
0001
1000
0010
0010
,
1000
0100
0110
0000
0001
0100
0000
0100
,
0010
1000
0001
0001
1000
0100
0100
0010
,
0100
0000
1001
0000
0010
0110
0000
1000
,
0100
0010
0001
0001
1000
0010
0100
0010
,
1000
0000
0000
0000
0110
0000
1000
0000
0001
0000
0100
0010
0100
0000
0001
0000
,
1100
0000
0000
0000
1000
0000
0100
0000
0110
0000
0000
1000
0001
0000
0100
0000
,
0010
0000
0100
0000
0100
0000
0000
0000
0110
0000
0000
0001
1000
0000
0100
0000
,
1000
0001
1000
0000
0110
0001
0100
0010
,
1000
0100
0010
0010
0010
0001
1000
0001
,
0001
0100
0010
0010
0100
0100
0001
1000
,
0001
0100
0010
0000
1001
1001
0000
0100
,
0010
0000
1000
0000
0100
0000
0100
0000
0010
0000
0010
0000
0001
1000
0001
1000
,
0001
0100
0110
0000
1000
0100
1000
0010
,
1000
0001
1000
0010
0001
0100
0001
0010
,
0001
1000
0001
0100
1000
0010
1000
0100
,
1000
0010
1000
0001
0100
0100
0010
0010
,
1000
0000
0001
0000
1000
0000
0001
0000
0010
0100
0010
0100
0010
0000
0001
0000
,
1000
0100
1000
0100
1000
0000
0010
0000
0100
0001
0000
1000
0001
0000
0100
0000
,
0010
1000
1100
0001
0100
0001
0010
0001
,
0100
1000
0010
1000
0100
1000
0001
0100
,
0100
0010
1001
0000
0100
0010
1001
0000
,
0001
0010
0100
0010
0001
1000
1100
0000
,
0010
0100
0110
0000
1000
0001
0101
0000
,
0010
1000
1000
0100
0010
0001
1100
0000
,
0010
0100
0101
0000
1000
1000
0001
0001
,
0010
0100
1000
0001
0100
0010
0100
0001
,
1000
0100
0010
0000
0001
0001
1000
0001
,
0001
0100
0001
0001
1000
1000
1000
0100
,
1000
0001
1000
0001
1000
0000
0010
0000
0100
0000
0100
0000
1001
0000
0000
0000
,
0100
0010
1000
0001
0000
0010
1000
0100
,
1000
0010
1000
0000
0100
0000
0010
1001
,
0000
0000
0001
0000
0100
0000
0100
0000
0010
0000
1000
0000
0001
0000
0100
0010
,
0100
0000
0001
0000
1000
0000
0000
0000
0001
0000
0100
0000
0110
0000
1000
0001
,
1000
0000
0100
0000
0110
0000
0001
0000
1000
0010
0000
0010
0100
0000
0001
1000
,
0001
0000
0100
0000
0110
0000
0110
0000
0001
0000
1000
0000
1100
0000
0010
0001
,
0010
0000
0100
0000
1000
0000
0001
0000
0010
0100
0000
0001
1000
0000
1000
0001
,
0000
0100
0010
0000
1000
0001
1000
0001
1000
0000
0100
0000
1100
0000
0000
0001
,
0100
0000
0010
0000
0101
0000
0000
0000
1000
0000
0001
0000
0101
0000
0000
0010
,
1000
0100
1010
0000
0100
0100
1001
1001
,
0000
0010
0100
0001
0010
0010
0100
0100
,
1000
0001
1000
0001
1000
0000
0010
0000
0110
0000
0000
0000
0000
0000
0000
0000
;

//---------------dance-single - ----------------
#NOTES:
     dance-single:
     :
     Easy:
     4:
     0.333,0.415,0.317,0.106,0.000,217.000,36.000,12.000,0.000,0.000:
1000
0000
0001
0001
,
0100
0000
0010
1000
,
0100
0000
0100
0000
,
0001
1000
0001
1000
,
0100
0000
0110
0000
,
1001
0000
0100
0000
,
0010
1000
0001
1000
,
0200
0000
0000
0300
,
0110
0002
0100
0000
,
0013
2000
0100
0000
,
3001
1000
0100
0000
,
0010
1000
0001
1000
,
0001
0010
0000
0100
,
0000
1000
1000
0010
,
0000
0100
0000
0001
,
0000
0010
0001
1000
,
0001
0100
0000
0110
,
0000
1001
0000
0010
,
0000
0100
0000
1100
,
0000
0101
1000
0001
,
1000
0020
0000
0100
,
0000
0100
0030
0010
,
0100
1001
0000
0010
,
0000
1000
0001
1000
,
0001
0010
0000
0100
,
0000
1000
0000
0010
,
0010
1001
0000
0100
,
0000
0001
1000
0001
,
1000
1100
0001
0000
,
1000
0001
1000
0000
,
0100
0000
0110
0000
0000
1001
0000
1001
,
0000
0100
0100
0000
,
0001
0101
0000
1000
,
0000
0100
0000
0010
,
0000
0000
1001
0000
0000
1100
0000
0110
,
0000
0001
1000
0000
,
0100
1001
0100
0100
,
0010
0000
0001
1000
,
0001
0000
0100
0010
,
1000
0000
0100
0100
,
0010
0001
2000
0000
,
0100
0000
0010
0000
,
3100
1000
1100
0010
,
0100
0001
1000
0001
,
1000
0100
0010
0000
,
0010
0000
0001
1000
,
0100
1000
0001
0000
,
0100
0000
0010
1000
,
0001
1000
0100
0000
,
0100
0000
0100
0010
,
0010
0100
1001
1001
,
1001
1001
0010
0100
,
0010
1001
0002
0000
,
0100
0000
2003
0000
,
0100
0000
3002
0000
,
0010
0000
2003
0000
,
0010
0000
3100
1001
,
0000
0010
0100
1100
,
0000
0100
0010
0101
,
0000
0100
0010
1000
,
0001
1000
0010
1001
,
0100
0100
0002
0100
,
1000
0103
1000
0010
,
0100
0001
2000
0100
,
0001
3100
0001
0010
,
0100
1000
0020
0100
,
0000
0130
0010
1000
,
0000
0010
0100
0001
,
1000
0001
0110
0000
,
1001
0000
0110
0000
,
1001
0000
0100
0100
,
0010
1000
1100
1001
,
0101
1001
0010
0000
;

//---------------dance-single - ----------------
#NOTES:
     dance-single:
     :
     Medium:
     7:
     0.606,0.542,0.502,0.070,0.000,417.000,57.000,8.000,0.000,0.000:
0010
0000
0100
0000
0001
1000
0100
0000
,
0010
0000
0100
0000
1000
0001
0100
0001
,
1000
0000
0010
0000
1000
0100
0010
0000
,
0001
1000
0001
1000
0001
1000
0001
1000
,
0100
0101
0010
1100
,
0010
0000
0100
0000
0001
1000
1100
0000
,
0001
0000
0100
0001
0000
1000
0001
1000
,
0010
0100
0010
0100
0010
0100
0010
0100
,
1001
0010
0011
0000
,
1000
0001
1100
0000
,
0001
0100
1100
0000
,
0010
0000
1000
0001
1000
0001
1000
0001
,
1000
0001
0100
0000
0010
1000
0001
1000
,
0100
0000
0010
0001
0100
0001
1000
0100
,
1000
0001
0100
0010
1000
0000
1000
0100
,
0010
0001
0100
0100
0010
0010
1000
0001
,
1000
0001
0100
0000
0010
0100
0110
0000
,
1000
0001
0101
0000
0010
0100
0010
0010
,
0010
0000
1100
0000
0001
1000
1100
0000
,
0010
0001
1000
0010
1000
0010
1000
0010
,
1000
0010
0110
0000
0001
0000
1000
0100
,
0110
0000
0001
0100
0100
0001
1000
0100
,
0010
0100
1001
0010
,
0100
0000
0001
1000
0100
1000
0001
0010
,
0001
0100
0110
0000
1001
0000
0100
0000
,
0010
1000
0100
0000
1100
0000
0100
0001
,
1000
0001
0010
0000
0101
0000
0010
0000
,
1010
0000
0002
0100
0103
0001
2000
0100
,
3100
1000
1001
0000
0110
0000
0010
0100
,
1001
0000
0002
0000
0010
0000
1003
0001
,
0010
0000
0101
0000
1000
1100
0000
0010
,
0100
0000
0001
0000
1000
0000
0100
0010
,
0001
0000
1100
0000
0010
0000
0100
0001
,
1000
0010
0100
0001
,
1000
0000
0110
0000
0010
0110
0000
1001
,
0000
0001
0100
0000
1000
0000
0100
0000
,
0001
0000
1000
0100
1000
0000
1000
0010
,
1000
0000
0001
0100
0001
0000
0001
0010
,
0001
0000
1000
0010
1000
0000
1000
0100
,
1000
0000
0001
0010
0001
0000
0001
0100
,
0001
0000
1000
0100
0001
0000
0001
0100
,
1000
0000
0001
0100
1000
0000
1000
0100
,
0001
0000
0010
0000
1001
1001
0000
0010
,
0100
0001
1000
1000
0001
0001
0100
0010
,
0100
0010
1001
0000
0002
0000
0100
0000
,
0010
0103
2000
0100
,
3010
0000
1000
0001
0200
0000
0010
0000
,
0001
0000
0310
0100
0001
0000
1000
0000
,
0010
0000
0100
0000
0001
1000
0001
1000
,
0100
0100
0010
0010
0001
0001
0001
0100
,
0100
0100
0010
1000
0001
0100
0001
0100
,
0010
1000
0010
1000
0100
1000
0100
0010
,
0001
0010
0001
0000
1000
0000
1100
0000
,
1010
1100
0001
0101
,
1000
0001
0101
0000
0010
0000
1001
0000
,
1010
1100
0010
0100
,
0001
1000
0100
0000
0010
0000
0102
0000
,
0010
0000
1003
0000
1000
0100
1010
0000
,
0001
0110
0001
2010
,
0100
0000
3001
0000
1000
0001
1000
0001
,
1000
0001
1000
0001
0100
0000
0110
0110
,
0000
0001
1000
0100
0010
0000
1001
0000
,
0100
0001
0011
0000
0010
0000
1100
0000
,
0010
0110
0000
1000
0001
1000
0001
0010
,
0100
0010
0100
0000
1000
0000
1100
0000
,
0001
0010
0000
0010
0100
1000
0001
1000
,
0010
1000
0100
0000
0010
0000
1001
0000
,
0100
0010
0000
1000
0001
0001
0100
0100
,
0010
1000
0100
0010
0001
0000
1010
0000
,
0100
0010
1001
0000
0100
0000
0011
0000
,
0100
0010
1010
0000
0100
0000
1001
1001
,
0000
0010
0100
0001
0010
0010
0100
0100
,
1000
0001
1000
0001
0100
0000
0000
0000
;
