#TITLE:Timber;
#SUBTITLE:Sexuality Violation;
#ARTIST:Pitbull (feat. Ke$ha);
#TITLETRANSLIT:;
#SUBTITLETRANSLIT:;
#ARTISTTRANSLIT:;
#CREDIT:;
#BANNER:Timber-bn.png;
#BACKGROUND:Timber-bg.png;
#LYRICSPATH:;
#CDTITLE:;
#MUSIC:Timber.ogg;
#OFFSET:0.910;
#SAMPLESTART:52.585;
#SAMPLELENGTH:29.900;
#SELECTABLE:YES;
#DISPLAYBPM:130.000;
#BPMS:0.000=130.000;
#STOPS:;
#BGCHANGES:;
// cache tags:
#FIRSTBEAT:18.500;
#LASTBEAT:437.000;
#SONGFILENAME:Songs/Sexuality Violation 2/Timber - [TYLR]/Timber.sm;
#HASMUSIC:1;
#HASBANNER:1;
#MUSICLENGTH:204.173;
// end cache tags

//---------------dance-single - T. Moore----------------
#NOTES:
     dance-single:
     T. Moore:
     Challenge:
     14:
     1.000,1.000,0.201,0.691,1.000,1260.000,41.000,141.000,29.000,16.000:
0000
0000
0000
0000
,
0000
0000
0000
0000
,
0000
0000
0000
0000
,
0000
0000
0000
0000
,
0000
0000
0000
0000
0000
1000
0010
1000
,
1100
0000
0100
0000
0010
0000
0001
0000
0000
0000
0100
0000
0001
1000
0100
0000
,
0220
2000
0000
0000
3330
0100
0010
0001
,
4001
0000
0000
0000
0000
0000
0000
0000
0000
0000
3001
0000
0100
0001
0010
0000
,
1020
0000
0001
0000
0000
0000
0031
0000
0000
0000
1000
0000
0010
0100
0001
0000
,
1001
0000
1000
0000
0100
0000
0010
0000
0000
0000
1000
0000
0001
0100
0010
0000
,
2020
0002
0000
0000
3033
1000
0010
0100
,
0104
0000
0000
0000
0000
0000
0000
0000
0003
0000
1000
0000
0100
0010
0001
0000
,
0201
0020
0000
0000
0330
0000
0MM0
2000
,
0001
0000
3002
0023
0032
0000
1003
0000
,
1000
0000
0020
0000
0230
0302
2003
0000
3200
0000
0000
0000
0310
0000
0000
0000
,
0010
0000
0002
0000
2003
0000
3002
0000
2003
0000
3020
0000
0230
0302
2003
3000
,
0200
0000
0320
0000
0032
2003
3020
0030
0200
0000
0000
0000
0301
0000
0020
0000
,
0001
0030
0002
2003
3002
0000
0103
0000
,
0100
0000
0020
0000
2030
3002
0023
0030
0200
0000
0000
0000
1300
0000
0000
0000
,
1000
0000
0020
0000
0230
0000
0320
0000
0230
0000
0302
0000
2003
3200
0320
0030
,
0002
0000
0000
0000
0000
0000
0000
0000
0203
0000
0000
0000
0000
0000
0000
0000
0320
0000
0000
0000
2030
0000
0000
0000
3002
0000
0000
0000
0003
0000
0000
0000
0020
0000
0000
0000
0000
0000
0000
0000
0000
0000
0000
0000
0000
0000
0000
0030
1100
0000
0000
0000
0000
0000
0000
0000
0000
0000
0000
0000
1000
0000
0000
0000
,
0010
0010
0001
1000
0000
0010
0100
0100
2000
0002
0000
0000
3103
0000
1000
0000
,
0010
0010
0001
1000
0000
0010
0100
0100
2000
0002
0000
0000
3013
0000
0001
0000
,
1000
0010
0100
0000
0001
0000
0010
0001
0000
0001
0100
0000
0200
0000
0000
0000
,
0310
1000
0100
0010
0001
0000
0001
1000
0000
0000
0000
0000
MMMM
0000
0000
0000
,
2002
0000
0000
0020
0000
0000
0100
0000
0000
0M00
3033
0000
MMMM
0000
0000
0000
,
1000
0000
1000
0100
0000
0100
0010
0000
0010
2000
0000
3000
MMMM
0000
0000
0000
,
0001
0100
0010
1000
0002
0000
0023
0000
2030
0000
3000
0010
0100
0000
0100
1000
,
0000
0000
0001
1000
0001
0000
0001
0100
0000
0000
0000
0000
MMMM
0000
0000
0000
,
1000
0010
0100
0001
1000
0100
0010
0001
1000
0010
0001
0100
1000
0010
0001
0100
,
1000
0001
1000
0010
0100
0001
1000
0001
0010
0100
0010
0001
0100
0010
1000
0001
,
0010
0100
0010
0001
1000
0001
0100
0010
1000
0001
1000
0100
0010
0001
1000
0010
,
0100
0001
0100
0010
1000
0001
1000
0100
0010
0001
1000
0010
0100
0001
1000
0001
,
0010
0100
0010
0001
1000
0010
0100
0001
0010
1000
0100
0001
0010
1000
0100
0001
,
1000
0100
0010
0001
1000
0001
0100
0010
1000
0001
0010
0001
0100
0010
1000
0001
,
0010
0100
0010
0001
1000
0010
0100
0001
0010
0100
1000
0001
0100
0010
1000
0001
,
0010
0100
0010
0001
1000
0010
0100
0001
0010
0100
0020
0000
0032
0000
2003
3000
,
1100
0000
0100
0000
0010
0000
0001
0000
0000
0000
0100
0000
0001
1000
0100
0000
,
0220
2000
0000
0000
3330
0100
0010
0001
,
4001
0000
0000
0000
0000
0000
0000
0000
0000
0000
3001
0000
0100
0001
0010
0000
,
1020
0000
0001
0000
0000
0000
0031
0000
0000
0000
1000
0000
0010
0100
0001
0000
,
1001
0000
1000
0000
0100
0000
0010
0000
0000
0000
1000
0000
0001
0100
0010
0000
,
2020
0002
0000
0000
3033
1000
0010
0100
,
0104
0000
0000
0000
0000
0000
0000
0000
0003
0000
1000
0000
0100
0010
0001
0000
,
0201
0020
0000
0000
0330
1000
0001
0010
,
0110
0000
0100
0000
2000
0000
3020
0000
0230
0000
0301
0000
1000
0100
0010
0000
,
0022
2000
0000
0000
3033
0001
0010
0100
,
1000
0000
0020
0000
0230
0000
0320
0000
2030
0000
3001
0000
0010
0100
1000
0000
,
1001
0000
0002
0000
0023
0000
0032
0000
0203
0000
0310
0000
1000
0001
0010
0000
,
0110
0000
0100
0000
1000
0000
0001
0000
1000
0000
0010
0000
0100
0001
1000
0000
,
2200
0002
0000
0000
3303
1000
0100
0010
,
0014
0000
0000
0000
0000
0000
0000
0000
0003
0000
1000
0000
0010
0100
0001
0000
,
1000
0000
0200
0000
0320
0000
0032
0000
0000
0000
2000
0000
3000
0000
2000
0003
,
3001
0010
0001
1000
0100
0010
0001
0100
0010
1000
0001
0010
0001
1000
0010
0100
0001
1000
0001
0100
0010
1000
0001
1000
,
0100
0010
0001
0100
0001
1000
0100
0010
0100
1000
0001
0100
0010
1000
0001
1000
0100
0010
0001
1000
0001
0010
0100
1000
,
0001
0100
0001
0010
0100
1000
0001
0100
0001
0010
0100
1000
0001
0100
0010
1000
0001
1000
0100
0010
0001
1000
0001
1000
,
0010
0100
0001
1000
0100
0010
0001
1000
0001
0100
0010
1000
0001
0010
0001
1000
0010
0100
0001
1000
0010
0100
0001
0010
,
0001
0100
0001
1000
0010
0100
0001
0010
0100
1000
0001
0100
0001
1000
0100
0010
0001
1000
0001
0010
0100
1000
0001
1000
,
0010
0100
0001
0010
0001
1000
0010
0100
0010
1000
0001
0010
0100
1000
0001
1000
0010
0100
0001
1000
0001
0100
0010
1000
,
0001
0010
0001
0100
0010
1000
0001
0010
0001
0100
0010
1000
0001
0010
0100
1000
0001
1000
0010
0100
0001
1000
0001
1000
,
0100
0010
0001
1000
0010
0100
0001
1000
0001
0010
0100
1000
0001
0100
0001
1000
0100
0010
0002
0000
0000
0000
0000
0000
,
1003
0010
0100
0001
0010
0000
0100
1000
0010
0000
0100
0001
1000
0000
0000
0000
,
0100
0010
0001
0000
1000
0000
0001
0100
0010
0000
0010
0000
1010
0000
0000
0000
,
1000
0100
0000
0010
0000
0010
0000
0000
0001
1000
0000
1001
0000
0000
0000
0000
,
1010
0000
0010
0100
0000
0000
0000
0000
0001
1000
0100
0010
0001
0000
1000
0000
,
0101
0001
1000
0100
0010
0000
0001
1000
0000
0000
0000
0000
MMMM
0000
0000
0000
,
1000
0010
0100
0001
0010
0000
0100
1000
0000
0000
0000
0000
MMMM
0000
0000
0000
,
1000
0000
1000
0010
0000
0010
0100
0000
0000
0000
0000
0000
1MM1
0000
0000
0001
,
0010
0000
0000
0010
0100
0000
0000
0100
2000
0000
0000
0000
3111
0000
0000
0000
,
1000
0010
0100
0001
1000
0100
0010
0001
1000
0010
0001
0100
1000
0010
0001
0100
,
1000
0001
1000
0010
0100
0001
1000
0001
0010
0100
0010
0001
0100
0010
1000
0001
,
0010
0100
0010
0001
1000
0001
0100
0010
1000
0001
1000
0100
0010
0001
1000
0010
,
0100
0001
0100
0010
1000
0001
1000
0100
0010
0001
1000
0010
0100
0001
1000
0001
,
0010
0100
0010
0001
1000
0010
0100
0001
0010
1000
0100
0001
0010
1000
0100
0001
,
1000
0100
0010
0001
1000
0001
0100
0010
1000
0001
0010
0001
0100
0010
1000
0001
,
0010
0100
0010
0001
1000
0010
0100
0001
0010
0100
1000
0001
0100
0010
1000
0001
,
0010
0100
0010
0001
1000
0010
0100
0001
0010
0100
0020
0000
0032
0000
2003
3000
,
1100
0000
0100
0000
0010
0000
0001
0000
0000
0000
0100
0000
0001
1000
0100
0000
,
0220
2000
0000
0000
3330
0100
0010
0001
,
4001
0000
0000
0000
0000
0000
0000
0000
0000
0000
3001
0000
0100
0001
0010
0000
,
1020
0000
0001
0000
0000
0000
0031
0000
0000
0000
1000
0000
0010
0100
0001
0000
,
1001
0000
1000
0000
0100
0000
0010
0000
0000
0000
1000
0000
0001
0100
0010
0000
,
2020
0002
0000
0000
3033
1000
0010
0100
,
0104
0000
0000
0000
0000
0000
0000
0000
0003
0000
1000
0000
0100
0010
0001
0000
,
0201
0020
0000
0000
0300
1030
0001
0010
,
0110
0000
0100
0000
2000
0000
3020
0000
0230
0000
0301
0000
1000
0100
0010
0000
,
0022
2000
0000
0000
3033
0001
0010
0100
,
4100
0000
0000
0000
0000
0000
0000
0000
0000
0000
3001
0000
1000
0010
0100
0000
,
0101
0000
0002
0000
0023
0000
0032
0000
0203
0000
0310
0000
1000
0001
0010
0000
,
0110
0000
0200
0000
2300
0000
3002
0000
0203
0000
0310
0000
1000
0001
0010
0000
,
0220
2000
0000
0000
3330
0100
0010
0001
,
1001
0000
2000
0000
3020
0000
2030
0000
3200
0000
0310
0000
0001
0010
0100
0000
,
1000
0020
0000
0200
0000
0002
0333
0000
,
0100
0010
1000
0010
0100
0001
1000
0100
0010
0001
0010
0100
1000
0001
0100
0010
1000
0001
1000
0010
0100
0001
1000
0001
,
0010
0100
1000
0010
1000
0001
0010
0100
0010
0001
1000
0010
0100
0001
1000
0001
0010
0100
1000
0001
1000
0100
0010
0001
,
1000
0010
1000
0100
0010
0001
1000
0010
1000
0100
0010
0001
1000
0010
0100
0001
1000
0001
0010
0100
1000
0001
1000
0001
,
0100
0010
1000
0001
0010
0100
1000
0001
1000
0010
0100
0001
1000
0100
1000
0001
0100
0010
1000
0001
0100
0010
1000
0100
,
1000
0010
1000
0001
0100
0010
1000
0100
0010
0001
1000
0010
1000
0001
0010
0100
1000
0001
1000
0100
0010
0001
1000
0001
,
0100
0010
1000
0100
1000
0001
0100
0010
0100
0001
1000
0100
0010
0001
1000
0001
0100
0010
1000
0001
1000
0010
0100
0001
,
1000
0100
1000
0010
0100
0001
1000
0100
1000
0010
0100
0001
1000
0100
0010
0001
1000
0001
0100
0010
1000
0001
1000
0001
,
0010
0100
1000
0001
0100
0010
1000
0001
1000
0100
0010
0001
1000
0010
1000
0001
0010
0100
2000
0000
0000
3001
0000
0000
,
1000
0010
1000
0001
1000
0100
0010
0100
1000
0001
0010
0001
1000
0010
0100
0001
1000
0010
1000
0001
0100
0010
1000
0001
,
0010
0100
1000
0010
1000
0001
0010
0100
0010
0001
1000
0010
0100
0001
1000
0001
0010
0100
1000
0001
1000
0100
0010
0001
,
1000
0010
1000
0100
0010
0001
1000
0010
1000
0100
0010
0001
1000
0010
0100
0001
1000
0001
0010
0100
1000
0001
1000
0001
,
0100
0010
1000
0001
0010
0100
1000
0001
1000
0010
0100
0001
1000
0100
1000
0001
0100
0010
1000
0001
0100
0010
1000
0100
,
1000
0010
1000
0001
0100
0010
1000
0100
0010
0001
1000
0010
1000
0001
0010
0100
1000
0001
1000
0100
0010
0001
1000
0001
,
0100
0010
1000
0100
1000
0001
0100
0010
0100
0001
1000
0100
0010
0001
1000
0001
0100
0010
1000
0001
1000
0010
0100
0001
,
1000
0100
1000
0010
0100
0001
1000
0100
1000
0010
0100
0001
1000
0100
0010
0001
1000
0001
0100
0010
1000
0001
1000
0001
,
0010
0100
1000
0001
0100
0010
1000
0001
1000
0100
0010
0001
1000
0010
1000
0001
0010
0100
1000
0001
1000
0010
0100
0001
,
2000
3000
0000
0000
;

//---------------dance-single - T. Moore + Gazebo----------------
#NOTES:
     dance-single:
     T. Moore + Gazebo:
     Hard:
     11:
     0.882,0.883,0.201,0.686,0.970,1074.000,41.000,140.000,29.000,16.000:

0000
0000
0000
0000
,
0000
0000
0000
0000
,
0000
0000
0000
0000
,
0000
0000
0000
0000
,
0000
0000
0000
0000
0000
1000
0010
1000
,
1100
0000
0100
0000
0010
0000
0001
0000
0000
0000
0100
0000
0001
1000
0100
0000
,
0220
2000
0000
0000
3330
0100
0010
0001
,
4001
0000
0000
0000
0000
0000
0000
0000
0000
0000
3001
0000
0100
0001
0010
0000
,
1020
0000
0001
0000
0000
0000
0031
0000
0000
0000
1000
0000
0010
0100
0001
0000
,
1001
0000
1000
0000
0100
0000
0010
0000
0000
0000
1000
0000
0001
0100
0010
0000
,
2020
0002
0000
0000
3033
1000
0010
0100
,
0104
0000
0000
0000
0000
0000
0000
0000
0003
0000
1000
0000
0100
0010
0001
0000
,
0201
0020
0000
0000
0330
0000
0MM0
2000
,
0001
0000
3002
0023
0032
0000
1003
0000
,
1000
0000
0020
0000
0230
0302
2003
0000
3200
0000
0000
0000
0310
0000
0000
0000
,
0010
0000
0002
0000
2003
0000
3002
0000
2003
0000
3020
0000
0230
0302
2003
3000
,
0200
0000
0320
0000
0032
2003
3020
0030
0200
0000
0000
0000
0301
0000
0020
0000
,
0001
0030
0002
2003
3002
0000
0103
0000
,
0100
0000
0020
0000
2030
3002
0023
0030
0200
0000
0000
0000
1300
0000
0000
0000
,
1000
0000
0020
0000
0230
0000
0320
0000
0230
0000
0302
0000
2003
3200
0320
0030
,
0002
0000
0000
0000
0000
0000
0000
0000
0203
0000
0000
0000
0000
0000
0000
0000
0320
0000
0000
0000
2030
0000
0000
0000
3002
0000
0000
0000
0003
0000
0000
0000
0020
0000
0000
0000
0000
0000
0000
0000
0000
0000
0000
0000
0000
0000
0000
0030
1100
0000
0000
0000
0000
0000
0000
0000
0000
0000
0000
0000
1000
0000
0000
0000
,
0010
0010
0001
1000
0000
0010
0100
0100
2000
0002
0000
0000
3103
0000
1000
0000
,
0010
0010
0001
1000
0000
0010
0100
0100
2000
0002
0000
0000
3013
0000
0001
0000
,
1000
0010
0100
0000
0001
0000
0010
0001
0000
0001
0100
0000
0200
0000
0000
0000
,
0310
1000
0100
0010
0001
0000
0001
1000
0000
0000
0000
0000
MMMM
0000
0000
0000
,
2002
0000
0000
0020
0000
0000
0100
0000
0000
0M00
3033
0000
MMMM
0000
0000
0000
,
1000
0000
1000
0100
0000
0100
0010
0000
0010
2000
0000
3000
MMMM
0000
0000
0000
,
0001
0100
0010
1000
0002
0000
0023
0000
2030
0000
3000
0010
0100
0000
0100
1000
,
0000
0000
0001
1000
0001
0000
0001
0100
0000
0000
0000
0000
MMMM
0000
0000
0000
,
1000
0010
0100
0001
1000
0100
0010
0001
1000
0010
0001
0100
1000
0010
0001
0100
,
1000
0001
1000
0010
0100
0001
1000
0001
0010
0100
0010
0001
0100
0010
1000
0001
,
0010
0100
0010
0001
1000
0001
0100
0010
1000
0001
1000
0100
0010
0001
1000
0010
,
0100
0001
0100
0010
1000
0001
1000
0100
0010
0001
1000
0010
0100
0001
1000
0001
,
0010
0100
0010
0001
1000
0010
0100
0001
0010
1000
0100
0001
0010
1000
0100
0001
,
1000
0100
0010
0001
1000
0001
0100
0010
1000
0001
0010
0001
0100
0010
1000
0001
,
0010
0100
0010
0001
1000
0010
0100
0001
0010
0100
1000
0001
0100
0010
1000
0001
,
0010
0100
0010
0001
1000
0010
0100
0001
0010
0100
0020
0000
0032
0000
2003
3000
,
1100
0000
0100
0000
0010
0000
0001
0000
0000
0000
0100
0000
0001
1000
0100
0000
,
0220
2000
0000
0000
3330
0100
0010
0001
,
4001
0000
0000
0000
0000
0000
0000
0000
0000
0000
3001
0000
0100
0001
0010
0000
,
1020
0000
0001
0000
0000
0000
0031
0000
0000
0000
1000
0000
0010
0100
0001
0000
,
1001
0000
1000
0000
0100
0000
0010
0000
0000
0000
1000
0000
0001
0100
0010
0000
,
2020
0002
0000
0000
3033
1000
0010
0100
,
0104
0000
0000
0000
0000
0000
0000
0000
0003
0000
1000
0000
0100
0010
0001
0000
,
0201
0020
0000
0000
0330
1000
0001
0010
,
0110
0000
0100
0000
2000
0000
3020
0000
0230
0000
0301
0000
1000
0100
0010
0000
,
0022
2000
0000
0000
3033
0001
0010
0100
,
1000
0000
0020
0000
0230
0000
0320
0000
2030
0000
3001
0000
0010
0100
1000
0000
,
1001
0000
0002
0000
0023
0000
0032
0000
0203
0000
0310
0000
1000
0001
0010
0000
,
0110
0000
0100
0000
1000
0000
0001
0000
1000
0000
0010
0000
0100
0001
1000
0000
,
2200
0002
0000
0000
3303
1000
0100
0010
,
0014
0000
0000
0000
0000
0000
0000
0000
0003
0000
1000
0000
0010
0100
0001
0000
,
1000
0000
0200
0000
0320
0000
0032
0000
0000
0000
2000
0000
3000
0000
2000
0003
,
3001
0100
0001
0100
0010
1000
0100
1000
0010
0100
0001
1000
0001
0010
0100
1000
,
0100
1000
0010
1000
0100
0010
0001
1000
0010
0100
0010
0100
0010
1000
0001
1000
,
0001
0010
0001
0100
0001
0010
0001
0100
0001
1000
0010
1000
0100
0010
0001
1000
,
0010
1000
0100
1000
0010
0100
0001
1000
0100
0010
0100
0010
0100
1000
0010
1000
,
0001
0100
0001
0100
0010
1000
0100
1000
0010
0100
0001
1000
0001
0010
0100
1000
,
0100
1000
0010
1000
0100
0010
0001
1000
0010
0100
0010
0100
0010
1000
0001
1000
,
0001
0010
0001
0100
0001
0010
0001
0100
0001
1000
0010
1000
0100
0010
0001
1000
,
0010
1000
0100
1000
0010
0100
0001
1000
0100
0010
0100
0010
0002
0000
0000
0000
,
1003
0010
0100
0001
0010
0000
0100
1000
0010
0000
0100
0001
1000
0000
0000
0000
,
0100
0010
0001
0000
1000
0000
0001
0100
0010
0000
0010
0000
1010
0000
0000
0000
,
1000
0100
0000
0010
0000
0010
0000
0000
0001
1000
0000
1001
0000
0000
0000
0000
,
1010
0000
0010
0100
0000
0000
0000
0000
0001
1000
0100
0010
0001
0000
1000
0000
,
0101
0001
1000
0100
0010
0000
0001
1000
0000
0000
0000
0000
MMMM
0000
0000
0000
,
1000
0010
0100
0001
0010
0000
0100
1000
0000
0000
0000
0000
MMMM
0000
0000
0000
,
1000
0000
1000
0010
0000
0010
0100
0000
0000
0000
0000
0000
1MM1
0000
0000
0001
,
0010
0000
0000
0010
0100
0000
0000
0100
2000
0000
0000
0000
3111
0000
0000
0000
,
1000
0010
0100
0001
1000
0100
0010
0001
1000
0010
0001
0100
1000
0010
0001
0100
,
1000
0001
1000
0010
0100
0001
1000
0001
0010
0100
0010
0001
0100
0010
1000
0001
,
0010
0100
0010
0001
1000
0001
0100
0010
1000
0001
1000
0100
0010
0001
1000
0010
,
0100
0001
0100
0010
1000
0001
1000
0100
0010
0001
1000
0010
0100
0001
1000
0001
,
0010
0100
0010
0001
1000
0010
0100
0001
0010
1000
0100
0001
0010
1000
0100
0001
,
1000
0100
0010
0001
1000
0001
0100
0010
1000
0001
0010
0001
0100
0010
1000
0001
,
0010
0100
0010
0001
1000
0010
0100
0001
0010
0100
1000
0001
0100
0010
1000
0001
,
0010
0100
0010
0001
1000
0010
0100
0001
0010
0100
0020
0000
0032
0000
2003
3000
,
1100
0000
0100
0000
0010
0000
0001
0000
0000
0000
0100
0000
0001
1000
0100
0000
,
0220
2000
0000
0000
3330
0100
0010
0001
,
4001
0000
0000
0000
0000
0000
0000
0000
0000
0000
3001
0000
0100
0001
0010
0000
,
1020
0000
0001
0000
0000
0000
0031
0000
0000
0000
1000
0000
0010
0100
0001
0000
,
1001
0000
1000
0000
0100
0000
0010
0000
0000
0000
1000
0000
0001
0100
0010
0000
,
2020
0002
0000
0000
3033
1000
0010
0100
,
0104
0000
0000
0000
0000
0000
0000
0000
0003
0000
1000
0000
0100
0010
0001
0000
,
0201
0020
0000
0000
0300
1030
0001
0010
,
0110
0000
0100
0000
2000
0000
3020
0000
0230
0000
0301
0000
1000
0100
0010
0000
,
0022
2000
0000
0000
3033
0001
0010
0100
,
4100
0000
0000
0000
0000
0000
0000
0000
0000
0000
3001
0000
1000
0010
0100
0000
,
0101
0000
0002
0000
0023
0000
0032
0000
0203
0000
0310
0000
1000
0001
0010
0000
,
0110
0000
0200
0000
2300
0000
3002
0000
0203
0000
0310
0000
1000
0001
0010
0000
,
0220
2000
0000
0000
3330
0100
0010
0001
,
1001
0000
2000
0000
3020
0000
2030
0000
3200
0000
0310
0000
0001
0010
0100
0000
,
1000
0020
0000
0200
0000
0002
0333
0000
,
1000
0010
1000
0010
0100
0001
0010
0001
0100
0010
1000
0001
1000
0100
0010
0001
,
0010
0001
0100
0001
0010
0100
1000
0001
0100
0010
0100
0010
0100
0001
1000
0001
,
1000
0100
1000
0010
1000
0100
1000
0010
1000
0001
0100
0001
0010
0100
1000
0001
,
0100
0001
0010
0001
0100
0010
1000
0001
0010
0100
0010
0100
0010
0001
0100
0001
,
1000
0010
1000
0010
0100
0001
0010
0001
0100
0010
1000
0001
1000
0100
0010
0001
,
0010
0001
0100
0001
0010
0100
1000
0001
0100
0010
0100
0010
0100
0001
1000
0001
,
1000
0100
1000
0010
1000
0100
1000
0010
1000
0001
0100
0001
0010
0100
1000
0001
,
0100
0001
0010
0001
0100
0010
1000
0001
0010
0100
0010
0100
1000
0010
1000
0001
,
1000
0010
1000
0010
0100
0001
0010
0001
0100
0010
1000
0001
1000
0100
0010
0001
,
0010
0001
0100
0001
0010
0100
1000
0001
0100
0010
0100
0010
0100
0001
1000
0001
,
1000
0100
1000
0010
1000
0100
1000
0010
1000
0001
0100
0001
0010
0100
1000
0001
,
0100
0001
0010
0001
0100
0010
1000
0001
0010
0100
0010
0100
0010
0001
0100
0001
,
1000
0010
1000
0010
0100
0001
0010
0001
0100
0010
1000
0001
1000
0100
0010
0001
,
0010
0001
0100
0001
0010
0100
1000
0001
0100
0010
0100
0010
0100
0001
1000
0001
,
1000
0100
1000
0010
1000
0100
1000
0010
1000
0001
0100
0001
0010
0100
1000
0001
,
0100
0001
0010
0001
0100
0010
1000
0001
0010
0100
0010
0100
1000
0001
0100
0001
,
2000
3000
0000
0000
;
