#TITLE:All Systems Go;
#SUBTITLE:;
#ARTIST:Kurwastyle Project;
#TITLETRANSLIT:;
#SUBTITLETRANSLIT:;
#ARTISTTRANSLIT:;
#CREDIT:Rynker;
#BANNER:all systems bn.png;
#BACKGROUND:all systems bg.png;
#LYRICSPATH:;
#CDTITLE:;
#MUSIC:105 Kurwastyle Project - All Systems Go.ogg;
#OFFSET:-0.163;
#SAMPLESTART:58.794;
#SAMPLELENGTH:12.000;
#SELECTABLE:YES;
#DISPLAYBPM:229.000;
#BPMS:0.000=228.560;
#STOPS:;
#BGCHANGES:;
// cache tags:
#FIRSTBEAT:16.000;
#LASTBEAT:540.000;
#SONGFILENAME:Songs/SPEEEDCOOOORE 2/All Systems Go - [Rynker]/all systems go.sm;
#HASMUSIC:1;
#HASBANNER:1;
#MUSICLENGTH:144.200;
// end cache tags

//---------------dance-single - Rynker----------------
#NOTES:
     dance-single:
     Rynker:
     Challenge:
     16:
     1.000,1.000,0.083,0.132,1.000,1321.000,12.000,19.000,2.000,0.000:

0000
0000
0000
0000
,
0000
0000
0000
0000
,
0000
0000
0000
0000
,
0000
0000
0000
0000
,
1000
0100
0000
0010
0001
0000
0000
0000
0100
0001
0000
1000
0010
0000
0000
0000
,
0100
0000
0100
0000
0001
0000
1000
0100
1000
0100
0010
0001
1000
0001
1000
0000
,
0010
0000
0100
0001
0100
0000
0001
1000
0010
1000
0001
1000
0010
1000
0001
1000
,
0001
0000
0100
0001
0100
0000
0001
0000
1000
0001
0010
0100
1000
0000
0000
0000
,
1001
0000
0000
1000
0000
0000
0000
0000
0010
0000
0000
0100
0000
0000
0101
0000
,
0101
0000
0001
0000
1000
0000
1100
0000
0100
1000
0100
0000
1000
0000
0001
0000
,
0100
0000
0010
1000
0010
0000
0100
0001
0100
0001
1000
0100
0010
0000
0000
0001
,
0010
0000
0100
0000
1000
0000
0001
0100
0010
0100
0001
1000
0001
0000
0000
0000
,
1000
0000
0000
1000
0000
0000
0000
0000
0001
0000
0000
0001
0000
0000
0010
0000
,
0010
0000
0100
0000
1000
0000
0001
0100
0001
0100
0001
1000
0010
1000
0010
0000
,
1000
0001
0001
0010
0100
0100
1000
0001
,
0100
0001
1000
0001
1000
0000
0000
0000
0001
0000
0000
0000
0010
0000
0000
0000
,
0100
1000
0000
0001
0010
0000
0001
0100
0010
1000
0000
0001
0100
0001
1000
0001
,
1000
0100
0000
0010
0001
0000
1000
0100
1000
0001
0000
0100
0001
1000
0001
1000
,
0001
1000
0001
0010
0010
0100
1000
0001
,
0001
0000
0100
0000
0010
0000
1000
0000
1000
0010
1000
0000
0001
0000
0010
0000
,
0100
1000
0000
0001
0010
0000
0001
0100
0010
1000
0010
1000
0001
1000
0001
0010
,
0100
1000
0000
0001
0010
0000
0001
0100
0010
0100
0001
1000
0010
0100
0001
1000
,
0001
1000
0010
0100
0100
0001
1000
0100
,
0010
0001
0010
0001
1000
0001
1000
0001
1000
0001
1000
0010
0100
0001
1000
0000
,
0001
0010
0000
0100
1000
0000
0001
0100
0001
0100
0000
0010
1000
0010
1000
0001
,
1000
0001
0000
0010
0100
0000
1000
0100
0010
0001
0000
1000
0100
1000
0100
1000
,
0001
0100
0010
0100
0001
0100
0010
0100
,
0001
0010
0100
1000
0001
0001
0001
0100
,
0010
0100
0001
0100
0010
1000
0001
1000
0001
0010
0100
0010
0100
1000
0001
1000
,
0001
0100
0001
0100
0010
1000
0001
1000
0100
0010
0001
1000
0001
0100
0010
1000
,
0001
0100
0010
0100
0001
0100
0010
0100
,
0001
0000
0010
0000
0100
0000
0010
0000
0001
0000
0010
0000
0100
1000
0010
0100
,
0010
0100
0000
0001
1000
0000
0100
0010
0100
1000
0000
0010
0100
0010
0100
0001
,
1000
0001
0000
0010
0100
0010
0001
1000
0001
0100
0000
0010
0100
0001
1000
0001
,
1000
0100
0100
0010
0001
0001
1000
0100
,
1000
0001
0100
0001
0100
0000
0010
0000
0010
0000
0100
0000
0001
0000
0001
0000
,
1000
0100
0010
0100
1000
0001
0010
0100
0010
0001
1000
0001
0010
0100
1000
0001
,
0010
0001
1000
0010
0100
0010
0100
0001
1000
0001
0010
0100
1000
0001
0010
0001
,
0100
0001
0010
0001
0100
0001
0010
0001
,
0100
0010
1000
0100
1000
0010
2000
0000
,
3001
0100
0010
1000
0100
1000
0020
0000
,
0130
0001
0010
0100
1000
0001
0200
0000
,
0301
0010
0100
0010
0001
0100
0002
0000
,
1003
0000
0001
0000
0010
0000
0001
0000
1000
0000
0010
0000
0100
0000
0001
1000
,
0200
1300
0010
0100
0002
0013
0100
0010
,
0002
1003
0001
0100
0020
1030
0010
0100
,
0002
0013
0100
0010
0002
0103
0010
1000
,
0200
0310
0100
1000
0020
0130
0001
0010
,
0001
1000
0001
1000
0001
0000
1000
0000
0000
0000
1000
0010
1000
0000
0001
0000
,
1000
0001
1000
0001
0010
0100
1000
0001
1000
0001
1000
0010
0100
0010
1000
0001
,
0010
0100
1000
0001
0100
0000
0200
0000
0300
0000
0010
1000
0010
0000
1000
0000
,
0001
0010
0001
0010
0001
1000
0100
0000
1000
0100
1000
0000
0001
0000
0100
0000
,
0001
0100
0001
0100
0010
0000
0200
0000
0300
0000
0010
1000
0010
0000
1000
0000
,
0001
0010
0001
1000
0100
1000
0001
0000
0010
0001
0010
0001
1000
0000
0001
0000
,
0100
0001
1000
0001
1000
0000
0002
0000
0000
0003
0100
0010
0100
0000
0010
0000
,
1000
0010
1000
0001
0100
0001
1000
0000
0001
0010
0100
1000
0001
0010
0001
1000
,
0010
0000
0000
0000
,
1001
1000
0010
0100
0001
0010
0100
1000
,
0001
0000
0010
0000
0100
1000
0100
1000
0010
0100
0010
0100
0001
0100
0001
1000
,
0001
1000
0100
1000
0100
1000
0001
1000
0001
0000
0000
0000
0000
0000
0000
0000
,
1000
0001
0010
0001
1000
0001
0100
0001
0100
0010
1000
0010
0100
0001
1000
0001
,
1000
0010
0100
0010
1000
0001
1000
0100
0010
0100
1000
0001
0010
0100
1000
0001
,
0100
0010
0100
0001
1000
0010
1000
0001
0100
0010
1000
0010
1000
0001
0100
0010
,
1000
0010
0100
0001
0100
0010
1000
0001
0010
0100
1000
0001
0010
0100
1000
0001
,
1000
0001
0100
0010
1000
0001
0100
0010
0100
0010
1000
0001
0010
0100
0010
0001
,
1000
0001
0010
0100
1000
0100
0010
0001
1000
0000
0000
0000
4000
0000
3000
0000
,
0001
0100
0010
0100
0001
1000
0010
0100
0001
1000
0100
0010
0001
1000
0010
0100
,
0001
1000
0010
1000
0001
0100
0010
0100
0010
1000
0001
0010
0001
0000
1000
0000
,
0100
0010
0100
0010
0001
0000
1000
0010
0100
0000
0001
0010
0100
0000
1000
0100
,
0010
0000
0001
0100
0010
0000
1000
0100
0010
0000
0001
0100
0001
0000
1000
0100
,
0010
0000
0001
0100
0010
0000
1000
0100
0010
0000
0001
0100
0010
0000
1000
0100
,
0010
0000
0000
0000
,
1000
0100
0010
0001
1000
0001
0010
0100
1000
0001
0010
0001
1000
0010
1000
0010
,
0100
0001
1000
0001
0100
0010
1000
0001
0010
0100
1000
0001
0010
0001
1000
0001
,
0100
0001
0100
0010
1000
0001
1000
0001
0100
0010
0100
0001
1000
0001
1000
0001
,
0100
0010
1000
0001
1000
0100
0010
0001
1000
0000
0000
0000
0004
0000
0003
0000
,
0100
0010
1000
0100
0010
0001
1000
0001
,
0100
0010
1000
0100
0010
0100
1000
0010
,
0100
0001
0010
0001
1000
0001
0100
0010
,
1000
0000
0010
0000
0100
0000
0001
0000
0010
0100
1000
0001
0100
0010
0100
0001
,
1000
0001
0100
0000
0010
1000
0001
0000
,
0010
0100
1000
0000
0100
0010
0001
0000
,
1000
0000
0001
0100
0001
0000
1000
0000
0100
0000
0010
0000
0001
0000
1000
0000
,
1001
0001
0100
0010
0010
1000
0001
1000
,
1100
0000
0100
0000
0010
0000
0001
0010
0001
0000
1000
0000
0010
0000
0100
0000
,
0001
0000
0100
0000
0010
0000
1000
0001
1000
0001
1000
0000
0001
0000
0001
0000
,
0011
0000
0010
0000
0100
0000
1000
0100
1000
0100
1000
0001
1000
0000
0001
0100
,
0001
0000
1000
0000
0010
0000
0100
0000
0001
1000
0100
0000
1100
0000
1000
0000
,
0001
0100
0010
0100
0001
1000
0100
0010
,
0001
0100
0010
0100
0001
1000
0100
0000
,
0100
0000
0000
0000
0100
0000
0010
0000
0100
1000
0100
1000
0001
0100
0001
0100
,
0010
0000
1000
0000
,
1000
0000
0000
0000
0000
0000
0000
0000
1000
0000
0000
0010
0100
0000
0001
0000
,
1000
0001
0010
0001
0100
0010
1000
0100
,
0010
0000
0001
0000
0100
0000
0010
0000
0100
0000
0001
0000
1000
0000
0100
0010
,
0001
0010
0100
1000
0001
0100
0010
0100
,
0001
1000
0001
0000
1000
0000
0000
0000
0100
0000
0000
0000
1000
0001
1000
0001
,
1000
0000
0001
0000
0010
0000
0100
1000
0100
1000
0001
1000
0100
0000
0010
0001
,
0010
0001
1000
0001
0010
0001
1000
0000
0010
0000
0100
0000
0010
0000
1000
0001
,
1000
0001
0010
0100
1000
0000
0001
0100
0001
0000
1000
0100
1000
0000
0001
0010
,
0001
0010
0100
1000
0001
1000
0001
0000
1000
0000
0001
0100
0001
0000
1000
0010
,
0100
0010
1000
0001
1000
0001
1000
0010
0100
0000
0001
0000
0100
0000
0010
1000
,
0001
0000
0000
0000
0000
0000
0000
0000
0000
0000
0000
0000
1000
0001
1000
0001
,
1000
0000
0001
0000
0010
0000
0100
0000
1000
0000
0001
0000
,
0100
0000
0010
0000
1000
0000
0001
0000
2000
0000
3000
0000
,
0100
0000
0010
0001
1000
0000
0001
0100
,
0010
0000
0000
0000
1000
0000
0001
0000
0010
0100
0010
0000
0100
0000
1000
0000
,
0001
0000
1000
0000
0100
0000
0010
0000
0001
0000
1000
0000
,
0010
0000
0100
0000
0001
0000
1000
0000
0002
0000
0000
0003
,
0010
0000
0100
1000
0001
0000
0100
0010
,
1000
0000
0001
0100
0001
0000
1000
0100
,
0010
0100
1000
0001
0010
0100
0010
0001
1000
0001
0100
0010
0100
0001
1000
0100
,
0010
0001
0010
0100
1000
0001
0100
0010
0100
0001
1000
0100
0010
0001
1000
0001
,
0100
0010
1000
0100
0010
0001
0100
0010
,
0100
0000
0001
0000
0010
0000
0100
0000
1000
0000
0010
0000
0100
0000
0010
1000
,
0100
0010
0100
1000
0001
0010
0100
1000
0100
0010
0100
1000
0001
1000
0001
0100
,
0010
0100
0010
1000
0001
1000
0001
0100
0010
1000
0001
0010
0100
1000
0001
0010
,
0001
0100
0010
1000
0100
0010
0100
1000
,
0010
0000
0100
0000
0001
0100
0010
1000
0001
0000
1000
0000
0100
0010
0001
1000
,
0100
0000
0000
1000
0001
0000
0100
0000
0101
0000
0000
0001
0010
0000
0100
0000
,
0110
0000
0000
1000
0100
0000
1000
0000
1100
0000
0000
0001
0100
0000
0001
0000
,
0001
0100
0000
0000
0010
1000
0000
0000
0001
0010
0000
0000
0100
0000
0000
0000
,
1000
0001
0100
0010
1000
0001
0100
0010
1000
0001
0010
0100
1000
0001
0010
0100
,
1000
0100
1000
0001
0010
0001
1000
0100
1000
0001
1000
0001
0010
0001
1000
0000
,
0001
0100
0001
0100
0001
1000
0001
0100
0010
0100
0001
1000
0010
1000
0010
0000
,
1000
0001
1000
0001
0010
0001
1000
0100
0010
0100
0010
0001
0010
0001
1000
0000
,
0002
0000
0000
0000
0000
0000
0000
0000
2003
0000
0000
0000
0000
3000
0000
0000
,
0010
1000
0100
0010
0001
0000
0000
0000
0100
0001
0010
0100
1000
0000
0000
0000
,
0010
1000
0100
0010
0001
0000
0000
0000
0100
0010
1000
0100
0010
0000
0000
0000
,
0001
0100
0010
1000
0100
0010
0100
1000
0010
0100
0001
0010
0100
1000
0001
0000
,
0100
0001
0010
0100
0010
0001
0100
0010
1000
0100
0010
0100
1000
0010
0100
0000
,
0001
0001
0000
0000
,
0000
0000
0000
0000
,
0000
0000
0000
0000
,
0000
0000
0000
0000
,
M0M0
0000
0000
0000
;

//---------------dance-single - J. Nero----------------
#NOTES:
     dance-single:
     J. Nero:
     Hard:
     14:
     1.000,1.000,0.340,0.215,0.808,953.000,49.000,31.000,12.000,0.000:


0000
0000
0000
0000
,
0000
0000
0000
0000
,
0000
0000
0000
0000
,
0000
0000
0000
0000
,
1000
0000
0000
1010
0000
0000
0000
0000
0001
0000
0000
0101
0000
0000
0000
0000
,
0100
0000
0100
0000
0001
0000
1000
0001
1000
0001
0100
0010
0100
0001
0100
0000
,
0001
0000
1000
0100
1000
0000
0001
0000
0100
0000
0010
0000
0100
0000
0010
0000
,
1000
0000
0001
0100
0001
0000
1000
0000
0400
0000
0000
0000
0000
0000
0300
0000
,
1000
0000
0000
0001
0000
0000
0001
0000
0100
0000
0100
0000
0000
0000
0010
0000
,
1010
0000
0000
0000
1000
0000
0100
0000
1000
0001
1000
0000
0001
0000
0100
0000
,
0010
0000
0100
0001
0100
0000
0001
0100
0001
1000
0001
0000
0100
0000
0010
0000
,
1000
0000
0100
1000
0100
0000
1000
0001
1000
0001
0100
0000
0010
0000
0000
0000
,
0100
0000
0000
0001
0000
0000
0000
0000
1000
0000
0000
0100
0000
0000
1000
0000
,
1000
0000
0001
0000
0010
0000
0100
0000
1000
0100
1000
0000
0001
1000
0001
0000
,
1000
0100
1000
0010
0100
0001
0100
0001
,
1000
0000
0100
1000
0100
0000
1000
0000
0001
0000
0000
0000
0101
0000
0000
0000
,
0400
0300
0000
0004
0003
0000
0040
0030
0400
0300
0000
4000
3000
0000
0004
0003
,
0400
0300
0000
0040
0030
0000
4000
3000
0400
0300
0000
4000
3000
0000
0000
0000
,
1001
0001
0100
0010
0010
0100
0001
1000
,
1000
0000
0100
0000
0010
0000
0001
0000
1000
0001
1000
0000
0100
0000
0010
0000
,
0004
0003
0000
0040
0030
0000
0400
0300
4000
3000
0000
0004
0003
0000
0400
0300
,
0040
0030
0000
0400
0300
0000
0004
0003
4000
3000
0000
0400
0300
0000
0000
0000
,
1000
0100
0010
0100
1000
0001
0100
0001
,
4000
0004
0000
0000
0000
0000
0000
0000
0000
0000
0000
0000
0000
0000
3003
0000
,
1000
0100
0010
0100
1000
0001
0100
0010
,
0100
0001
1000
0100
1000
0001
0100
0010
,
0100
0101
0011
0110
,
1100
0000
1001
0000
0001
0100
0010
0000
,
0100
0001
0100
0001
1000
0010
1000
0010
0100
0001
0100
0001
1000
0010
1000
0001
,
1000
0001
0100
0001
0100
0010
1000
0001
4000
0000
0000
3000
0001
0100
0001
0000
,
1001
1100
0110
0011
,
1001
1010
0110
0400
,
0301
1000
0100
1000
0001
0010
0100
1000
,
0001
1000
0010
0100
0001
1000
0001
0100
,
0101
0001
1000
0100
1000
0001
1000
0100
,
0010
0001
1000
0001
1000
0010
0100
0000
,
0001
0010
0100
0010
0001
1000
0001
1000
0100
0010
0001
1000
0001
0010
0100
1000
,
0100
1000
0001
0010
0001
1000
0100
1000
0100
0010
0001
1000
0004
0000
0000
0000
,
1003
0100
1000
0001
0010
0100
1000
0001
,
1000
0000
0010
0000
0100
0000
0001
0000
0100
0000
0010
0000
2000
3000
0000
0000
,
0001
0000
0100
0000
0001
0000
0100
0000
0001
0000
0100
0000
0020
0030
0000
0000
,
1000
0000
0000
0100
0000
0000
1000
0000
0000
0100
0000
0000
1000
0000
0000
0100
0000
0000
0020
0000
0030
0000
0000
0000
,
0001
0000
0100
0000
0001
0000
0100
0000
0001
0000
0100
0000
0020
0030
0000
0000
,
1000
0000
0100
0000
1000
0000
0100
0000
1000
0000
0100
0000
0020
0030
0001
1000
,
0001
1000
0010
0100
0001
0100
0010
1000
,
0100
1000
0001
0100
0010
0100
0001
1000
,
0001
0010
0100
1000
0001
1000
0010
0100
,
0001
0010
0100
1000
0001
1000
0010
0100
,
0004
4000
0000
0000
0000
0000
0000
0000
0000
0000
0000
0000
0000
0000
0000
0000
,
0000
0000
0000
0000
0000
0000
0000
3003
,
1000
0000
0100
0000
1000
0000
0001
0000
0100
0001
0100
0000
0001
0100
0001
0000
,
1000
0100
1000
0001
0100
0100
0100
0010
,
1000
0010
1000
0010
0100
0000
0001
0000
1000
0000
0010
0100
0010
0000
0100
0000
,
0001
1000
0001
1000
0001
0000
0010
0000
0100
1000
0100
1000
0100
0000
1000
0000
,
0001
0000
0001
0000
0001
1000
0100
1000
,
0001
0100
0001
1000
0010
0100
0010
1000
0001
0100
0001
1000
0001
1000
0010
0100
,
0010
0000
0000
0000
,
0110
0100
0001
1000
,
0001
0000
0100
0000
0001
0000
1000
0100
1000
0000
0000
0000
0001
0000
0000
0000
,
0100
0000
0000
0000
0010
0000
0000
0000
0400
0000
0000
0000
0000
0000
0000
0300
,
0001
0100
0001
1000
0100
0000
2000
0000
3000
0000
0001
0010
0001
0010
0100
1000
,
0001
0010
0001
1000
0100
0000
1000
0000
0001
0100
0001
0000
0200
0300
0040
0030
,
1000
0001
1000
0001
0100
0000
0020
0000
0030
0000
0100
0001
0100
0001
1000
0000
,
0001
0010
0001
1000
0100
1000
0001
0010
0004
0000
1003
0000
0200
0300
4000
0000
,
3010
0100
0010
0100
0001
0000
2000
0000
3000
0000
0001
0010
0001
0000
0010
0000
,
0100
1000
0100
1000
0001
0100
0010
1000
0001
0000
0000
0000
4000
0000
0000
0000
,
3001
0100
0001
0100
0010
0000
2000
0000
3000
0000
0100
1000
0400
0000
0300
0000
,
1000
0001
1000
0001
0100
0000
0010
0000
0100
0001
0100
0000
0002
0003
2000
3000
,
0001
0100
0001
0000
1000
0100
1000
0000
0010
1000
0010
0000
0100
0001
0100
0000
,
0001
1000
0001
0000
0100
0010
0100
0000
0001
0010
0001
0000
0010
0100
0010
0000
,
0100
1000
0001
0000
0100
0001
1000
0000
0010
0100
0001
0000
1000
0001
0100
0000
,
0101
0000
0000
0000
,
0002
0003
0000
0200
0300
0000
0020
0030
0200
0300
0000
0002
0003
0000
0020
0030
,
0200
0300
0000
2000
3000
0000
0002
0003
0200
0300
0000
0020
0030
0000
0000
0000
,
0100
0001
0100
0001
1000
0010
0100
0010
1000
0001
0100
0001
1000
0010
1000
0010
,
0400
0000
0301
4000
,
3001
0100
0001
1000
0100
0010
0001
1000
,
0001
0010
0100
0010
0001
1000
0001
1000
,
0010
0100
0001
0100
0010
1000
0001
1000
,
0100
0000
0000
0000
1000
0000
0000
0000
0001
0000
0000
0000
0100
0000
0000
0000
0004
0000
0000
0000
0000
0000
0000
0000
0000
0000
0000
0000
0000
0000
0000
0003
,
1001
0000
0000
0000
1000
0010
0100
0000
,
0001
0100
0010
0000
1000
0100
0010
0000
,
0011
0001
1000
0001
0010
0100
1000
0001
,
1000
0010
0100
0001
1000
0010
0100
0100
,
0100
0001
0010
0100
1000
0100
0010
0001
,
1000
0000
0010
0000
0100
0001
0100
0001
,
1000
0100
1000
0000
0001
0000
0100
0000
0010
0100
0001
0100
0001
0000
1000
0000
,
0100
1000
0100
1000
0001
0000
0100
0000
0001
1000
0100
0000
1000
0000
0000
0000
,
0001
0100
0001
0010
0100
1000
0001
1000
,
0010
0100
0001
0100
0010
1000
0001
1000
,
0200
0000
0000
0000
0000
0000
0000
0300
,
1100
1000
0000
0000
0101
0001
0000
0000
,
1001
0000
1000
0000
0000
0000
0000
0000
0101
0000
0000
0001
0100
0000
0010
0000
,
1000
0100
1000
0001
0010
0100
1000
0001
,
1000
0000
0010
0000
0100
0000
0001
0000
0100
0000
0001
0000
1000
0100
1000
0100
,
1000
0001
0100
0010
0100
0001
1000
0001
,
0020
0000
0230
0000
2300
0000
3001
0100
,
0001
0100
0001
0000
1000
0000
0000
0000
0100
1000
0001
1000
0001
0000
0100
0000
,
0001
0100
0001
0100
0010
1000
0010
1000
0001
0000
0100
0000
0001
0000
1000
0100
,
1000
0001
0100
0010
0000
0100
0001
1000
,
0100
1000
0001
0100
0001
1000
0100
1000
,
0002
0000
0000
0000
0000
0000
0000
0000
0000
0000
0000
0000
0000
0000
0000
0000
0000
0000
0000
0000
0000
0000
0000
0000
0000
0000
0000
0000
0000
0000
0000
0000
0000
0000
0000
0000
0000
0000
0000
0000
0000
0000
0000
0000
0000
0000
0000
0003
,
1001
0000
0000
0000
0000
0000
0000
0000
0000
0000
0000
0000
1000
0001
1000
0001
,
1000
0000
0001
0000
0010
0000
0100
0000
1000
0000
0001
0000
,
1000
0000
0000
0000
0010
0000
0000
0000
0100
0000
0000
0000
0001
0000
0000
0000
2000
0000
0000
0000
0000
3000
0000
0000
,
0001
0000
0001
0100
0010
0000
0010
1000
,
0001
0000
0000
0000
0001
0000
0010
0000
0100
1000
0100
0000
1000
0000
0001
0000
,
1000
0000
0100
0000
0010
0000
0100
0000
1000
0000
0001
0000
,
0010
0000
0000
0000
0100
0000
0000
0000
1000
0000
0000
0000
0001
0000
0000
0000
2000
0000
0000
0000
0000
3000
0000
0000
,
0001
0000
0001
0010
0100
0000
0100
0010
,
0001
0000
0001
1000
0010
0000
0100
0000
,
0001
0100
0001
0100
0010
1000
0010
0100
0001
1000
0001
1000
0010
0100
0001
0100
,
0010
1000
0001
1000
0001
1000
0010
1000
0010
0100
0001
0100
0001
1000
0010
1000
,
0010
0100
0001
1000
0100
0010
0100
1000
,
0001
0000
1000
0000
0100
0000
0010
0000
0001
0000
1000
0000
0001
0000
1000
0001
,
1000
0100
0010
0100
0010
0001
1000
0100
1000
0001
0010
0001
1000
0100
0010
0001
,
1000
0001
1000
0100
0010
0001
0010
0001
1000
0100
0010
0100
0010
0001
1000
0001
,
1000
0001
0100
0010
0100
0001
1000
0001
,
1000
0000
0010
0000
0400
0000
0000
0300
0001
0000
1000
0000
0400
0000
0000
0300
,
1100
0000
0000
1000
0001
0000
0100
0000
0101
0000
0000
0001
0100
0000
0010
0000
,
0110
0000
0000
0100
0001
0000
1000
0000
1001
0000
0000
0001
0100
0000
0010
0000
,
4000
3400
0340
0034
,
4003
0000
0000
0000
3040
0000
0000
0000
0430
0000
0000
0000
0304
0000
0000
0003
,
1001
1000
0000
0100
1100
1000
0000
0001
,
0101
0100
0000
0010
0110
0100
0000
0101
,
1001
1000
0000
0001
0011
0010
0000
0000
,
0100
0100
0100
0100
,
1000
0001
1000
0001
0100
0000
0000
0000
0001
0100
0001
0100
0010
0000
0000
0000
,
1000
0010
1000
0010
0100
0000
0000
0000
0001
1000
0001
1000
0100
0000
0000
0000
,
1000
0100
1000
0100
0010
0001
0010
0001
1000
0001
1000
0001
4000
0000
3000
0000
,
0001
0100
0001
0100
0010
1000
0010
1000
0001
1000
0001
1000
0001
0000
0000
0000
,
1001
1001
0000
0000
,
0MM0
0MM0
0000
0000
,
0MM0
0MM0
0000
0000
,
0000
0000
MMMM
0000
;

//---------------dance-single - J. Nero----------------
#NOTES:
     dance-single:
     J. Nero:
     Medium:
     11:
     0.937,1.000,0.388,0.957,0.309,700.000,56.000,138.000,14.000,0.000:


0000
0000
0000
0000
,
0000
0000
0000
0000
,
0000
0000
0000
0000
,
0000
0000
0000
0000
,
2000
3000
0000
0020
0030
0000
0000
0000
0200
0300
0000
0002
0003
0000
0000
0000
,
0100
0000
0100
0000
0001
0000
1000
0000
0001
0000
0100
0001
0100
0000
0010
0000
,
1000
0000
0001
1000
0001
0000
1000
0000
0100
0000
0010
0000
0100
0000
0010
0000
,
0001
0000
1000
0001
1000
0000
0001
0000
0400
0000
0000
0000
0000
0000
0300
0000
,
0002
0003
0000
0200
0300
0000
0000
0000
0020
0030
0000
2000
3000
0000
0001
0000
,
0101
0000
0100
0001
4000
3000
0001
0100
,
0010
0000
0010
0000
1000
0000
0001
1000
0001
0000
1000
0000
0100
0000
0000
0000
,
0010
0000
0010
0000
0001
0000
1000
0001
1000
0000
0001
0000
0100
0000
0000
0000
,
0002
0003
0000
0200
0300
0000
0000
0000
0020
0030
0000
2000
3000
0000
0001
0000
,
1000
0000
0001
0000
0100
0000
0010
0000
0100
0001
0100
0000
0001
0000
1000
0000
,
0100
1000
0100
0010
0001
1000
0010
0100
,
0001
0000
1000
0001
1000
0000
0001
0000
0100
0000
0000
0000
0101
0000
0000
0000
,
0004
0003
0000
4000
3000
0000
0400
0300
0040
0030
0000
0004
0003
0000
4000
3000
,
0040
0030
0000
0400
0300
0000
0004
0003
0040
0030
0000
0400
0300
0000
0000
0000
,
1100
0000
0000
1000
1001
0000
0000
0001
,
0101
0000
0000
0000
0000
0000
0100
0000
0001
0100
0001
0000
1000
0000
0100
0000
,
4000
3000
0000
0400
0300
0000
0040
0030
0004
0003
0000
4000
3000
0000
0004
0003
,
0400
0300
0000
0040
0030
0000
4000
3000
0004
0003
0000
0400
0300
0000
0000
0000
,
0001
0100
0010
0100
0001
1000
0100
1000
,
0004
4000
0000
0000
0000
0000
0000
0000
0000
0000
0000
0000
0000
0000
3003
0000
,
0001
0100
0010
0100
0001
0100
0001
1000
,
0100
0010
0001
1000
0100
1000
0100
0010
,
0002
0003
2000
3000
0002
0003
0200
0300
,
0020
0030
2000
3000
0002
0203
0320
0030
,
0200
0300
0000
0002
0003
0000
0020
0030
0200
0300
0000
2000
3000
0000
0002
0003
,
0200
0000
0000
0300
0000
0000
0000
0000
0000
0020
0000
0000
0030
0000
0000
0000
0000
0000
0200
0000
0000
0300
0000
0000
0004
0000
0000
0000
0000
0000
0000
0000
0000
0000
0000
0000
4003
0000
0000
0000
3000
0000
0400
0000
0000
0000
0000
0000
,
1300
1100
0110
0011
,
1001
1010
0110
0400
,
0301
1000
0100
0010
0001
1000
0010
1000
,
0001
1000
0100
0010
0001
0010
0100
1000
,
2002
3003
0001
0100
0001
1000
0100
1000
,
0010
0100
0001
1000
0010
0100
0001
0000
,
2000
3000
0000
0200
0300
0000
0020
0030
0002
0003
0000
0200
0300
0000
0020
0030
,
0200
0300
0000
0002
0003
0000
2000
3000
0020
0000
0030
0000
0400
0000
0000
0300
,
0101
0001
1000
0001
0010
0100
1000
0001
,
1000
0000
0001
0000
0010
0000
0100
0000
1000
0000
0010
0000
2000
3000
0000
0000
,
0001
0000
0100
0000
0001
0000
0100
0000
0001
0000
0100
0000
0020
0030
0000
0000
,
1000
0000
0000
0100
0000
0000
1000
0000
0000
0100
0000
0000
1000
0000
0000
0100
0000
0000
0020
0000
0030
0000
0000
0000
,
0001
0000
0100
0000
0001
0000
0100
0000
0001
0000
0100
0000
0020
0030
0000
0000
,
1000
0000
0100
0000
1000
0000
0100
0000
1000
0000
0100
0000
0020
0030
0000
0000
,
0001
1000
0010
0100
0001
0100
0010
1000
,
0100
1000
0001
0100
0010
0100
0001
1000
,
0001
0010
0100
1000
0001
1000
0100
0010
,
0001
0010
0100
1000
0001
1000
0010
0100
,
0004
4000
0000
0000
0000
0000
0000
0000
0000
0000
0000
0000
0000
0000
0000
0000
,
0000
0000
0000
0000
0000
0000
0000
3003
,
1000
0000
0100
0000
1000
0000
0001
0000
0100
0001
0100
0000
0001
0000
1000
0000
,
0100
1000
0001
0100
0001
0001
0001
1000
,
0100
0000
0010
0000
0011
0000
0000
0001
1000
0000
0001
0000
1001
0000
0000
0000
,
1000
0100
1000
0000
0001
0000
0100
0000
0001
0100
0001
0000
1000
0000
0001
0000
,
0100
0000
0100
0000
0100
0001
1000
0001
,
0400
0004
0000
0000
0000
0000
0000
0000
0000
0000
0000
0000
0000
0000
0000
0000
,
M3M3
0000
0000
0000
,
1001
1000
0001
1000
,
0001
0000
0010
0000
0100
0000
1000
0100
1000
0000
0000
0000
0001
0000
0000
0000
,
0100
0000
0000
0000
0010
0000
0000
0000
0400
0000
0000
0000
0000
0000
0000
0300
,
0002
0003
2000
3000
0200
0300
2000
0000
3000
0000
0002
0003
0200
0300
0020
0030
,
2000
3000
0200
0300
0020
0030
0002
0003
2000
3000
0002
0003
0200
0300
0040
0030
,
0200
0300
0002
0003
0020
0030
0200
0000
0300
0000
2000
3000
0002
0003
0200
0300
,
0020
0030
0200
0300
0002
0003
2000
3000
0004
0000
1003
0000
0200
0300
4000
0000
,
3002
0003
0020
0030
0200
0300
2000
0000
3000
0000
0002
0003
0200
0300
0020
0030
,
2000
3000
0200
0300
0020
0030
0002
0003
2002
3003
0000
0000
4000
0000
0000
0000
,
3002
0003
0020
0030
0200
0300
2000
0000
3000
0000
0002
0003
0400
0000
0320
0030
,
2000
3000
0002
0003
0020
0030
0200
0300
4000
0000
3000
0000
0001
0000
1000
0000
,
0001
0100
0001
0000
0100
0001
0100
0000
0010
1000
0010
0000
1000
0010
1000
0000
,
0001
1000
0001
0000
1000
0001
1000
0000
0010
0100
0010
0000
0100
0010
0100
0000
,
0001
1000
0001
0000
1000
0100
1000
0000
0001
0100
0001
0000
1000
0010
1000
0000
,
0001
0000
0000
0000
,
2000
3000
0000
0020
0030
0000
0200
0300
0020
0030
0000
2000
3000
0000
0200
0300
,
0020
0030
0000
0002
0003
0000
2000
3000
0020
0030
0000
0200
0300
0000
0000
0000
,
0101
1001
1010
0101
,
0004
0000
0000
0000
0000
0000
0000
0000
0000
0000
0000
0003
1001
0000
0000
0000
0000
0000
4000
0000
0000
0000
0000
0000
,
3001
0010
0100
1000
0001
0010
0001
1000
,
0001
1000
0100
0010
0001
1000
0001
1000
,
0010
0100
0001
0100
0010
1000
0001
1000
,
0100
0000
0000
0000
1000
0000
0000
0000
0001
0000
0000
0000
0100
0000
0000
0000
0004
0000
0000
0000
0000
0000
0000
0000
0000
0000
0000
0000
0000
0000
0000
0003
,
1001
0000
0000
0000
1000
0010
0100
0000
,
0001
0100
0010
0000
1000
0100
1000
0000
,
1001
0001
1000
0001
0010
0100
1000
0001
,
1000
0010
0100
0001
1000
0010
0100
0100
,
0100
0001
0010
0100
1000
0100
0010
0001
,
1000
0000
0010
0000
0100
0001
0100
0001
,
1000
0100
1000
0001
0100
0001
0010
0100
,
1000
0000
0010
0000
0100
0000
0001
0000
1000
0001
1000
0000
0001
0000
0000
0000
,
0100
0001
0100
0010
1000
0001
0010
0100
,
1000
0001
0100
0010
0100
0001
1000
0001
,
0020
0000
0000
0000
0000
0000
0000
0030
,
0110
0000
1001
0000
,
1001
0000
0000
0000
0000
0000
0000
0000
1000
0000
0000
0001
1000
0000
0001
0000
,
0100
0010
0100
0001
0010
0100
1000
0001
,
1000
0000
0100
0000
0010
0000
0001
0000
0100
0000
0001
0000
1000
0000
0001
0100
,
0001
0100
0010
1000
0001
1000
0100
1000
,
0200
0000
0320
0000
0032
0000
1003
0001
,
0100
0000
0001
1000
0000
0001
0100
0010
,
0100
0000
0001
1000
0000
0000
0100
1000
,
0001
0010
0100
1000
0000
0001
0100
0001
,
1000
0100
0010
0001
0100
0010
1000
0001
,
2000
0000
0000
0000
0000
0000
0000
0000
0000
0000
0000
0000
0000
0000
0000
3000
,
1001
0000
0000
0004
,
1003
0000
0001
0000
0010
0000
0100
0000
1000
0000
0001
0000
,
1000
0000
0010
0000
0100
0000
0001
0000
2000
0000
3000
0000
,
0001
0000
0001
0100
0010
0000
0010
1000
,
0100
0000
0100
0010
0001
0100
0001
1000
,
0001
0000
0010
0000
0100
0000
0010
0000
0001
0000
1000
0000
,
0100
0000
0010
0000
0001
0000
1000
0000
0002
0000
0003
0000
,
1000
0000
1000
0100
0010
0000
0010
0001
,
0100
0000
0100
0001
1000
0000
0001
0000
,
2000
3000
0000
0200
0300
0000
0020
0030
0002
0003
0000
2000
3000
0000
0020
0030
,
0200
0300
0000
0002
0003
0000
0020
0030
0200
0300
0000
2000
3000
0000
0002
0003
,
0100
0001
0010
0100
1000
0001
1000
0010
,
0100
0000
0001
0000
1000
0000
0100
0000
1000
0000
0001
0000
0100
0000
0001
0100
,
0002
0003
0000
0020
0030
0000
0200
0300
2000
3000
0000
0002
0003
0000
0200
0300
,
0020
0030
0000
0200
0300
0000
0002
0003
0020
0030
0000
0200
0300
0000
2000
3000
,
0001
0100
0001
1000
0100
0010
0100
1000
,
0001
0100
0004
0000
1003
0100
0040
0030
,
0011
0000
1001
0000
,
0110
0000
1001
0000
,
4000
3400
0340
0034
,
4003
0000
0000
0000
3040
0000
0000
0000
0430
0000
0000
0000
0304
0000
0000
0003
,
1001
0000
1100
0000
,
0101
0000
0000
0000
0110
0000
0000
0001
,
1001
0000
1100
0000
,
0001
0001
0001
0001
,
4000
3100
0004
0103
,
4000
3010
0004
0013
,
4000
3400
0340
0034
,
4003
0000
0000
0000
0000
0000
3400
0000
0000
0000
0000
0000
0340
0000
0000
0000
0000
0000
0034
0000
0000
0000
0000
0003
,
1001
1001
0000
0000
,
0MM0
0MM0
0000
0000
,
0MM0
0MM0
0000
0000
,
0000
0000
MMMM
0000
;

//---------------dance-single - J. Nero----------------
#NOTES:
     dance-single:
     J. Nero:
     Easy:
     8:
     0.827,1.000,0.229,0.950,0.201,608.000,33.000,137.000,14.000,0.000:


0000
0000
0000
0000
,
0000
0000
0000
0000
,
0000
0000
0000
0000
,
0000
0000
0000
0000
,
2000
3000
0000
0020
0030
0000
0000
0000
0200
0300
0000
0002
0003
0000
0000
0000
,
0100
0001
0100
0001
1000
0100
0010
0001
,
0010
0001
1000
0000
0001
0100
0001
0100
,
0010
1000
0001
0000
0400
0000
0000
0300
,
0002
0003
0000
0200
0300
0000
0000
0000
0020
0030
0000
2000
3000
0000
0001
0000
,
0100
0000
0001
1000
0004
0003
1000
0000
,
0001
0100
0001
0000
1000
0100
0010
0000
,
0001
0100
0001
0000
0010
0100
1000
0000
,
0002
0003
0000
2000
3000
0000
0000
0000
0002
0003
0000
2000
3000
0000
0001
0000
,
1000
0001
0100
0010
0100
0001
1000
0000
,
0001
0100
0001
0000
1000
0100
0010
0000
,
0001
0100
0010
0000
1000
0000
1000
0000
,
0004
0003
0000
4000
3000
0000
0400
0300
0040
0030
0000
0004
0003
0000
4000
3000
,
0040
0030
0000
0400
0300
0000
0004
0003
0040
0030
0000
0400
0300
0000
0000
0000
,
1100
0000
0000
1000
0001
0000
0000
1000
,
0001
0000
0000
0100
0004
0003
0000
0000
,
4000
3000
0000
0400
0300
0000
0040
0030
0004
0003
0000
4000
3000
0000
0004
0003
,
0400
0300
0000
0040
0030
0000
4000
3000
0004
0003
0000
0400
0300
0000
0000
0000
,
0004
4000
0000
0000
0000
0000
0000
0000
0000
0000
0000
0000
0000
0000
0000
0000
,
0000
0000
0000
0000
0000
0000
0000
3003
,
0001
0100
0010
0100
0001
0100
0001
1000
,
0100
0010
0100
0010
0001
1000
0001
0100
,
0002
0003
2000
3000
0200
0300
0020
0030
,
0002
0003
2000
3000
0002
0203
0320
0030
,
0200
0300
0000
0002
0003
0000
0020
0030
0200
0300
0000
2000
3000
0000
0002
0003
,
0200
0300
0000
0020
0030
0000
0200
0300
0004
0000
0000
0000
1003
0000
0100
0000
,
1000
0100
0010
0001
,
1000
0010
0100
0004
,
1003
0100
0010
0100
0010
0001
1000
0100
,
1000
0100
0010
0001
1000
0001
1000
0001
,
0200
0300
0001
0100
0001
0100
0000
0001
,
1000
0100
1000
0000
0001
0000
0001
0000
,
2000
3000
0000
0200
0300
0000
0020
0030
0002
0003
0000
0200
0300
0000
0020
0030
,
0200
0300
0000
0002
0003
0000
2000
3000
0020
0000
0030
0000
0400
0300
0000
0000
,
0101
0001
0100
0001
1000
0001
1000
0001
,
1000
0000
0010
0000
0100
0000
0010
0000
0100
0000
0001
0000
2000
3000
0000
0000
,
0001
0000
0100
0000
0001
0000
0100
0000
0001
0000
0100
0000
0020
0030
0000
0000
,
1000
0000
0000
0100
0000
0000
1000
0000
0000
0100
0000
0000
1000
0000
0000
0100
0000
0000
0020
0000
0030
0000
0000
0000
,
0001
0000
0100
0000
0001
0000
0100
0000
0001
0000
0100
0000
0020
0030
0000
0000
,
1000
0000
0100
0000
1000
0000
0100
0000
1000
0000
0100
0000
0020
0030
0000
0000
,
0001
0100
0001
0100
0010
1000
0010
1000
,
0001
1000
0001
1000
0100
1000
0100
0010
,
0100
0010
0001
0010
0001
1000
0001
1000
,
0010
0100
0010
0100
0001
1000
0001
1000
,
0004
4000
0000
0000
0000
0000
0000
0000
0000
0000
0000
0000
0000
0000
0000
0000
,
0000
0000
0000
0000
0000
0000
0000
3003
,
1000
0100
1000
0000
0001
0000
0001
0000
,
0100
0010
0100
0000
0001
1000
0001
1000
,
0010
0100
0010
0000
0100
0001
0100
0000
,
0001
0001
1000
1000
,
0100
0000
0010
0000
0001
0100
0001
1000
,
0004
4000
0000
0000
0000
0000
0000
0000
0000
0000
0000
0000
0000
0000
0000
0000
,
3MM3
0000
0000
0000
,
1001
1000
0001
1000
,
0001
0000
1000
0000
0001
0000
4000
3000
0001
0000
0000
0000
1000
0000
0000
0000
,
0001
0100
0002
0000
,
2003
3000
0002
0003
2000
3000
0002
0000
0000
0000
2003
3000
0020
0030
2000
3000
,
0020
0030
2000
3000
0002
0003
2000
3000
0002
0003
2000
3000
0002
0003
0400
0300
,
0020
0030
2000
3000
0020
0030
0200
0000
0000
0000
0302
0003
0200
0300
0002
0003
,
2000
3000
0002
0003
2000
3000
0002
0003
4000
3000
0001
0000
0020
0030
0004
0003
,
0020
0030
0200
0300
2000
3000
0002
0000
0000
0000
2003
3000
0020
0030
0200
0300
,
0002
0003
0020
0030
0200
0300
2000
3000
0002
0003
0000
0000
0004
0000
0000
0000
,
2003
3000
0020
0030
2000
3000
0002
0000
0000
0000
0203
0300
0040
0000
0230
0300
,
0002
0003
2000
3000
0002
0003
2000
3000
0004
0000
0003
0000
1000
0000
0001
0000
,
0400
0301
4000
3001
0400
0301
4000
3001
,
0400
0310
4000
3010
0400
0310
4000
3010
,
0400
0301
4000
3100
0040
0031
4000
3001
,
1000
0000
0000
0000
,
0002
0003
0000
0020
0030
0000
0200
0300
0020
0030
0000
0200
0300
0000
2000
3000
,
0200
0300
0000
2000
3000
0000
0002
0003
0200
0300
0000
0002
0003
0000
0000
0000
,
0100
0001
1000
0001
,
4000
0000
0000
3000
0001
0000
0400
0000
,
0301
1000
0001
1000
0100
0010
0001
1000
,
0001
1000
0001
0100
0001
0100
0010
1000
,
0001
1000
0100
0010
0100
1000
0100
0010
,
0100
0000
0000
0000
1000
0000
0000
0000
0100
0000
0000
0000
0010
0000
0000
0000
0004
0000
0000
0000
0000
0000
0000
0000
0000
0000
0000
0000
0000
0000
0000
0003
,
1000
0000
1000
0000
,
1000
0000
1000
0000
,
0001
0100
0001
0100
0001
1000
0010
1000
,
0010
0100
0001
0100
0001
1000
0100
0010
,
0001
0000
1000
0000
0001
1000
0001
0000
,
1000
0000
0010
0000
0100
0001
0100
0001
,
1000
0010
1000
0010
0100
0001
0100
0001
,
1000
0001
1000
0100
1000
0100
0010
0000
,
0001
0100
0001
0100
0010
1000
0010
1000
,
0001
0100
0001
0100
0001
1000
0100
1000
,
0200
0000
0000
0000
0000
0000
0000
0300
,
1100
0000
1001
0000
,
1001
0000
0000
0000
1000
0000
1000
0100
,
0010
0001
0010
0001
0010
0100
1000
0001
,
1000
0001
0010
0100
0010
0001
1000
0001
,
0100
0001
1000
0100
1000
0001
1000
0001
,
2000
3200
0320
0031
,
1000
0000
0001
0100
0000
0100
0001
0100
,
0001
0000
1000
0001
0000
0000
1000
0100
,
0010
0001
0100
0001
0000
0100
0001
0100
,
0010
1000
0010
0100
0001
0100
0001
1000
,
0002
0000
0000
0000
0000
0000
0000
0000
0000
0000
0000
0003
,
1001
0000
0000
0004
,
1003
0000
0100
0000
0010
0000
0001
0000
1000
0000
0100
0000
,
0010
0000
0001
0000
1000
0000
0001
0000
2000
0000
3000
0000
,
0001
0100
0010
0100
,
0001
0000
1000
0000
0100
1000
0100
0000
,
1000
0000
0100
0000
0010
0000
0001
0000
1000
0000
0001
0000
,
0010
0000
0100
0000
1000
0000
0001
0000
2000
0000
3000
0000
,
0001
0100
0001
0010
,
0100
1000
0001
1000
,
0002
0003
0000
0200
0300
0000
0002
0003
0200
0300
0000
0020
0030
0000
2000
3000
,
0020
0030
0000
2000
3000
0000
0002
0003
2000
3000
0000
0002
0003
0000
2000
3000
,
0001
1000
0001
1000
0100
0010
0100
0010
,
0001
0010
0001
0010
0100
1000
0001
1000
,
0002
0003
0000
2000
3000
0000
0002
0003
2000
3000
0000
0020
0030
0000
0200
0300
,
0020
0030
0000
0200
0300
0000
0002
0003
2000
3000
0000
0002
0003
0000
2000
3000
,
0001
0100
0001
0100
0010
1000
0010
1000
,
0001
0100
0004
0003
0100
0001
0400
0300
,
0001
0000
1000
0000
,
0010
0000
0100
0000
,
0004
0043
0430
4300
,
3004
0403
0340
4030
,
3001
0000
0101
0000
,
1001
0000
0000
0000
1100
0000
0000
0100
,
1000
0000
1001
0000
,
0000
0000
0000
0000
,
0004
0003
0100
0000
0040
0030
0100
0000
,
0004
0003
0100
0000
0040
0030
0100
0000
,
0004
0003
0040
0030
0400
0300
4000
3000
,
0004
0003
0040
0030
0400
0300
4000
3000
,
0001
1000
0000
0000
,
0MM0
0MM0
0000
0000
,
0MM0
0MM0
0000
0000
,
0000
0000
MMMM
0000
;

//---------------dance-single - J. Nero----------------
#NOTES:
     dance-single:
     J. Nero:
     Beginner:
     5:
     0.547,0.886,0.132,0.347,0.000,468.000,19.000,50.000,12.000,0.000:


0000
0000
0000
0000
,
0000
0000
0000
0000
,
0000
0000
0000
0000
,
0000
0000
0000
0000
,
2000
3000
0000
0000
0000
0000
0000
0000
0002
0003
0000
0000
0000
0000
0000
0000
,
0100
0001
0100
0000
0001
0000
1000
0000
,
0001
0000
0010
0000
0100
1000
0100
1000
,
0100
1000
0001
0000
,
2000
3000
0000
0000
0000
0000
0000
0000
0002
0003
0000
0000
0000
0000
0000
0000
,
0100
0000
0000
0000
0004
0003
0000
0000
,
1000
0100
1000
0100
,
1000
0010
1000
0010
,
2000
3000
0000
0000
0000
0000
0000
0000
0002
0003
0000
0000
0000
0000
0000
0000
,
1000
0001
1000
0000
0001
0000
0000
0000
,
0100
0001
0100
0000
0001
1000
0001
0000
,
1000
0001
1000
0010
,
0100
0100
0100
0100
,
0001
0001
0001
0001
,
1000
0000
1001
0000
,
1001
0000
0001
0000
,
1000
1000
1000
1000
,
0010
0010
0010
0010
,
2000
0000
0000
0000
,
0000
0000
0000
0000
,
3001
0010
0001
0010
,
0100
0010
0100
1000
,
0002
0003
2000
3000
0002
0003
2000
3000
,
0002
0003
2000
3000
0002
2003
3002
0003
,
0100
0100
0100
0100
,
0001
0001
0001
0001
,
2000
3000
0002
0003
2000
3000
0002
0003
,
2000
3000
0002
0003
2000
3000
0004
0000
,
1003
0001
1000
0100
,
0010
0100
0010
0001
,
0200
0300
0001
0000
0100
0000
0001
0000
,
1000
0100
1000
0001
,
1000
1000
1000
1000
,
0010
0010
0010
0010
,
1000
0001
1000
0001
1000
0001
1000
0001
,
1000
0000
0001
0000
1000
0000
0001
0000
1000
0000
0001
0000
2000
3000
0000
0000
,
0010
0000
0000
0100
0000
0000
0010
0000
0000
0100
0000
0000
0010
0000
0000
0100
0000
0000
0020
0000
0030
0000
0000
0000
,
1000
0000
0001
0000
1000
0000
0001
0000
1000
0000
0001
0000
2000
3000
0000
0000
,
0001
0000
0100
0000
0001
0000
0100
0000
0001
0000
0100
0000
0002
0003
0000
0000
,
1000
0000
0000
0001
0000
0000
1000
0000
0000
0001
0000
0000
1000
0000
0000
0001
0000
0000
2000
0000
3000
0000
0000
0000
,
1001
0000
1001
0000
,
0110
0000
0110
0000
,
1010
0000
1010
0000
,
0101
0000
0101
0000
,
2002
0000
0000
0000
,
0000
0000
0000
3003
,
1000
1000
0001
0100
,
0001
0000
1000
0000
0001
1000
0001
0000
,
1000
0001
0100
0001
,
1000
0000
1000
0000
,
0010
0000
0100
0000
0001
1000
0001
1000
,
0002
0000
0000
0000
,
1003
0000
0000
0000
,
1001
1000
0001
1000
,
0001
0001
0001
1000
,
0001
1000
0002
0000
,
0103
0100
0100
0001
,
1000
0001
1000
0001
,
1000
1000
1000
0001
,
0100
0001
0100
0010
,
0100
0100
0100
0001
,
1000
0001
1000
0000
,
0001
0001
0001
0100
,
0001
0100
0010
1000
,
0001
0100
0001
0100
,
0001
0100
0001
0100
,
0001
1000
0001
1000
,
0001
0000
0000
0000
,
0001
0001
0001
0001
,
1000
1000
1000
1000
,
0010
0100
0010
0100
,
0002
0000
1003
0002
,
1003
1000
1000
1000
,
0010
0010
0010
0010
,
0100
0001
1000
0100
,
1000
0001
2000
0000
,
3001
0000
1000
0000
,
0001
0000
1000
0000
,
0001
0001
1000
1000
,
0010
0000
0010
0000
0100
0000
0100
0001
,
0100
0001
0001
1000
,
1000
0000
0010
0000
1000
0001
1000
0001
,
1000
0001
0001
0100
,
0100
0000
0001
0000
0001
1000
0001
0000
,
1000
0000
1000
0000
0001
1000
0001
0000
,
0100
0100
0001
0001
,
2000
0000
0000
0000
,
3001
0000
1001
0000
,
1001
0000
1000
1000
,
0010
0010
0100
0100
,
0001
0000
0001
0000
1000
0000
0001
1000
,
0001
1000
1000
0001
,
2000
3002
2003
3001
,
0100
0000
0001
0000
0100
0000
0000
0001
,
1000
0001
1000
0001
,
0100
0010
0100
0010
,
0100
0001
1000
0001
,
2000
0000
0000
0000
,
3001
0000
0000
2000
,
3001
0100
0001
1000
,
0100
0000
1000
0000
0100
0000
1000
0001
,
1000
0001
0100
0001
,
1000
0000
0001
0000
1000
0001
1000
0000
,
0001
0100
0001
0100
,
0010
0000
1000
0000
0001
1000
0001
1000
,
0001
0100
0001
0100
,
0010
1000
0001
1000
,
0001
0001
0001
0001
,
1000
1000
1000
1000
,
0001
1000
0001
1000
0001
1000
0001
1000
,
0001
1000
0001
1000
0001
1000
0001
1000
,
0001
0001
0001
0001
,
0100
0100
0100
0100
,
0001
0100
0001
0100
0001
0100
0001
0100
,
0001
0100
0004
0003
0100
0001
0400
0300
,
0001
0000
1000
0000
,
0001
0000
1000
0000
,
0002
0003
0020
0030
0200
0300
2000
3000
,
0002
0003
0020
0030
0200
0300
2000
3000
,
0001
0000
1001
0000
,
1001
0000
0000
0000
1001
0000
0000
0001
,
1000
0000
1001
0000
,
0000
0000
0000
0000
,
0004
0003
1000
0000
0004
0003
1000
0000
,
0040
0030
0100
0000
0040
0030
0100
0000
,
0004
0003
4000
3000
0004
0003
4000
3000
,
0040
0030
0400
0300
0040
0030
0400
0300
,
0001
1000
0000
0000
,
0MM0
0MM0
0000
0000
,
0MM0
0MM0
0000
0000
,
0000
0000
MMMM
0000
;
