#TITLE:Lost Souls In Endless Time;
#SUBTITLE:;
#ARTIST:Dragonforce;
#TITLETRANSLIT:;
#SUBTITLETRANSLIT:;
#ARTISTTRANSLIT:;
#CREDIT:;
#BANNER:../BN.png;
#BACKGROUND:../BG.png;
#LYRICSPATH:;
#CDTITLE:../CDTitleBRAEDEN.png;
#MUSIC:Lost Souls In Endless Time.ogg;
#OFFSET:-0.262;
#SAMPLESTART:62.557;
#SAMPLELENGTH:19.270;
#SELECTABLE:YES;
#BPMS:0.000=200.000,1208.000=123.000,1222.000=130.500,1228.000=200.000;
#STOPS:;
#BGCHANGES:;
// cache tags:
#FIRSTBEAT:0.000;
#LASTBEAT:1244.000;
#SONGFILENAME:Songs/Index Gradation/Lost Souls In Endless Time - [Braeden]/Lost Souls In Endless Time.sm;
#HASMUSIC:1;
#HASBANNER:1;
#MUSICLENGTH:382.040;
// end cache tags

//---------------dance-single - ----------------
#NOTES:
     dance-single:
     :
     Challenge:
     25:
     1.000,1.000,0.128,0.272,1.000,3951.000,49.000,104.000,0.000,0.000:

1100
0100
1000
0001
0100
0010
1000
0100
,
0010
0001
0100
0010
1000
0100
0010
0001
,
0010
0100
1000
0001
0100
0010
1000
0100
,
0010
0001
0010
0100
1000
0001
1000
0001
,
1001
0100
0010
0100
0001
1000
0100
0010
,
0100
1000
0001
0010
0100
1000
0001
0100
,
0010
0100
0001
0010
0100
1000
0001
0100
,
0010
0100
0001
0001
0001
0001
0001
0001
,
2001
0000
0000
0000
0000
0000
3010
0100
,
0040
0000
0000
0000
,
0000
0000
0230
0000
,
0302
0000
0203
0300
,
0120
0000
0000
0230
,
0302
0000
0000
0000
0103
0010
0100
0001
,
1010
1000
0001
0100
0010
1000
0100
0010
,
0001
1000
0010
0010
0010
0010
0010
0010
,
1001
0100
0010
0100
0001
1000
0200
0000
,
0340
0001
0000
0001
0000
0100
0000
0031
,
0000
0000
0002
0000
,
0203
0000
0320
0030
,
1010
1000
0001
0100
0010
1000
0200
0320
,
0032
0003
0100
0010
0100
0001
1000
0100
,
1000
0001
0010
0100
1000
0001
0100
0010
,
1000
0100
2000
3010
2000
3001
0200
0310
,
0210
0000
0000
0002
0300
0000
1003
0010
,
1010
0100
0001
1000
0100
0010
0001
0010
,
2100
0000
0000
3002
0000
0000
0103
0000
,
0110
0010
2000
0000
0000
0000
3000
0000
,
1002
0000
0000
1003
0000
0000
0010
0100
,
0020
0000
0000
2030
0000
0000
3010
0000
,
1010
0000
0000
0000
,
1000
0010
0100
0001
1000
0000
0000
0000
0010
0100
0001
1000
0010
0000
0000
0000
,
0100
1000
0001
0100
0010
1000
0100
0010
0001
0010
0100
1000
0001
0100
0010
1000
,
0001
0010
0100
1000
0001
0010
0001
0100
0001
0010
0100
1000
0001
0010
0001
0100
,
0010
1000
0001
0010
0100
1000
0001
0100
0010
0100
0001
1000
0010
0100
0001
1000
,
0001
0100
0010
1000
0001
0100
0010
1000
0001
0100
0010
1000
0001
0100
0010
1000
,
0001
0100
0010
0100
0001
1000
0100
0010
0001
0010
0100
1000
0001
0100
0010
0100
,
0001
1000
0100
0010
0100
1000
0001
0100
0001
0010
0001
0010
0001
0100
0010
1000
,
0001
0010
0100
1000
0001
0100
0010
0100
0001
1000
0100
0010
0001
0010
0100
1000
,
0001
0100
0001
0100
0010
1000
0010
1000
0001
0010
0001
0010
0100
1000
0100
1000
,
0001
0010
0100
0100
1000
0001
0010
0010
,
0100
1000
0001
0001
0100
0010
1000
0000
,
1010
0010
0100
0001
0100
0010
1000
0100
,
0010
0001
0010
0000
0100
1000
0100
0000
0010
0001
0010
0000
0000
0000
0000
0000
,
0001
0000
0100
0000
0010
1000
0010
0000
0100
0000
0001
0000
1000
0010
1000
0000
,
0001
0000
0100
0000
0010
0100
0010
0000
0100
0000
0001
0000
0100
0010
0100
0000
,
0010
0000
1000
0000
0010
0100
0010
0000
0100
0000
0001
0000
0010
0100
1000
0000
,
0001
0000
0100
0000
0010
1000
0010
0000
0100
0000
0001
0000
1000
0100
1000
0000
,
0001
0000
0010
0000
0100
1000
0001
0000
0100
0000
0010
0000
1000
0100
1000
0000
,
0001
0000
0100
0000
0010
1000
0010
0000
0100
0000
0001
0000
1000
0100
0010
0000
,
0001
0100
0010
1000
0100
0010
0001
0010
0100
1000
0001
0100
0010
0100
0001
1000
,
0100
0010
0001
0010
0100
1000
0001
0100
0010
1000
0100
0010
0001
0010
0100
1000
,
0001
0100
0010
1000
0001
0010
0100
0010
0001
0100
0010
1000
0100
0010
0100
1000
,
0001
0100
0010
1000
0100
0010
0001
0010
0100
1000
0001
0100
0010
0100
0001
1000
,
0100
0010
0001
0100
0010
0100
0001
1000
0100
0010
0001
0010
0100
1000
0001
0100
,
0010
0100
0001
1000
0100
0010
0001
0010
0100
1000
0001
0100
0010
0100
0001
0100
,
0010
0000
1000
0000
0100
0010
0100
0000
0010
0000
0001
0000
0100
0010
0100
0000
,
0001
0000
1000
0000
0010
0100
0010
0000
0100
0000
0001
0000
1000
0010
1000
0000
,
0001
0000
0100
0000
0010
1000
0010
0000
0100
0000
0001
0000
0100
0010
0100
0000
,
0001
1000
0100
0010
0001
0010
0100
1000
0001
0100
0010
1000
0100
1000
0001
0010
,
0100
1000
0001
0100
0010
0100
0001
1000
0100
0010
0001
0010
0100
1000
0001
0100
,
0010
0100
0001
1000
0100
0010
0100
1000
0001
0100
0001
1000
0001
0010
0100
1000
,
0001
0100
0010
0100
0001
1000
0010
0100
0001
1000
0100
0010
0001
1000
0001
0000
,
1001
0000
0000
0000
0110
0000
0000
0000
1000
0100
0010
0100
1000
0001
0100
0010
,
1000
0100
1000
0001
0010
0100
0010
0001
0010
0001
1000
0010
0100
0010
1000
0100
,
0010
0001
0010
0001
1000
0100
0010
0001
0010
0100
1000
0001
0100
0010
0100
0001
,
1000
0100
0010
0100
1000
0001
0010
0100
1000
0001
0100
0010
0100
0001
1000
0100
,
0010
0001
0010
0001
1000
0100
1000
0100
0010
0001
0010
0001
1000
0010
1000
0010
,
0100
0000
0001
0000
0100
0010
1000
0000
0100
0000
0010
0000
0001
0100
0010
0000
,
2000
0000
3010
0000
0100
0001
0100
0000
0010
0000
1000
0000
0100
0010
0100
0000
,
2000
0000
3001
0000
0100
0010
0100
0000
0001
0000
1000
0000
0100
0010
0100
0000
,
2000
0000
3010
0000
0100
0001
0100
0000
0010
0000
1000
0000
0100
0010
0100
0000
,
1000
0000
0010
0000
0100
0001
0100
0000
0010
0000
1000
0000
0100
0010
0100
0000
,
0020
0000
0031
0000
1000
0010
1000
0000
0100
0000
0010
0000
0001
1000
0001
0000
,
0100
0000
0010
0000
1000
0100
1000
0000
0001
0000
0010
0000
0100
1000
0100
0000
,
0010
0001
0100
0010
1000
0001
0010
0100
1000
0001
0100
0010
0100
0001
1000
0100
,
0010
0001
0010
0100
1000
0001
0100
0010
1000
0100
0010
0001
0010
0100
1000
0001
,
0100
0000
0010
0000
1000
0100
1000
0000
0001
0000
0100
0010
0100
0000
0010
0000
,
1010
0000
1000
0000
0100
0010
0100
0000
0010
0000
0001
0000
0100
0010
0100
0000
,
0110
0000
0010
0000
1000
0100
1000
0000
0001
0000
0100
0000
0010
1000
0001
0000
,
1001
0000
1000
0000
0001
0010
0100
1000
0100
0010
0001
0010
0100
1000
0001
0100
,
0010
1000
0100
0010
0001
0010
0001
0100
0010
1000
0001
0010
0100
1000
0001
0100
,
0010
1000
0001
0100
0010
1000
0100
0010
0001
0010
0100
1000
0001
0100
0010
1000
,
0100
0000
0040
0030
1001
0000
0000
0000
,
0001
0010
0100
1000
0001
0100
0010
0100
0001
1000
0100
1000
0001
0100
0010
1000
,
0001
0100
0010
1000
0001
1000
0010
1000
0100
0010
0001
0010
0100
1000
0001
0100
,
0010
1000
0001
0100
0010
1000
0100
0010
0100
1000
0001
0010
0100
1000
0001
0100
,
0010
0100
0001
1000
0100
0010
0100
1000
0001
0100
0010
0100
0001
1000
0100
1000
,
0001
0010
0100
1000
0001
0100
0010
1000
0100
0010
0001
0100
0010
1000
0001
0010
,
0100
1000
0001
0100
0010
0100
0001
1000
0100
0010
0001
0010
0100
1000
0001
0100
,
0010
0000
1000
0000
0100
0010
0100
0000
1000
0000
0001
0000
0100
0010
0100
0000
,
0001
0100
0010
1000
0100
0010
0001
0010
0100
1000
0001
0010
0100
0000
1000
0000
,
0010
0100
0001
1000
0100
0010
0001
0010
0100
1000
0001
0010
0100
1000
0001
0100
,
0010
0100
0001
1000
0100
0010
0001
1000
0100
1000
0001
0010
0001
1000
0010
1000
,
0001
0100
0001
1000
0100
0010
0001
1000
0100
1000
0001
0010
0100
1000
0001
0100
,
0001
1000
0010
0100
0010
1000
0001
0100
0010
0100
0001
1000
0100
0010
0100
1000
,
0001
0100
0010
0100
0001
1000
0100
0010
0100
1000
0001
0010
0100
1000
0001
0100
,
0010
0100
0001
1000
0010
0100
0001
1000
0100
0010
0100
1000
0001
0010
0100
1000
,
0001
0100
0010
0100
0001
1000
0100
0010
0100
1000
0001
0100
0010
1000
0001
0010
,
0100
1000
0001
0100
0010
1000
0100
0010
0001
0000
0000
0000
0001
0000
0000
0000
,
1000
0100
0010
0001
0010
0100
1000
0001
0100
0010
0100
0001
1000
0100
0010
0001
,
0010
0100
1000
0001
0100
0010
0100
0001
0100
0010
1000
0100
0010
0001
0010
0100
,
1000
0001
0100
0010
0100
0001
1000
0100
0010
0100
1000
0001
0100
0010
0100
0001
,
1000
0100
0010
0001
0010
0100
1000
0001
0010
0001
1000
0100
0010
0001
0010
0100
1000
0001
0100
0010
1000
0001
0010
0100
,
1000
0000
0010
0000
0100
0001
0100
0000
0010
0000
1000
0000
0100
0010
0100
0000
,
0010
0000
0001
0000
1000
0010
1000
0000
0200
0000
0320
0000
0230
0000
0320
0000
,
0031
0000
0001
0000
4000
3000
0400
0300
0010
0000
0001
0000
0400
0300
0040
0030
,
1000
0000
0010
0000
0100
0000
0001
0000
1000
0100
0010
0001
0010
0100
1000
0001
,
0100
0010
1000
0001
0010
0100
1000
0001
0100
0010
0100
0001
1000
0100
0010
0001
,
0010
0100
1000
0001
0100
0001
0100
0001
1000
0100
0010
0100
1000
0001
0100
0010
,
0100
0010
0100
0001
1000
0100
0010
0001
1000
0010
1000
0010
1000
0001
0010
0100
,
1000
0001
1000
0000
0100
0000
0010
0000
0001
0100
0010
1000
0001
0010
0100
1000
,
0001
0100
0010
1000
0001
0010
0100
1000
0001
0010
0100
1000
0001
0100
0010
0100
0001
1000
0100
0010
0001
0010
0100
1000
,
0001
0100
0010
1000
0100
0010
0001
0010
0100
1000
0001
0100
0010
1000
0001
0010
0100
1000
0001
0100
0010
1000
0001
0010
,
0100
1000
0001
0100
0010
1000
0100
0010
0001
1000
0010
0100
0001
1000
0001
0010
0100
1000
0001
0100
0010
0100
0001
1000
,
0100
0010
0001
1000
0010
0100
0001
1000
0100
1000
0001
0100
0010
0100
0001
1000
0100
0010
0001
1000
0100
1000
0001
0100
,
0010
0100
0001
1000
0100
0010
0100
1000
0001
0010
0100
1000
0001
0100
0010
0100
0001
1000
0100
0010
0100
1000
0001
0100
,
0010
1000
0100
0010
0001
0010
0100
1000
0001
0100
0010
1000
0100
0010
0001
0010
0100
1000
0001
0100
0010
1000
0100
0010
,
0001
0100
0010
0100
0001
1000
0001
0100
0010
1000
0001
0100
0010
1000
0001
0010
0100
1000
0100
0010
0001
1000
0010
0100
,
0001
1000
0001
1000
0010
0100
0010
0100
0001
0010
0001
0010
0100
1000
0100
1000
,
0001
0100
0001
0100
0001
1000
0100
0010
0001
0010
0100
1000
0001
0100
0010
1000
,
0100
0010
0001
0010
0100
1000
0001
0100
0010
0100
0001
0010
0100
1000
0001
0100
,
0010
1000
0100
0010
0001
0010
0100
1000
0001
0100
0010
0100
0001
1000
0100
0010
,
0001
0100
0001
0100
0010
1000
0001
0010
0100
1000
0001
0100
0010
0100
0001
1000
,
0100
0010
0001
0010
0100
1000
0001
0100
0010
0100
0001
1000
0010
0100
0001
0100
,
0010
0100
0001
0010
0100
1000
0001
0100
0010
0100
0001
1000
0100
0010
0001
0010
,
0100
1000
0001
0100
0010
0100
0001
0010
0100
1000
0001
0100
0010
0100
0001
0010
,
0100
1000
0001
0100
0010
0100
0001
0010
0100
1000
0001
0100
0010
1000
0100
0010
,
0001
0100
0001
0100
0010
1000
0010
1000
0001
0100
0010
1000
0001
0100
0010
1000
,
0001
0100
0010
1000
0100
0010
0100
1000
0001
0100
0010
1000
0001
0100
0010
1000
,
0100
0010
0001
0010
0100
1000
0001
0010
0100
1000
0001
0100
0010
1000
0100
0010
,
0001
1001
1001
0000
,
1000
0100
0010
0001
0010
0100
1000
0001
0100
0010
0100
0001
1000
0100
0010
0001
,
0010
0100
1000
0001
0100
0010
0100
0001
1000
0100
1000
0001
0010
0100
1000
0001
,
0100
0010
1000
0001
0010
0100
1000
0001
0100
0010
0100
0001
1000
0100
0010
0001
,
0010
0000
0000
0100
0000
0000
1000
0000
0000
0001
0000
0000
0100
0000
0000
0010
0000
0000
1000
0000
0000
0100
0000
0000
1000
0000
0100
0000
0010
0000
0001
0000
1000
0000
0100
0000
0010
0000
0001
0000
1000
0000
0100
0000
0010
0000
0001
0000
,
1000
0000
0010
0000
0100
0001
0100
0000
0010
0000
1000
0000
0100
0010
0100
0000
,
0110
0000
0010
0000
0001
1000
0001
0000
1000
0000
0100
0000
0010
0001
0010
0000
,
0100
0000
1000
0000
0001
0100
0010
0000
1000
0000
0100
0000
0010
0001
1000
0000
,
1001
0000
0100
0000
0010
1000
0010
0000
0200
0000
0302
0003
0200
0000
0320
0000
,
1030
0000
0100
0000
0010
0001
1000
0000
0001
0000
0100
0000
0010
1000
0001
0000
,
0100
0000
0010
0000
1000
0100
1000
0000
0001
0000
0100
0000
0010
1000
0010
0000
,
0100
0000
0001
0000
1000
0100
1000
0000
0001
0000
0100
0000
0010
1000
0010
0000
,
1000
0100
0010
0001
0010
0100
1000
0001
0100
0010
0100
0001
1000
0100
0010
0100
,
1000
0001
0100
0010
1000
0100
0010
0001
0010
0100
1000
0001
0100
0010
1000
0100
,
0010
0000
0010
0000
0001
1000
0001
0000
0100
0000
0100
0000
0010
1000
0010
0000
,
0100
0000
0100
0000
0010
0001
0010
0000
0100
0000
0100
0000
1000
0001
1000
0000
,
0010
0000
2000
3200
0320
0032
1003
0001
,
0101
0000
0000
0000
0001
0100
0010
1000
0001
0010
0100
1000
0001
0100
0010
0100
,
0001
1000
0100
0010
0100
1000
0001
0100
0010
0100
0001
1000
0100
0010
0100
1000
,
0010
0100
0001
1000
0100
0010
0001
0010
0100
1000
0001
0100
0010
0100
0001
1000
0100
0010
0100
1000
0001
0010
0100
1000
,
0001
0110
1001
0000
,
1000
0100
0010
0001
1000
0100
1000
0100
0010
0001
0100
0010
1000
0001
0010
0100
,
1000
0001
0010
0001
1000
0100
1000
0001
0100
0010
0100
0010
1000
0001
1000
0010
,
0100
0001
0100
0001
1000
0100
0010
0001
0010
0100
1000
0001
0100
0010
0100
0010
,
1000
0001
0100
0010
1000
0100
0010
0001
0010
0100
1000
0001
0100
0010
0100
0001
,
1000
0100
1000
0100
0010
0001
0100
0010
1000
0100
1000
0100
0010
0001
0100
0010
,
1000
0001
1000
0001
0100
0010
1000
0001
0010
0100
0010
0100
1000
0001
0100
0010
,
1000
0100
1000
0100
0010
0001
0100
0010
1000
0001
1000
0001
0100
0010
1000
0001
,
0010
0100
1000
0001
0100
0010
1000
0100
0010
0001
0010
0100
1000
0001
0100
0010
,
1000
0100
1000
0001
0100
0010
0100
0001
1000
0100
0010
0001
0010
0100
1000
0001
,
0100
0010
1000
0001
0010
0100
1000
0001
0100
0010
1000
0100
1000
0001
0100
0010
,
1000
0001
0010
0100
1000
0001
0100
0010
0100
0001
1000
0100
0010
0001
0010
0100
,
1000
0001
0100
0010
0100
0001
1000
0100
0010
0001
0010
0100
1000
0001
0100
0010
,
0100
0001
1000
0100
0010
0001
0010
0100
1000
0001
0100
0010
0100
0001
1000
0010
,
0100
0001
1000
0100
0010
0001
0010
0100
1000
0001
0100
0010
0100
0001
1000
0100
,
0010
0001
0010
0100
1000
0001
0100
0010
0100
0001
1000
0100
0010
0100
1000
0010
,
0100
0001
1000
0100
0010
0001
1000
0010
1000
0000
0000
0000
0001
0000
0000
0000
,
0001
0100
0010
0100
0001
1000
0100
0010
0100
1000
0001
0010
0100
1000
0001
0100
,
0010
0100
0001
1000
0100
0010
0001
0010
0100
1000
0001
0100
0010
0100
0001
1000
,
0001
0001
0010
0010
0100
0100
1000
1000
,
0001
0100
0010
1000
0001
0010
0100
1000
0001
0100
0010
1000
,
0200
0310
0001
0100
0010
1000
0001
0010
0100
1000
0001
0100
,
0010
0000
0010
0000
1000
0000
0100
0000
0010
0000
0001
0000
1000
0010
1000
0000
0000
0000
0001
0100
0001
0000
0000
0000
,
2020
3030
0010
0000
0100
0000
0001
0000
0202
0303
0010
0000
1000
0000
0100
0000
,
2200
3300
1000
0000
0010
0000
0100
0000
0220
0330
1000
0000
0010
0000
0100
0000
,
0001
0000
0010
0000
0001
0000
1000
0000
0010
0000
0100
0000
0001
0000
1000
0000
0100
0000
0010
0000
0001
0000
0010
0000
0100
1000
0002
0000
0000
0000
0000
0000
,
0013
0100
0000
0000
1000
0000
0000
0000
0100
0010
0000
0000
0001
0000
0000
0000
0010
0100
0000
0000
1000
0000
0000
0000
0010
0100
0000
0000
0001
0000
0000
0000
,
1100
0010
0001
0100
0010
1000
0100
0010
0002
0103
0010
1000
0100
0000
0000
0000
,
0040
0000
0000
0034
0000
0000
0043
0000
0000
0034
0000
0000
1003
0100
0010
0001
0010
0100
1000
0001
0100
0010
1000
0100
,
0010
0001
0100
0010
0100
0001
0010
0100
1000
0001
0100
0010
1000
0100
0010
0001
,
1000
0100
1000
0001
0100
0010
1000
0001
0010
0100
1000
0001
0100
0010
1000
0001
,
2000
0000
0000
3200
0000
0000
0320
0000
0000
0032
0000
0000
2003
0000
0000
3020
0000
0000
0230
0000
0000
0302
0000
0000
2003
0000
0000
3200
0000
0000
0320
0000
0000
0032
0000
0000
1003
0000
0100
0000
0010
0000
0001
0000
1000
0000
0010
0000
,
2000
3100
0010
0001
0200
0310
1000
0001
0200
0310
1000
0100
0020
0031
0100
0010
,
2000
3100
0010
0001
0100
0010
1000
0001
0020
0130
1000
0001
0100
0010
1000
0100
,
0010
0001
1000
0000
0010
0000
0000
0000
0100
0001
0100
0000
0010
0000
0000
0000
1000
0100
0010
0000
0001
0000
0000
0000
0010
0100
1000
0000
0001
0000
0000
0000
,
1000
0100
0010
0001
0010
0100
1000
0001
0100
0010
0100
0001
0010
0100
1000
0001
0100
0010
1000
0100
0010
0001
0010
0100
,
2000
3200
0310
0000
0002
0023
0130
0000
2000
3200
0320
0032
2003
3020
0230
0302
,
1003
0000
0000
0100
0000
0000
0010
0000
0000
0001
0000
0000
0100
0000
0000
0000
0100
0000
0000
0000
0100
0000
0000
0000
0100
0000
0000
0000
0100
0000
0000
0000
0100
0000
0000
0000
0100
0000
0000
0000
0000
0000
0000
0000
0000
0000
0000
0000
,
0000
0000
0000
0000
0100
0010
0001
0010
0100
1000
0001
0100
0010
1000
0100
0010
,
0001
0000
0100
0010
1000
0100
0010
0001
0010
0100
1000
0001
,
0100
0010
1000
0100
0010
0001
0010
0100
1000
0001
0100
0010
,
0100
0001
1000
0100
0010
0100
1000
0001
0100
0010
1000
0100
,
0010
0001
0010
0100
1000
0001
0100
0010
1000
0100
0010
0001
,
1000
0100
0010
0100
1000
0001
0100
0010
0100
0001
1000
0100
,
0010
0100
1000
0001
0010
0100
1000
0001
0100
0010
0100
0001
,
1000
0100
0010
0100
1000
0001
0010
0100
1000
0001
0100
0010
,
0100
0001
1000
0100
0010
0100
1000
0001
0010
0100
1000
0001
,
0100
0010
1000
0100
0010
0100
1000
0001
0010
0100
1000
0001
,
0100
0010
0100
0001
1000
0100
0010
0100
1000
0001
0010
0100
,
1000
0001
0100
0010
0100
0001
1000
0100
0010
0001
0010
0100
,
1000
0001
0100
0010
0100
0001
1000
0100
0010
0001
0010
0100
,
1000
0001
0100
0010
0100
0001
1000
0100
0010
0100
1000
0001
,
0010
0100
1000
0001
0100
0010
0100
0001
0010
0100
1000
0001
,
0100
0010
1000
0100
0010
0001
0010
0100
1000
0001
0010
0100
,
1001
0000
0000
0000
,
4000
3000
4000
3000
0010
0100
0001
0100
0010
1000
0100
0010
0001
0100
0010
1000
,
0004
0003
0004
0003
0100
0010
0100
0010
1000
0100
0010
0001
0010
0001
0100
0000
,
0040
0030
0040
0000
0000
0000
0430
0300
0200
0000
0000
0000
0320
0000
0000
0000
,
4030
0000
0000
0000
,
3001
0100
0010
1000
0001
0010
0100
1000
0001
0100
0010
1000
0100
0010
0001
0010
0100
1000
0001
0100
0010
1000
0001
0100
,
0010
0000
0000
1000
0000
0000
0100
0000
0000
0010
0000
0000
0001
0000
0000
0010
0000
0000
0100
0000
0000
1000
0000
0000
0001
0000
0000
0100
0000
0000
0010
0000
0000
1000
0000
0000
0100
0000
0010
0000
0001
0000
1000
0000
0010
0000
0100
0000
,
0001
0001
0100
0100
0010
0010
1000
1000
0100
0100
0010
0010
0001
0001
0100
0100
,
0010
0000
1000
0000
0010
0000
1000
0000
0010
0000
1000
0000
0010
0000
0000
0100
0000
0000
0001
0000
0000
0100
0000
0000
0010
0000
1000
0000
0010
0000
1000
0000
0010
0000
1000
0000
0010
0000
0000
0100
0000
0000
0001
0000
0000
1000
0000
0000
,
0200
0320
0032
0403
0000
0000
0320
0000
,
2030
3002
0000
0403
0000
0000
0310
0000
,
2100
0000
0000
0010
0000
0000
0100
0000
,
0100
0000
0001
3002
0000
0000
0003
0000
,
1000
0100
0010
0001
0010
0100
1000
0001
0100
0010
1000
0100
0010
0001
0010
0100
1000
0001
0100
0010
1000
0100
0010
0100
,
1000
0001
0010
0100
1000
0001
0100
0010
1000
0100
0010
0001
0010
0100
1000
0001
0100
0010
1000
0100
0010
0001
0010
0100
,
1000
0000
0000
0001
0000
0000
0100
0000
0000
0010
0000
0000
1000
0000
0100
0000
0010
0000
0001
0000
0010
0000
0100
0000
1000
0000
0001
0000
0100
0000
0010
0000
0100
0000
0001
0000
1000
0000
0100
0000
0010
0000
0001
0000
0010
0000
0100
0000
,
4000
0000
0000
3000
,
0002
1003
0100
0010
0100
1000
0001
0100
0010
1000
0100
0010
0001
0100
0010
1000
,
0001
0010
0000
0000
0000
0000
0100
1000
0000
0000
0000
0000
0001
0010
0000
0000
0000
0000
0100
1000
0000
0000
0000
0000
0001
0100
0000
0000
0000
0000
0010
1000
0000
0000
0000
0000
0001
0000
0000
0000
0000
0000
0000
0000
0000
0000
0000
0000
,
1000
0100
0010
0001
0100
0010
1000
0100
0010
0100
1000
0001
,
0100
0100
0010
1000
2000
0000
3020
0000
,
1030
0100
0010
0001
0010
0100
1000
0001
0100
0010
0100
0001
1000
0100
0010
0001
,
0010
0100
1000
0001
0100
0010
1000
0100
0010
0100
1000
0001
0100
0010
1000
0100
,
0010
0001
0010
0100
1000
0001
0100
0010
0100
0001
1000
0100
0010
0001
1000
0010
,
1000
0100
0010
0001
0010
0100
1000
0001
0010
0100
1000
0001
0100
0010
1000
0100
0010
0100
1000
0001
0010
0100
1000
0001
,
0400
0000
0000
0000
0000
0000
0000
0000
0310
0000
1000
0000
0010
0100
0001
0000
,
0000
0000
1000
0100
0010
0001
0400
0000
0000
0000
0000
0000
0310
1000
0010
0000
,
0100
0001
0100
0010
1000
0100
0010
0001
0010
0100
1000
0001
0100
0010
1000
0100
0010
0001
0010
0100
1000
0001
0100
0010
,
2000
3200
0320
0032
0000
0203
0340
0000
,
0031
0000
1000
0100
0010
0000
0001
0010
0100
1000
0001
0100
0010
1000
0100
0010
,
0001
0100
0010
1000
0001
0010
0100
1000
0040
0000
0430
0000
0301
0000
0000
0000
,
1000
0100
0010
0001
0010
0100
1000
0001
0100
0000
0000
0000
1000
0001
0100
0010
,
1000
0100
0010
0001
0010
0100
1000
0001
0100
0010
1000
0100
0010
0001
1000
0100
,
1000
0010
0100
0001
1000
0100
0010
0001
0010
0100
1000
0001
0100
0010
1000
0100
0010
0100
1000
0001
0010
0100
1000
0001
,
1000
0100
0010
0100
1000
0001
0100
0010
1000
0100
0010
0100
1000
0001
0100
0010
,
1000
0100
0010
0001
0100
0010
1000
0100
0010
0001
0010
0100
1000
0001
0100
0010
,
1000
0000
0000
0000
0010
0000
0000
0000
0100
0000
0000
0000
0100
0000
0000
0100
0000
0000
0100
0000
0000
0100
0000
0000
,
0010
1000
0100
0010
0001
0010
0100
1000
0001
0100
0010
0100
0001
1000
0100
0010
,
0100
1000
0001
0100
0010
1000
0100
0010
0001
0100
0010
1000
0400
0000
0000
0000
,
0340
0001
0000
0000
0000
0000
0000
0000
0000
0100
0000
0000
0000
0000
0000
0000
,
0031
1000
0001
0100
0010
1000
0100
0010
0001
0010
0100
1000
0001
0100
0010
1000
,
0100
0010
0001
0010
0100
1000
0010
0100
0001
1000
0100
0010
0100
1000
0001
0100
,
0010
1000
0100
0010
0100
1000
0001
0010
0100
1000
0001
0100
0010
0100
0001
1000
,
0100
0010
0001
1000
0100
0010
0100
1000
0001
0100
0010
1000
0100
0010
0001
1000
,
0004
0000
0000
0000
,
1003
0100
0010
0010
0000
0001
0100
0010
,
4000
3040
0430
0304
,
1003
0100
0010
0001
0010
0100
1000
0001
0100
0010
0100
0001
1000
0100
0010
0001
,
0010
0001
0100
0010
1000
0001
0100
0010
1000
0100
0010
0001
0100
0010
0100
0001
,
1000
0000
0100
0010
0001
0010
0100
1000
0001
0000
0100
0010
0100
0001
1000
0001
,
1000
0000
0100
0010
0100
0001
1000
0001
1000
0000
0100
0010
0100
0000
0000
0000
,
1000
0001
0100
0010
1000
0100
0010
0001
0010
0100
1000
0001
0100
0010
1000
0100
,
0010
0001
0100
0010
1000
0001
0010
0100
1000
0001
0100
0010
1000
0100
0010
0001
,
1000
0100
0010
0001
0010
0100
1000
0001
0100
0010
0100
0001
0010
0100
1000
0001
,
0100
0010
1000
0100
0010
0001
0010
0100
1000
0001
0100
0010
1000
0100
0010
0001
,
1000
0100
0010
0001
0010
0100
1000
0001
0100
0010
1000
0100
0010
0100
1000
0001
0010
0100
1000
0001
0100
0010
1000
0100
,
0010
0001
0010
0100
1000
0001
0100
0010
1000
0100
1000
0001
0010
0100
0010
0001
0100
0010
1000
0100
0010
0001
0100
0010
,
1000
0100
0020
0032
0103
0010
2000
3200
,
0310
0000
0000
0010
0000
0000
0001
0000
0000
0001
0000
0000
1000
0000
0100
0000
0010
0000
0001
0000
0000
0000
0000
0000
,
1000
0100
0010
0001
0010
0100
1000
0001
0100
0010
0100
0001
1000
0100
0010
0100
,
1000
0001
0100
0010
1000
0100
0010
0100
1000
0001
0010
0100
1000
0001
0100
0010
,
0100
0000
0000
0010
0000
0000
1000
0000
,
0001
0000
0100
0010
,
1000
0000
0000
0001
0000
0000
0100
0000
,
0010
0000
1000
0001
,
0100
0000
0000
0010
0000
0000
1000
0000
,
0001
0000
0000
0100
0000
0000
0010
0000
,
1000
0000
0000
0001
0000
0000
0100
0000
,
0010
0100
0001
1000
0100
0010
0001
0010
0100
1000
0001
0100
0010
1000
0100
0010
,
0001
1000
0010
0100
0001
1000
0100
0010
0001
1000
0100
1000
0001
0100
0010
1000
,
0100
0010
0100
1000
0001
0100
0010
0100
0001
1000
0100
0010
0001
0010
0100
1000
,
0010
0100
0001
1000
0100
0010
0001
0010
0100
1000
0001
0100
0010
0100
0001
1000
,
0100
0010
0001
0010
0100
1000
0001
0100
0010
1000
0100
0010
0100
1000
0001
1000
,
0100
1000
0001
0100
0010
1000
0001
0100
0010
1000
0100
0010
0001
0010
0100
1000
,
0001
0100
0010
1000
0100
0010
0001
0010
0100
1000
0001
0100
0010
1000
0100
0010
,
0001
0010
0100
1000
0001
0100
0010
1000
0100
0010
0001
0010
0100
1000
0001
0100
,
0001
1000
0001
1000
0001
0000
0010
0000
0100
0010
0100
0010
0100
0000
0010
0000
,
1000
0100
0010
0001
0010
0100
1000
0001
0100
0010
1000
0100
0010
0001
0010
0100
,
1000
0001
0100
0010
1000
0100
0010
0001
0010
0100
1000
0001
0100
0010
1000
0100
,
0010
0100
1000
0001
0010
0100
1000
0001
0100
0010
0100
0001
1000
0010
0100
0001
,
0100
0001
1000
0100
0010
0100
1000
0001
1000
0100
0010
0001
0010
0100
1000
0001
,
0100
0010
0100
0001
1000
0100
0010
0100
1000
0001
0100
0010
0100
0001
1000
0100
,
0010
0001
0010
0100
1000
0001
0100
0010
0100
0001
1000
0100
0010
0001
0010
0100
,
1000
0001
0100
0010
1000
0100
0010
0001
0010
0100
1000
0001
0100
0010
0100
0001
,
1000
0100
0010
0100
1000
0001
0100
0010
0100
0001
1000
0100
0010
0000
0000
0000
,
0001
0100
0010
1000
0001
0010
0100
1000
0001
0100
0010
1000
0100
0010
0100
1000
,
0001
0100
0010
1000
0100
0010
0100
1000
0001
0100
0010
1000
0100
0010
0001
0010
,
0100
1000
0001
0100
0010
1000
0100
0010
0001
0010
0100
1000
0001
0100
0010
0100
,
0001
1000
0100
0010
0001
0010
0100
1000
0001
0100
0010
0100
0001
1000
0100
0010
,
0100
1000
0001
0010
0100
1000
0001
0100
0010
0100
0001
1000
0100
1000
0001
0100
,
0010
1000
0100
0010
0100
1000
0001
0010
0100
1000
0001
0100
0010
1000
0100
0010
,
0100
1000
0001
0100
0010
1000
0100
0010
0100
1000
0001
0010
0100
1000
0001
0100
,
0010
0000
0000
0000
,
0001
1000
0100
0010
0001
0010
0100
1000
0001
0100
0010
1000
0100
0010
0001
0010
,
0100
1000
0001
0100
0010
0100
0001
1000
0010
0100
0001
1000
0100
0010
0100
1000
,
0001
0010
0100
1000
0001
0100
0010
1000
0100
0010
0001
0100
0001
1000
0100
0010
,
0001
0100
0010
1000
0100
0010
0100
1000
0001
0010
0100
1000
0001
0100
0010
1000
,
0001
0000
0000
0000
0100
0000
0000
0000
0010
0000
0000
0000
1000
0000
0000
0000
0100
0000
0000
0000
0010
0000
0001
0010
0100
0000
0000
0000
1000
0000
0000
0000
,
0110
0000
0000
0000
0001
0000
0000
0000
1000
0000
0000
0000
0010
0000
0000
0000
0101
0000
0000
0000
0010
0000
1000
0100
0010
0000
0000
0000
0001
0000
0000
0000
,
0100
0000
0010
0000
1000
0000
0100
0000
0010
0000
0000
0001
0000
0000
0100
0000
,
0010
0000
0000
0000
0000
0000
0000
0000
1000
0100
0010
0100
1000
0001
0100
0010
,
1000
0100
0010
0100
1000
0001
0100
0010
1000
0100
0010
0100
1000
0000
0000
0000
,
1000
0100
0010
0001
0010
0100
1000
0001
0100
0010
1000
0100
0010
0001
0010
0100
,
1000
0001
0100
0010
1000
0100
0010
0100
1000
0001
0010
0100
1000
0001
0100
0010
,
1000
0100
0010
0100
1000
0001
0010
0100
1000
0001
0100
0010
1000
0100
0010
0001
,
0010
0100
1000
0001
0100
0010
1000
0100
0010
0100
1000
0001
0100
0010
1000
0001
,
1000
0000
0000
0000
;
