#TITLE:Owens;
#SUBTITLE:;
#ARTIST:DJ YOSHITAKA;
#TITLETRANSLIT:;
#SUBTITLETRANSLIT:;
#ARTISTTRANSLIT:;
#CREDIT:;
#BANNER:../BN.png;
#BACKGROUND:../BG.png;
#LYRICSPATH:;
#CDTITLE:../CDTitleBRAEDEN.png;
#MUSIC:Owens.ogg;
#OFFSET:1.237;
#SAMPLESTART:24.380;
#SAMPLELENGTH:12.000;
#SELECTABLE:YES;
#BPMS:0.000=185.000;
#STOPS:;
#BGCHANGES:;
// cache tags:
#FIRSTBEAT:4.000;
#LASTBEAT:320.000;
#SONGFILENAME:Songs/Index Gradation/Owens - [Braeden]/Owens.sm;
#HASMUSIC:1;
#HASBANNER:1;
#MUSICLENGTH:108.994;
// end cache tags

//---------------dance-single - Blank----------------
#NOTES:
     dance-single:
     Blank:
     Challenge:
     16:
     1.000,1.000,0.358,0.294,1.000,867.000,39.000,32.000,8.000,0.000:

0000
0000
0000
0000
,
M000
0M00
00M0
000M
,
1000
0100
0010
0001
0100
0010
0100
0001
1000
0010
0100
0001
1000
0100
0010
0001
,
0100
0010
1000
0100
1000
0001
1000
0100
0010
0001
0010
0100
1000
0001
0100
0010
,
1000
0100
0010
0100
1000
0001
0010
0100
1000
0100
0010
0001
0010
0100
1000
0001
,
0100
0010
0100
0001
1000
0100
0010
0001
1000
0000
0001
0100
0010
0000
1000
0010
,
0100
0001
0100
0010
1000
0100
0010
0001
0010
0100
1000
0001
0100
0010
0100
0001
,
1000
0100
0010
0001
0100
0010
1000
0001
0010
0001
0100
0010
0100
0001
1000
0100
,
0010
0001
0010
0100
1000
0001
0100
0010
0100
0001
1000
0100
0010
0100
1000
0001
,
0010
0100
1000
0001
0100
0010
1000
0001
1100
0000
0000
0110
0000
0000
0011
0000
,
1000
0010
0100
0001
1000
0100
0010
0001
1000
0010
0100
0001
1000
0100
0010
0100
,
1000
0001
0010
0100
1000
0001
0100
0010
0100
0001
0010
0100
1000
0001
0100
0010
,
0100
0001
1000
0100
0010
0001
0010
0100
1000
0001
0100
0010
0100
0001
1000
0100
,
0010
0001
0010
0100
1000
0001
0100
0010
0100
0001
1000
0100
0010
0001
0100
0010
,
0100
0001
1000
0100
0010
0001
0100
0010
1000
0001
0010
0100
1000
0001
0100
0010
,
0100
0001
1000
0010
0100
0001
1000
0100
0010
0001
0010
0100
1000
0001
0100
0010
,
0100
0010
1000
0100
0010
0001
0010
0100
1000
0001
0100
0010
1000
0100
0010
0001
,
1000
0000
0000
1001
0000
0000
1001
0000
0000
1001
0000
0000
1001
0000
0000
0001
0100
0010
1000
0000
0000
0100
0010
0100
,
0002
0000
0000
0000
0000
0000
0000
0000
0000
0000
0000
0000
1003
0000
0100
0000
0010
0000
0001
0010
0100
1000
0100
0010
,
0001
0100
0010
1000
0001
0010
0100
1000
0001
0100
0010
1000
0100
0010
0100
1000
0001
0010
0100
1000
0001
0100
0010
1000
,
0001
0000
0010
0100
0000
1000
0100
0000
0010
0001
0000
0010
0100
0000
1000
0000
,
0001
0000
0100
0010
0000
1000
0010
0000
0100
0010
0000
1000
0001
0000
0100
0000
,
0010
0000
1000
0100
0000
1000
0001
0000
1000
0100
0000
1000
0010
0000
0100
0000
,
0001
0000
1000
0100
0000
0010
0001
0000
0100
0010
0000
0100
0001
0000
0100
0000
,
0010
0000
1000
0100
0000
0010
0001
0000
0100
0010
0000
1000
0100
0000
0010
0000
,
0001
0000
0100
0010
0000
0100
0001
0000
1000
0100
0000
0010
0100
0000
0010
0000
,
0100
0000
1000
0001
0000
0100
0010
0000
0100
0001
0000
0100
0010
0000
1000
0000
,
0100
0000
0010
0100
0000
1000
0001
0000
0100
0010
0000
1000
0100
0000
0010
0000
,
1001
0000
0001
0000
0100
0010
0100
0000
0001
0000
0100
0010
0100
0000
0001
0000
,
1000
0000
0100
0010
0100
0000
0010
0000
0001
0100
0001
0000
0010
0000
0100
0000
,
1000
0000
0100
0010
0000
0001
0010
0000
0100
1000
0000
0100
0010
0000
0001
0000
,
1000
0000
0100
0010
0000
0001
0010
0000
0100
1000
0000
0100
0010
0000
0001
0000
,
0100
0010
0100
0010
1000
0100
1000
0100
0010
0001
0010
0001
0100
0010
0100
0010
,
1000
0100
0010
0001
0010
0100
1000
0001
0010
0100
1000
0100
0010
0001
1000
0100
,
0010
0000
0000
0001
0000
0000
0100
0000
0000
0010
0000
0000
1000
0000
0000
0100
0000
0000
0000
0000
0000
0000
0000
0000
0010
0000
0000
0000
0000
0000
0001
0000
0000
0000
0000
0000
0100
0000
0010
0000
1000
0000
0001
0000
0000
0000
0000
0000
,
0100
0010
1000
0100
0010
0100
1000
0001
0010
0100
1000
0001
0100
0010
1000
0100
1000
0001
0010
0100
1000
0001
0100
0010
,
2000
3200
0320
0032
0203
0320
2030
3100
,
0000
0020
0032
0203
0320
2030
3200
0310
,
M00M
0020
0230
2300
3002
0203
0320
1030
,
0MM0
0000
0000
0002
0000
0000
0203
0000
0000
0320
0000
0000
2030
0000
0000
3002
0000
0000
1003
0100
0010
0001
1000
0100
,
0010
0000
0000
0000
0000
0000
0001
0000
0000
0001
0000
0000
0011
0000
0000
0000
0000
0000
0001
0010
0100
1000
0001
0100
,
0010
0000
0000
0000
0000
0000
2000
0000
0000
3200
0000
0000
0310
0000
0000
0000
0000
0000
0001
0010
0100
1000
0001
0010
,
0100
0000
0000
0000
1000
0000
0000
0000
0110
0000
0000
0000
0001
0000
1000
0001
,
1001
0010
1010
0100
,
0001
0100
0001
0100
0010
1000
0010
0100
,
0001
0010
0100
1000
0001
0100
0010
1000
0100
0010
0100
1000
0001
0010
0100
1000
,
0001
0000
0000
0000
,
1000
0000
0010
0000
0100
0000
0001
0000
1000
0000
1000
0001
0010
0000
0001
0000
,
1001
0000
0100
0010
0000
0001
0010
0000
0100
1000
0000
0100
0010
0000
0001
0000
,
1010
0000
0100
0001
0000
0100
0010
0000
1000
0100
0000
0010
0001
0000
1000
0000
,
0110
0000
0000
0000
0000
0000
0010
0000
0000
0001
0000
0000
0000
0000
0000
0010
0000
0000
0100
0000
0000
0000
0000
0000
1000
0000
0000
0100
0000
0000
0000
0000
0000
0010
0000
0000
0001
0000
0000
0000
0000
0000
0100
0000
0010
0000
0100
0000
,
0010
0000
1000
0100
0010
0001
0010
0100
1000
0000
0000
1010
0000
0000
0110
0000
,
0001
0100
0010
0000
1010
0000
0000
0000
0000
0000
0000
0000
1000
0000
0010
0000
,
0100
0000
0001
1000
0000
0100
1000
0000
0001
0010
0000
0100
1000
0000
0001
0000
,
0110
0000
0010
1000
0000
1000
0010
0000
0100
0001
0000
0100
0010
0000
1000
0000
,
0001
0100
0001
0000
0100
0000
0100
0000
0000
0000
0010
0000
1000
0000
0010
0000
,
0100
0000
0001
0100
0000
0100
0010
0000
0010
1000
0000
1000
0100
0000
0010
0000
,
0001
0000
0100
0010
0000
1000
0100
0000
0010
0001
0000
0010
0100
0000
1000
0000
,
0100
0000
0000
0000
0000
0000
0010
0000
0000
0001
0000
0000
0000
0000
0000
0010
0000
0000
0100
0000
0000
0000
0000
0000
1000
0000
0000
0100
0000
0000
0000
0000
0000
0010
0000
0000
0001
0000
0000
0000
0000
0000
1000
0000
0100
0000
1000
0000
,
0100
0000
0000
0000
1001
0000
0000
0000
0110
0000
0000
0011
0000
0000
1001
0000
,
1000
0000
0001
0100
0000
0010
1000
0000
0001
0100
0000
0010
1000
0000
0001
0000
,
1010
0000
0100
0001
0000
0100
0010
0000
1000
0100
0000
0010
0001
0000
0100
0000
,
0110
0000
0010
1000
0000
1000
0010
0000
0100
0001
0000
0100
0010
0000
1000
0000
,
0001
0100
0010
0000
1000
0000
1000
0000
0000
0000
0010
0000
0100
0000
0001
0000
,
0100
0000
0110
0000
0010
0000
1000
0100
,
0000
0010
0001
0100
0010
0000
1001
0000
,
1010
0000
0000
0000
1000
0000
0010
0000
0110
0000
0100
0001
0100
0000
0010
0000
,
1010
1000
1001
0001
0101
0000
0000
0000
,
1001
0000
0010
0000
0100
0000
0101
0001
,
1001
0000
1000
0000
0010
0000
0100
0000
0001
0000
1000
0010
1000
0000
0001
0000
,
1001
0000
0100
0000
0010
0000
0100
0010
0001
0100
0010
1000
0100
1000
0001
0010
,
0200
0000
2300
0000
3200
0000
0320
0000
0032
0000
0103
0010
0100
0000
0010
0000
,
0000
0000
0000
0000
1000
0100
0010
0001
0010
0100
1000
0001
0100
0010
0100
0001
,
1000
0100
0010
0001
0010
0100
1000
0001
0100
0010
1000
0100
0010
0001
0010
0100
,
1000
0001
0100
0010
0100
0001
0010
0100
1000
0001
0100
0010
1000
0100
0010
0001
,
1000
0000
0010
0100
0010
0000
0100
0001
0100
0000
0010
0000
1010
0000
1000
0000
,
0001
0100
0001
0100
0001
0000
1000
0000
0010
0000
1000
0010
1000
0000
0001
0000
,
1001
0000
0000
0010
0000
0000
0100
0000
0000
1000
0000
0001
1000
0000
1000
0000
,
0001
0000
0100
0010
0000
1000
0100
0000
0010
0001
0000
0010
0100
0000
1000
0000
,
0001
0000
0100
0010
0000
1000
0100
0000
0010
0001
0000
0100
0010
0000
1000
0000
,
1001
0000
0000
0000
;
