#TITLE:Chronic Counter;
#SUBTITLE:THE FINAL BOSS SONG #2;
#ARTIST:Menace II Society meets Catscan;
#TITLETRANSLIT:;
#SUBTITLETRANSLIT:;
#ARTISTTRANSLIT:;
#CREDIT:owenviau1;
#BANNER:../owenviau1 Simfiles 6 (Science X Owen).png;
#BACKGROUND:;
#LYRICSPATH:;
#CDTITLE:;
#MUSIC:Chronic Counter - Menace II Society meets Catscan.mp3;
#OFFSET:-2.102;
#SAMPLESTART:237.753;
#SAMPLELENGTH:14.560;
#SELECTABLE:YES;
#DISPLAYBPM:83.500:1000.000;
#BPMS:0.000=88.000,10.000=90.000,14.000=92.000,15.000=91.000,18.000=92.000,22.000=96.900,27.000=101.700,34.000=103.700,38.000=103.500,40.000=107.500,44.000=109.700,47.000=111.500,50.000=115.700,51.000=111.500,53.000=115.700,60.000=119.500,61.000=121.500,68.000=115.700,69.000=119.700,74.000=125.700,75.000=117.700,77.000=123.700,79.000=117.700,81.000=121.700,82.000=125.700,83.000=123.700,88.000=125.700,96.000=127.700,100.000=117.700,106.000=104.000,113.000=101.700,114.000=117.700,116.000=143.700,117.000=111.700,119.000=113.700,121.000=123.700,122.000=133.700,125.000=83.700,127.000=85.700,128.000=87.700,129.000=89.700,130.000=91.700,131.000=95.700,136.000=93.700,138.000=97.700,143.000=104.700,147.000=117.700,149.000=103.700,150.000=118.700,155.000=133.700,156.000=126.700,160.000=143.700,166.000=148.000,184.000=154.500,217.000=156.250,232.000=159.500,265.000=161.000,280.000=164.500,313.000=167.750,328.000=174.500,361.000=178.500,376.000=184.500,409.000=191.000,424.000=205.938,471.000=225.500,505.000=222.850,520.000=260.000,568.000=220.000,569.000=305.000,603.000=307.625,634.000=1005.500,881.000=154.500;
#STOPS:;
#BGCHANGES:;
// cache tags:
#FIRSTBEAT:0.000;
#LASTBEAT:882.000;
#SONGFILENAME:Songs/owenviau1 Simfiles 6/Chronic Counter - [owenviau1] v1.1.7/Chronic Counter.sm;
#HASMUSIC:1;
#HASBANNER:1;
#MUSICLENGTH:253.413;
// end cache tags

//---------------dance-single - 13+ (owenviau1)----------------
#NOTES:
     dance-single:
     13+ (owenviau1):
     Beginner:
     13:
     0.995,1.000,0.367,0.769,1.000,1477.000,93.000,195.000,0.000,15.000:

1100
1000
0000
0000
0110
0010
0000
0000
0101
0100
0000
0000
1002
1000
0000
0000
,
1003
0100
0000
0000
0110
0010
0000
0000
0101
0100
0000
0000
2001
0001
0000
0000
,
3100
0010
0000
0000
0101
0100
0000
0000
1001
0001
0000
0000
1020
1000
0000
0000
,
0031
1000
0100
0000
1010
1000
0001
0000
0100
0010
1000
0001
2001
0000
0010
0000
,
3002
0003
0000
0000
1020
0030
0000
0000
0210
0300
0000
0000
2002
3000
0000
0000
,
0023
0030
0000
0000
1200
0300
0000
0000
0021
0030
0000
0000
2002
0003
0000
0000
,
3200
0300
0000
0000
0102
0003
0000
0000
2010
3000
0000
0000
0012
0003
0000
0000
,
0200
0301
1000
0000
1001
0000
0011
0000
1000
0100
0010
0001
0100
0000
1010
0000
,
0102
0003
0000
0000
1020
0030
0000
0000
0210
0300
0000
0000
2002
3000
0000
0000
,
0023
0030
0000
0000
1200
0300
0000
0000
0021
0030
0000
0000
2002
0003
0000
0000
,
3200
0300
0000
0000
0102
0003
0000
0000
2010
3000
0000
0000
0012
0003
0000
0000
,
2000
3010
0100
0000
1001
0000
0110
0000
1000
0100
0010
0001
0100
0000
0110
0000
,
1002
0003
0000
0000
0120
0030
0000
0000
0201
0300
0000
0000
2002
3000
0000
0000
,
0023
0030
0000
0000
1200
0300
0000
0000
0021
0030
0000
0000
2002
0003
0000
0000
,
3200
0300
0000
0000
0102
0003
0000
0000
2010
3000
0000
0000
0012
0003
0000
0000
,
0200
0301
1000
0000
1001
0000
0011
0000
1000
0100
0010
0001
1000
0000
0110
0000
,
1002
0003
0200
0000
1320
0030
2000
0000
3201
0300
0000
0000
2200
3000
0000
0000
,
0302
0003
0000
0000
2100
3000
0200
0000
0020
0030
0000
0000
2302
0003
0000
0000
,
3200
0300
2000
0000
3012
0003
0200
0000
2000
3000
0000
0000
0302
0000
0000
0000
,
0203
0310
1000
0000
1001
0000
0011
0000
0001
0010
0100
1000
0002
0000
0010
0000
,
0203
0300
0002
0000
0023
0030
2000
0000
3200
0300
0000
0000
2200
3000
0000
0000
,
0302
0003
0000
0000
2100
3000
0200
0000
0020
0030
0000
0000
2302
0003
0000
0000
,
3200
0300
2000
0000
3012
0003
0200
0000
2000
3000
0000
0000
0302
0000
0000
0000
,
0023
0130
1000
0000
1001
0000
0011
0000
1000
0100
0010
0001
0102
0000
0010
0000
,
1203
0300
0002
0000
1023
0030
2000
0000
3201
0300
0000
0000
2020
3000
0000
0000
,
0032
0003
0000
0000
2100
3000
0200
0000
0020
0030
0000
0000
2302
0003
0000
0000
,
3200
0300
2000
0000
3012
0003
0200
0000
2000
3000
0000
0000
0312
0000
0000
0000
,
0023
0130
1000
0000
2001
0000
3200
0000
0300
0000
0000
0000
0000
0000
0000
0000
,
0000
0000
0000
0000
0000
0000
1000
0010
0000
0110
0000
0000
0101
0000
0000
1020
0000
0000
0000
0000
0000
0000
0000
0000
,
1000
0030
1100
0000
1002
0000
0103
0000
,
2010
0000
0001
0000
0000
3000
0120
0000
,
0000
0000
0030
0000
1100
0000
0000
0000
0102
0003
2000
0000
0010
0000
0000
0000
,
3200
0000
0000
0000
0000
0000
0000
0300
0001
0000
0000
0000
0020
0000
0000
0000
1030
0000
0000
0000
0002
0000
0000
0000
0100
0000
0000
0000
0000
0000
0000
0000
,
2003
0000
0000
0000
3010
0100
0001
0000
0110
0000
1100
0000
1001
0000
0210
0000
,
2300
0000
0000
0000
0001
0000
3000
0000
0210
0000
0000
0300
2000
0000
0000
0000
3020
0000
0000
0000
0230
0000
0000
0000
0302
0000
0000
0000
0000
0000
0003
0000
,
2010
0000
0000
0000
0000
0000
0000
0000
3200
0000
0000
0300
0000
0000
0000
0000
0021
0000
0000
0030
2000
0000
0000
0000
0200
0000
0000
0000
0000
0000
0000
0000
,
3320
0000
0000
0000
0000
0000
0000
0030
0002
0000
0000
0003
2000
0000
0000
0000
3200
0000
0000
0000
0302
0000
0000
0000
0020
0000
0000
0000
0000
0000
0000
0033
,
2000
0000
3000
0000
0220
0330
0000
0000
,
2002
0000
0000
0000
0000
0000
0000
0000
0000
0000
0000
0000
0000
0000
0000
0000
0000
0000
0000
0000
0000
0000
0000
0000
3000
0000
0000
0000
0000
0000
0000
0000
0000
0000
0000
0000
0000
0000
0000
0000
0000
0000
0000
0000
0003
0000
0000
0000
0020
0000
0000
0000
0000
0000
0000
0000
0000
0000
0000
0000
0000
0000
0000
0000
0000
0000
0030
0000
0000
0000
0000
0000
2000
0000
0000
0000
0000
0000
0000
0000
0000
0000
0000
0000
0000
0000
0000
0000
0000
0000
0000
0000
0000
0000
0000
0000
0002
0000
0000
0000
0000
0000
0000
0000
0000
0000
0000
0000
0000
0000
0000
0000
0000
0000
0000
0000
0000
0000
0000
0000
3203
0000
0000
0000
0000
0000
0000
0000
0000
0000
0000
0000
0000
0000
0000
0000
0000
0000
0000
0000
0000
0000
0000
0000
0320
0000
0000
0000
0000
0000
0000
0000
0000
0000
0000
0000
0000
0000
0000
0000
0000
0000
0000
0000
0000
0000
0000
0000
0000
0000
0000
0000
0000
0000
0000
0000
0000
0000
0000
0000
0000
0000
0000
0000
0000
0000
0030
0000
0000
0000
0000
0000
,
0002
0000
0000
0000
0000
0000
0000
0003
2000
0000
0000
3000
0000
0000
0000
0000
0200
0000
0000
0000
0302
0000
0000
0000
0020
0000
0000
0000
0000
0000
0000
0033
,
2000
0000
0000
0000
3200
0300
0020
0000
0032
0003
0200
0000
0020
0000
0000
0000
,
0332
2003
3002
2003
3002
2003
3002
2003
3002
2003
3002
0000
2003
0000
3002
0000
,
2003
3000
0000
0000
0000
0000
0000
0000
,
0000
0000
0000
0000
,
0000
0000
0000
0000
,
0000
0000
0000
0000
,
1000
0100
0010
0001
0100
0001
1000
0010
0100
0001
0010
0001
1000
0010
0100
0001
,
1000
0001
0100
0010
1000
0001
1000
0100
0010
0001
0100
0010
0100
0001
1000
0100
,
1000
0010
0100
0001
1000
0001
0100
0010
1000
0100
0010
0001
0100
0001
1000
0010
,
0100
0001
1000
0001
0100
0010
1000
0100
0010
0001
0100
0010
1000
0100
1000
0001
,
0100
0001
1000
0010
0100
0001
1000
0100
0010
0001
1000
0001
0100
0010
1000
0001
,
0100
0001
1000
0100
0010
0001
1000
0010
0100
0010
1000
0001
0010
0001
0100
0010
,
1000
0100
0010
0001
0100
0010
1000
0001
0010
0001
0100
0010
1000
0100
0010
0001
,
0100
0010
1000
0100
0010
0001
1000
0001
0100
0010
2000
0000
0000
0000
3002
0000
,
0000
0003
0000
0000
0000
0000
0000
0000
,
0000
0000
0000
0000
,
0000
0000
0000
0000
,
0000
0000
0000
0000
,
1000
0100
0010
0001
0100
0001
1000
0010
0100
0001
0010
0001
1000
0010
0100
0001
,
1000
0001
0100
0010
1000
0001
1000
0100
0010
0001
0100
0010
0100
0001
1000
0100
,
1000
0010
0100
0001
1000
0001
0100
0010
1000
0100
0010
0001
0100
0001
1000
0010
,
0100
0001
1000
0001
0100
0010
1000
0100
0010
0001
0100
0010
1000
0100
1000
0001
,
0100
0001
1000
0010
0100
0001
1000
0100
0010
0001
1000
0001
0100
0010
1000
0001
,
0100
0001
1000
0100
0010
0001
1000
0010
0100
0010
1000
0001
0010
0001
0100
0010
,
1000
0100
0010
0001
0100
0010
1000
0001
0010
0001
0100
0010
1000
0100
0010
0001
,
0100
0010
1000
0100
0010
0001
1000
0001
0010
0100
2000
0000
0000
0000
3020
0000
,
0000
0030
0000
0000
0000
0000
0000
0000
,
0000
0000
0000
0000
,
0000
0000
0000
0000
,
0000
0000
0000
0000
,
1000
0100
0010
0001
0100
0001
1000
0010
0100
0001
0010
0001
1000
0010
0100
0001
,
1000
0001
0100
0010
1000
0001
1000
0100
0010
0001
0100
0010
0100
0001
1000
0100
,
1000
0010
0100
0001
1000
0001
0100
0010
1000
0100
0010
0001
0100
0001
1000
0010
,
0100
0001
1000
0001
0100
0010
1000
0100
0010
0001
0100
0010
1000
0100
1000
0001
,
0100
0001
1000
0010
0100
0001
1000
0100
0010
0001
1000
0001
0100
0010
1000
0001
,
0100
0001
1000
0100
0010
0001
1000
0010
0100
0010
1000
0001
0010
0001
0100
0010
,
1000
0100
0010
0001
0100
0010
1000
0001
0010
0001
0100
0010
1000
0100
0010
0001
,
0100
0010
1000
0100
0010
0001
0100
0001
1000
0010
0200
0000
0000
0000
0302
0000
,
0000
0003
0000
0000
0000
0000
0000
0000
,
0000
0000
0000
0000
,
0000
0000
0000
0000
,
0000
0000
0000
0000
,
1000
0010
1000
0001
0100
0001
1000
0010
0100
0001
0010
0001
1000
0010
0100
0001
,
1000
0001
0100
0010
1000
0001
1000
0100
0010
0001
0100
0010
0100
0001
1000
0100
,
1000
0010
0100
0001
1000
0001
0100
0010
1000
0100
0010
0001
0100
0001
1000
0010
,
0100
0001
1000
0001
0100
0010
1000
0100
0010
0001
0100
0010
1000
0100
1000
0001
,
0100
0001
1000
0010
0100
0001
0010
0100
1000
0001
0010
0001
0100
0010
1000
0001
,
0100
0001
1000
0100
0010
0001
1000
0010
0100
0010
1000
0001
0010
0001
0100
0010
,
1000
0100
0010
0001
0100
0010
1000
0001
0010
0001
0100
0010
1000
0100
0010
0001
,
0100
0010
1000
0100
0010
0001
1000
0001
0100
0010
2000
0000
0000
0000
3002
0000
,
0000
0003
0000
0000
0000
0000
0000
0000
,
0000
0000
0000
0000
,
0000
0000
0000
0000
,
0000
0000
0000
0000
,
1000
0100
0010
0001
0100
0001
1000
0010
0100
0001
0010
0001
1000
0010
0100
0001
,
1000
0001
0100
0010
1000
0001
1000
0100
0010
0001
1000
0010
0100
0001
1000
0100
,
1000
0010
0100
0001
1000
0001
0100
0010
1000
0100
0010
0001
0100
0001
1000
0010
,
0100
0001
1000
0001
0100
0010
1000
0100
0010
0001
0100
0010
1000
0100
1000
0001
,
0100
0001
1000
0010
0100
0001
0010
0100
1000
0001
0010
0001
0100
0010
1000
0001
,
0100
0001
0010
0100
1000
0001
1000
0010
0100
0010
1000
0001
0010
0001
0100
0010
,
1000
0100
0010
0001
0100
0010
1000
0001
0010
0001
0100
0010
1000
0100
0010
0001
,
0100
0010
1000
0100
0010
0001
1000
0001
0100
0010
2000
0000
0000
0000
3002
0000
,
0000
0003
0000
0000
0000
0000
0000
0000
,
0000
0000
0000
0000
,
0000
0000
0000
0000
,
0000
0000
0000
0000
,
1000
0100
0010
0001
0100
0001
1000
0010
0100
0001
0010
0001
1000
0010
0100
0001
,
1000
0001
0100
0010
1000
0001
1000
0100
0010
0001
0100
0010
0100
0001
1000
0100
,
1000
0010
0100
0001
1000
0001
0100
0010
1000
0100
0010
0001
0100
0001
1000
0010
,
0100
0001
1000
0001
0100
0010
1000
0100
0010
0001
0100
0010
1000
0100
1000
0001
,
0100
0001
1000
0010
0100
0001
1000
0100
0010
0001
1000
0001
0100
0010
1000
0001
,
0100
0001
1000
0100
0010
0001
1000
0010
0100
0010
1000
0001
0010
0001
0100
0010
,
1000
0100
0010
0001
0100
0010
1000
0001
0010
0001
0100
0010
1000
0100
0010
0001
,
0100
0010
1000
0100
0010
0001
1000
0001
0100
0010
2000
0000
0000
0000
3002
0000
,
0000
0003
0000
0000
0000
0000
0000
0000
,
0000
0000
0000
0000
,
0000
0000
0000
0000
,
0000
0000
0000
0000
,
1000
0100
0010
0001
1000
0010
0100
0001
1000
0100
1000
0001
,
0100
0010
1000
0001
0010
0100
1000
0010
0100
0010
1000
0001
,
0100
0001
1000
0010
0100
0001
1000
0100
0010
0001
0100
0010
,
1000
0001
0010
0001
0100
0010
1000
0100
0010
0001
0100
0010
,
1000
0001
0010
0100
1000
0100
0010
0001
0100
0010
1000
0001
,
0100
0001
1000
0010
1000
0001
0100
0010
1000
0100
0010
0001
,
0100
0010
1000
0001
0010
0001
1000
0100
1000
0010
0100
0001
,
1000
0100
0010
0001
1000
0010
0100
0001
1000
0001
0200
0000
,
0000
0320
0000
0030
0000
0000
0000
0000
,
0000
0000
0000
0000
,
0000
0000
0000
0000
,
0000
0000
0000
0000
,
1000
0100
0010
0001
1000
0010
0100
0001
1000
0100
1000
0001
,
0100
0010
1000
0001
0010
0100
1000
0010
0100
0010
1000
0001
,
0100
0001
1000
0010
0100
0001
1000
0100
0010
0001
0100
0010
,
1000
0001
0010
0001
0100
0010
1000
0100
0010
0001
0100
0010
,
1000
0001
0010
0100
1000
0100
0010
0001
0100
0010
1000
0001
,
0100
0001
1000
0010
1000
0001
0100
0010
1000
0100
0010
0001
,
0100
0010
1000
0001
0010
0001
1000
0100
1000
0010
0100
0001
,
1000
0100
0010
0001
1000
0010
0100
0001
1000
0001
0200
0000
,
0000
0320
0000
0030
0000
0000
0000
0000
,
0000
0000
0000
0000
,
0000
0000
0000
0000
,
0000
0000
0000
0000
,
0000
0000
0000
1000
0100
0010
0001
1000
0001
0100
0010
1000
,
0001
0010
0100
1000
0001
0100
0010
1000
0001
0010
0001
0100
,
0010
1000
0100
0010
0001
1000
0010
1000
0001
0100
0001
1000
,
0100
1000
0001
0100
0010
1000
0001
0010
0100
1000
0001
0100
,
0001
1000
0010
1000
0001
0100
0010
1000
0100
0010
0001
1000
,
0100
1000
0010
0100
0001
0010
0001
1000
0010
0100
0001
1000
,
0100
1000
0001
0100
0010
1000
0100
0010
0001
0100
0010
1000
,
0010
0000
0100
0000
0001
0000
1000
0000
0100
0000
0010
0000
0001
0000
1000
0000
0001
0000
0100
0000
0000
0020
0000
0000
,
0000
0032
0000
0003
0000
0000
0000
0000
,
0000
0000
0000
0000
,
0000
0000
0000
0000
,
0000
0000
0000
0000
,
0000
0000
0000
0000
,
0000
0000
0000
0000
,
0000
0000
0000
0000
,
0000
0000
0000
0000
,
0000
0000
0000
0000
0000
0000
1000
0000
0000
0000
0100
0000
,
0000
0000
0010
0000
0000
0000
0001
0000
0000
0000
1000
0000
,
0000
0000
0010
0000
0000
0000
0100
0000
0000
0000
0001
0000
,
0000
0000
1000
0000
0000
0000
0010
0000
0000
0000
0100
0000
,
0000
0000
0001
0000
0000
0000
1000
0000
0000
0000
0001
0000
,
0000
0000
0100
0000
0000
0000
0010
0000
0000
0000
1000
0000
,
0000
0000
0100
0000
0000
0000
0010
0000
0000
0000
0001
0000
,
0000
0000
0100
0000
0000
0000
0001
0000
0000
0000
1000
0000
,
0000
0000
0010
0000
0000
0000
0100
0000
0000
0000
0001
0000
,
0000
0000
0010
0000
0000
0000
0001
0000
0000
0000
1000
0000
,
0000
0000
0100
0000
0000
0000
0010
0000
0000
0000
0001
0000
,
0000
0000
0100
0000
0000
0000
0010
0000
0000
0000
1000
0000
,
0000
0000
0001
0000
0000
0000
1000
0000
0000
0000
0100
0000
,
0000
0000
0010
0000
0000
0000
0001
0000
0000
0000
1000
0000
,
0000
0000
0010
0000
0000
0000
0100
0000
0000
0000
0001
0000
,
0000
0000
1000
0000
0000
0000
0010
0000
0000
0000
0100
0000
,
0000
0000
0001
0000
0000
0000
1000
0000
0000
0000
0001
0000
,
0000
0000
0100
0000
0000
0000
0010
0000
0000
0000
1000
0000
,
0000
0000
0100
0000
0000
0000
0010
0000
0000
0000
0001
0000
,
0000
0000
0100
0000
0000
0000
0001
0000
0000
0000
1000
0000
,
0000
0000
0010
0000
0000
0000
0100
0000
0000
0000
0001
0000
,
0000
0000
0010
0000
0000
0000
0001
0000
0000
0000
1000
0000
,
0000
0000
0100
0000
0000
0000
0010
0000
0000
0000
0001
0000
,
0000
0000
0100
0000
0000
0000
0010
0000
0000
0000
1000
0000
,
0000
0000
0001
0000
0000
0000
1000
0000
0000
0000
0100
0000
,
0000
0000
0010
0000
0000
0000
0001
0000
0000
0000
1000
0000
,
0000
0000
0010
0000
0000
0000
0100
0000
0000
0000
0001
0000
,
0000
0000
1000
0000
0000
0000
0010
0000
0000
0000
0100
0000
,
0000
0000
0001
0000
0000
0000
1000
0000
0000
0000
0001
0000
,
0000
0000
0100
0000
0000
0000
0010
0000
0000
0000
1000
0000
,
0000
0000
0100
0000
0000
0000
0010
0000
0000
0000
0001
0000
,
0000
0000
0100
0000
0000
0000
0001
0000
0000
0000
1000
0000
,
0000
0000
0010
0000
0000
0000
0100
0000
0000
0000
0001
0000
,
0000
0000
0010
0000
0000
0000
0001
0000
0000
0000
1000
0000
,
0000
0000
0100
0000
0000
0000
0010
0000
0000
0000
0001
0000
,
0000
0000
0100
0000
0000
0000
0010
0000
0000
0000
1000
0000
,
0000
0000
0001
0000
0000
0000
1000
0000
0000
0000
0100
0000
,
0000
0000
0010
0000
0000
0000
0001
0000
0000
0000
1000
0000
,
0000
0000
0010
0000
0000
0000
0100
0000
0000
0000
0001
0000
,
0000
0000
1000
0000
0000
0000
0010
0000
0000
0000
0100
0000
,
0000
0000
0001
0000
0000
0000
1000
0000
0000
0000
0001
0000
,
0000
0000
0100
0000
0000
0000
0010
0000
0000
0000
1000
0000
,
0000
0000
0100
0000
0000
0000
0010
0000
0000
0000
0001
0000
,
0000
0000
0100
0000
0000
0000
0001
0000
0000
0000
1000
0000
,
0000
0000
0010
0000
0000
0000
0100
0000
0000
0000
0001
0000
,
0000
0000
0010
0000
0000
0000
0001
0000
0000
0000
1000
0000
,
0000
0000
0100
0000
0000
0000
0010
0000
0000
0000
0001
0000
,
0000
0000
0100
0000
0000
0000
0010
0000
0000
0000
1000
0000
,
0000
0000
0001
0000
0000
0000
1000
0000
0000
0000
0100
0000
,
0000
0000
0010
0000
0000
0000
0001
0000
0000
0000
1000
0000
,
0000
0000
0010
0000
0000
0000
0100
0000
0000
0000
0001
0000
,
0000
0000
1000
0000
0000
0000
0010
0000
0000
0000
0100
0000
,
0000
0000
0001
0000
0000
0000
1000
0000
0000
0000
0001
0000
,
0000
0000
0100
0000
0000
0000
0010
0000
0000
0000
1000
0000
,
0000
0000
0100
0000
0000
0000
0010
0000
0000
0000
0001
0000
,
0000
0000
0100
0000
0000
0000
0001
0000
0000
0000
1000
0000
,
0000
0000
0010
0000
0000
0000
0100
0000
0000
0000
0001
0000
,
0000
0000
0010
0000
0000
0000
0001
0000
0000
0000
1000
0000
,
0000
0000
0100
0000
0000
0000
0010
0000
0000
0000
0001
0000
,
0000
0000
0100
0000
0000
0000
0010
0000
0000
0000
1000
0000
,
0000
0000
0001
0000
0000
0000
1000
0000
0000
0000
0100
0000
,
0000
0000
0010
0000
0000
0000
0002
0000
0000
0000
0000
0000
,
0000
0000
0003
0000
;

//---------------dance-single - 15 (owenviau1)----------------
#NOTES:
     dance-single:
     15 (owenviau1):
     Easy:
     15:
     1.000,1.000,0.742,0.769,1.000,1505.000,188.000,195.000,0.000,64.000:


1100
1000
0000
0000
0110
0010
0000
0000
0101
0100
0000
0000
1002
1000
0000
0000
,
1103
0100
0000
0000
0110
0010
0000
0000
0101
0100
0000
0000
2001
0001
0000
0000
,
3110
0010
0000
0000
0101
0100
0000
0000
1001
0001
0000
0000
1020
1000
0000
0000
,
0131
0110
1100
0000
1010
1000
0001
0000
0110
1010
0101
0011
2001
0000
0010
0000
,
3102
0003
0000
0000
1020
0030
0000
0000
0210
0300
0000
0000
2002
3000
0000
0000
,
1023
0030
0000
0000
1200
0300
0000
0000
0021
0030
0000
0000
2002
0003
0000
0000
,
3210
0300
0000
0000
0102
0003
0000
0000
2010
3000
0000
0000
0012
0003
0000
0000
,
1200
0311
1100
0000
1001
0000
0011
0000
1100
0110
0011
1001
0101
0000
1010
0000
,
0102
0003
0000
0000
1020
0030
0000
0000
0210
0300
0000
0000
2002
3000
0000
0000
,
1023
0030
0000
0000
1200
0300
0000
0000
0021
0030
0000
0000
2002
0003
0000
0000
,
3210
0300
0000
0000
0102
0003
0000
0000
2010
3000
0000
0000
0012
0003
0000
0000
,
2100
3110
0011
0000
1001
0000
0110
0000
1001
0110
0011
1010
0101
0000
0110
0000
,
1002
0003
0000
0000
0120
0030
0000
0000
0201
0300
0000
0000
2002
3000
0000
0000
,
1023
0030
0000
0000
1200
0300
0000
0000
0021
0030
0000
0000
2002
0003
0000
0000
,
3210
0300
0000
0000
0102
0003
0000
0000
2010
3000
0000
0000
0012
0003
0000
0000
,
1200
0311
1100
0000
1001
0000
0011
0000
1100
0110
0011
1001
0101
0000
0110
0000
,
1002
0003
0200
0000
1320
0030
2000
0000
3201
0300
0000
0000
2200
3000
0000
0000
,
1302
0003
0000
0000
2100
3000
0200
0000
0021
0030
0000
0000
2302
0003
0000
0000
,
3210
0300
2000
0000
3012
0003
0200
0000
2010
3000
0000
0000
0312
0000
0000
0000
,
1203
0311
1100
0000
1001
0000
0011
0000
1100
0110
0011
1001
0102
0000
0010
0000
,
1203
0300
0002
0000
1023
0030
2000
0000
3201
0300
0000
0000
2200
3000
0000
0000
,
1302
0003
0000
0000
2100
3000
0200
0000
0021
0030
0000
0000
2302
0003
0000
0000
,
3210
0300
2000
0000
3012
0003
0200
0000
2010
3000
0000
0000
0312
0000
0000
0000
,
1023
0131
1100
0000
1001
0000
0011
0000
1100
0110
0101
1001
0102
0000
0010
0000
,
1203
0300
0002
0000
1023
0030
2000
0000
3201
0300
0000
0000
2020
3000
0000
0000
,
1032
0003
0000
0000
2100
3000
0200
0000
0021
0030
0000
0000
2302
0003
0000
0000
,
3210
0300
2000
0000
3012
0003
0200
0000
2010
3000
0000
0000
0312
0000
0000
0000
,
1023
0131
1100
0000
2001
0000
3201
0000
0300
0000
0000
0000
0000
0000
0000
0000
,
0000
0000
0000
0000
0000
0000
1010
1010
0000
0110
0000
0000
0101
0000
0000
1020
0000
0000
0000
0000
0000
0000
0000
0000
,
1001
0030
1100
0000
1002
0000
0113
0000
,
2010
0000
0101
0000
0000
3000
0120
0000
,
0000
0000
0030
0000
1100
0000
0000
0000
0102
0003
2000
0000
0110
0000
0000
0000
,
3201
0000
0000
0000
0000
0000
0000
0300
1001
0000
0000
0000
0020
0000
0000
0000
1130
0000
0000
0000
0002
0000
0000
0000
0110
0000
0000
0000
0000
0000
0000
0000
,
2013
0000
0000
0000
3110
0101
1001
0000
0110
0000
1100
0000
1001
0000
0210
0000
,
2300
0000
0000
0000
0011
0000
3000
0000
0210
0000
0000
0300
2000
0000
0000
0000
3021
0000
0000
0000
0230
0000
0000
0000
0302
0000
0000
0000
0000
0000
0003
0000
,
2010
0000
0000
0000
0000
0000
0000
0000
3200
0000
0000
0300
0000
0000
0000
0000
0021
0000
0000
0030
2000
0000
0000
0000
0200
0000
0000
0000
0000
0000
0000
0000
,
3320
0000
0000
0000
0000
0000
0000
0030
0002
0000
0000
0003
2000
0000
0000
0000
3210
0000
0000
0000
0302
0000
0000
0000
0020
0000
0000
0000
0000
0000
0000
0033
,
2000
0000
3000
0000
0220
0330
0000
0000
,
2002
0000
0000
0000
0000
0000
0000
0000
0000
0000
0000
0000
3000
0000
0000
0000
0000
0000
0000
0000
0000
0000
0003
0000
0120
0000
0000
0000
0000
0000
0000
0000
0000
0030
0000
0000
2000
0000
0000
0000
0000
0000
0000
0000
0000
0000
0000
0000
0002
0000
0000
0000
0000
0000
0000
0000
0000
0000
0000
0000
3203
0000
0000
0000
0000
0000
0000
0000
0000
0000
0000
0000
0320
0000
0000
0000
0000
0000
0000
0000
0000
0000
0000
0000
0000
0000
0000
0000
0000
0000
0000
0000
0000
0030
0000
0000
,
0002
0000
0000
0000
0000
0000
0000
0003
2000
0000
0000
3000
0000
0000
0000
0000
0210
0000
0000
0000
0302
0000
0000
0000
0020
0000
0000
0000
0000
0000
0000
0033
,
2000
0000
0000
0000
3200
0300
0020
0000
0032
0003
0200
0000
0020
0000
0000
0000
,
0332
2003
3002
2003
3002
2003
3002
2003
3002
2003
3002
0000
2003
0000
3002
0000
,
2003
3000
0000
0000
0000
0000
0000
0000
,
0000
0000
0000
0000
,
0000
0000
0000
0000
,
0000
0000
0000
0000
,
1000
0100
0010
0001
0100
0001
1000
0010
0100
0001
0010
0001
1000
0010
0100
0001
,
1000
0001
0100
0010
1000
0001
1000
0100
0010
0001
0100
0010
0100
0001
1000
0100
,
1000
0010
0100
0001
1000
0001
0100
0010
1000
0100
0010
0001
0100
0001
1000
0010
,
0100
0001
1000
0001
0100
0010
1000
0100
0010
0001
0100
0010
1000
0100
1000
0001
,
0100
0001
1000
0010
0100
0001
1000
0100
0010
0001
1000
0001
0100
0010
1000
0001
,
0100
0001
1000
0100
0010
0001
1000
0010
0100
0010
1000
0001
0010
0001
0100
0010
,
1000
0100
0010
0001
0100
0010
1000
0001
0010
0001
0100
0010
1000
0100
0010
0001
,
0100
0010
1000
0100
0010
0001
1000
0001
0100
0010
2000
0000
0000
0000
3002
0000
,
0000
0003
0000
0000
0000
0000
0000
0000
,
0000
0000
0000
0000
,
0000
0000
0000
0000
,
0000
0000
0000
0000
,
1000
0100
0010
0001
0100
0001
1000
0010
0100
0001
0010
0001
1000
0010
0100
0001
,
1000
0001
0100
0010
1000
0001
1000
0100
0010
0001
0100
0010
0100
0001
1000
0100
,
1000
0010
0100
0001
1000
0001
0100
0010
1000
0100
0010
0001
0100
0001
1000
0010
,
0100
0001
1000
0001
0100
0010
1000
0100
0010
0001
0100
0010
1000
0100
1000
0001
,
0100
0001
1000
0010
0100
0001
1000
0100
0010
0001
1000
0001
0100
0010
1000
0001
,
0100
0001
1000
0100
0010
0001
1000
0010
0100
0010
1000
0001
0010
0001
0100
0010
,
1000
0100
0010
0001
0100
0010
1000
0001
0010
0001
0100
0010
1000
0100
0010
0001
,
0100
0010
1000
0100
0010
0001
1000
0001
0010
0100
2000
0000
0000
0000
3020
0000
,
0000
0030
0000
0000
0000
0000
0000
0000
,
0000
0000
0000
0000
,
0000
0000
0000
0000
,
0000
0000
0000
0000
,
1000
0100
0010
0001
0100
0001
1000
0010
0100
0001
0010
0001
1000
0010
0100
0001
,
1000
0001
0100
0010
1000
0001
1000
0100
0010
0001
0100
0010
0100
0001
1000
0100
,
1000
0010
0100
0001
1000
0001
0100
0010
1000
0100
0010
0001
0100
0001
1000
0010
,
0100
0001
1000
0001
0100
0010
1000
0100
0010
0001
0100
0010
1000
0100
1000
0001
,
0100
0001
1000
0010
0100
0001
1000
0100
0010
0001
1000
0001
0100
0010
1000
0001
,
0100
0001
1000
0100
0010
0001
1000
0010
0100
0010
1000
0001
0010
0001
0100
0010
,
1000
0100
0010
0001
0100
0010
1000
0001
0010
0001
0100
0010
1000
0100
0010
0001
,
0100
0010
1000
0100
0010
0001
0100
0001
1000
0010
0200
0000
0000
0000
0302
0000
,
0000
0003
0000
0000
0000
0000
0000
0000
,
0000
0000
0000
0000
,
0000
0000
0000
0000
,
0000
0000
0000
0000
,
1000
0010
1000
0001
0100
0001
1000
0010
0100
0001
0010
0001
1000
0010
0100
0001
,
1000
0001
0100
0010
1000
0001
1000
0100
0010
0001
0100
0010
0100
0001
1000
0100
,
1000
0010
0100
0001
1000
0001
0100
0010
1000
0100
0010
0001
0100
0001
1000
0010
,
0100
0001
1000
0001
0100
0010
1000
0100
0010
0001
0100
0010
1000
0100
1000
0001
,
0100
0001
1000
0010
0100
0001
0010
0100
1000
0001
0010
0001
0100
0010
1000
0001
,
0100
0001
1000
0100
0010
0001
1000
0010
0100
0010
1000
0001
0010
0001
0100
0010
,
1000
0100
0010
0001
0100
0010
1000
0001
0010
0001
0100
0010
1000
0100
0010
0001
,
0100
0010
1000
0100
0010
0001
1000
0001
0100
0010
2000
0000
0000
0000
3002
0000
,
0000
0003
0000
0000
0000
0000
0000
0000
,
0000
0000
0000
0000
,
0000
0000
0000
0000
,
0000
0000
0000
0000
,
1000
0100
0010
0001
0100
0001
1000
0010
0100
0001
0010
0001
1000
0010
0100
0001
,
1000
0001
0100
0010
1000
0001
1000
0100
0010
0001
1000
0010
0100
0001
1000
0100
,
1000
0010
0100
0001
1000
0001
0100
0010
1000
0100
0010
0001
0100
0001
1000
0010
,
0100
0001
1000
0001
0100
0010
1000
0100
0010
0001
0100
0010
1000
0100
1000
0001
,
0100
0001
1000
0010
0100
0001
0010
0100
1000
0001
0010
0001
0100
0010
1000
0001
,
0100
0001
0010
0100
1000
0001
1000
0010
0100
0010
1000
0001
0010
0001
0100
0010
,
1000
0100
0010
0001
0100
0010
1000
0001
0010
0001
0100
0010
1000
0100
0010
0001
,
0100
0010
1000
0100
0010
0001
1000
0001
0100
0010
2000
0000
0000
0000
3002
0000
,
0000
0003
0000
0000
0000
0000
0000
0000
,
0000
0000
0000
0000
,
0000
0000
0000
0000
,
0000
0000
0000
0000
,
1000
0100
0010
0001
0100
0001
1000
0010
0100
0001
0010
0001
1000
0010
0100
0001
,
1000
0001
0100
0010
1000
0001
1000
0100
0010
0001
0100
0010
0100
0001
1000
0100
,
1000
0010
0100
0001
1000
0001
0100
0010
1000
0100
0010
0001
0100
0001
1000
0010
,
0100
0001
1000
0001
0100
0010
1000
0100
0010
0001
0100
0010
1000
0100
1000
0001
,
0100
0001
1000
0010
0100
0001
1000
0100
0010
0001
1000
0001
0100
0010
1000
0001
,
0100
0001
1000
0100
0010
0001
1000
0010
0100
0010
1000
0001
0010
0001
0100
0010
,
1000
0100
0010
0001
0100
0010
1000
0001
0010
0001
0100
0010
1000
0100
0010
0001
,
0100
0010
1000
0100
0010
0001
1000
0001
0100
0010
2000
0000
0000
0000
3002
0000
,
0000
0003
0000
0000
0000
0000
0000
0000
,
0000
0000
0000
0000
,
0000
0000
0000
0000
,
0000
0000
0000
0000
,
1000
0100
0010
0001
0100
0001
1000
0010
0100
0001
0010
0001
1000
0010
0100
0001
,
1000
0001
0100
0010
1000
0001
1000
0100
0010
0001
0100
0010
0100
0001
1000
0100
,
1000
0010
0100
0001
1000
0001
0100
0010
1000
0100
0010
0001
0100
0001
1000
0010
,
0100
0001
1000
0001
0100
0010
1000
0100
0010
0001
0100
0010
1000
0100
1000
0001
,
0100
0001
1000
0010
0100
0001
1000
0100
0010
0001
1000
0001
0100
0010
1000
0001
,
0100
0001
1000
0100
0010
0001
1000
0010
0100
0010
1000
0001
0010
0001
0100
0010
,
1000
0100
0010
0001
0100
0010
1000
0001
0010
0001
0100
0010
1000
0100
0010
0001
,
0100
0010
1000
0100
0010
0001
1000
0010
0100
0001
0020
0000
0000
0000
0230
0000
,
0000
0300
0000
0000
0000
0000
0000
0000
,
0000
0000
0000
0000
,
0000
0000
0000
0000
,
0000
0000
0000
0000
,
1000
0100
0010
0001
1000
0010
0100
0001
1000
0100
1000
0001
,
0100
0010
1000
0001
0010
0100
1000
0010
0100
0010
1000
0001
,
0100
0001
1000
0010
0100
0001
1000
0100
0010
0001
0100
0010
,
1000
0001
0010
0001
0100
0010
1000
0100
0010
0001
0100
0010
,
1000
0001
0010
0100
1000
0100
0010
0001
0100
0010
1000
0001
,
0100
0001
1000
0010
1000
0001
0100
0010
1000
0100
0010
0001
,
0100
0010
1000
0001
0010
0001
1000
0100
1000
0010
0100
0001
,
1000
0100
0010
0001
1000
0010
0100
0001
1000
0001
0200
0000
,
0000
0320
0000
0030
0000
0000
0000
0000
,
0000
0000
0000
0000
,
0000
0000
0000
0000
,
0000
0000
0000
0000
,
0000
0000
0000
1000
0100
0010
0001
1000
0001
0100
0010
1000
,
0001
0010
0100
1000
0001
0100
0010
1000
0001
0010
0001
0100
,
0010
1000
0100
0010
0001
1000
0010
1000
0001
0100
0001
1000
,
0100
1000
0001
0100
0010
1000
0001
0010
0100
1000
0001
0100
,
0001
1000
0010
1000
0001
0100
0010
1000
0100
0010
0001
1000
,
0100
1000
0010
0100
0001
0010
0001
1000
0010
0100
0001
1000
,
0100
1000
0001
0100
0010
1000
0100
0010
0001
0100
0010
1000
,
0010
0000
0100
0000
0001
0000
1000
0000
0100
0000
0010
0000
0001
0000
1000
0000
0001
0000
0100
0000
0000
0020
0000
0000
,
0000
0032
0000
0003
0000
0000
0000
0000
,
0000
0000
0000
0000
,
0000
0000
0000
0000
,
0000
0000
0000
0000
,
0000
0000
0000
0000
,
0000
0000
0000
0000
,
0000
0000
0000
0000
,
0000
0000
0000
0000
,
0000
0000
0000
0000
0000
0000
1000
0000
0000
0000
0100
0000
,
0000
0000
0010
0000
0000
0000
0001
0000
0000
0000
1000
0000
,
0000
0000
0010
0000
0000
0000
0100
0000
0000
0000
0001
0000
,
0000
0000
1000
0000
0000
0000
0010
0000
0000
0000
0100
0000
,
0000
0000
0001
0000
0000
0000
1000
0000
0000
0000
0001
0000
,
0000
0000
0100
0000
0000
0000
0010
0000
0000
0000
1000
0000
,
0000
0000
0100
0000
0000
0000
0010
0000
0000
0000
0001
0000
,
0000
0000
0100
0000
0000
0000
0001
0000
0000
0000
1000
0000
,
0000
0000
0010
0000
0000
0000
0100
0000
0000
0000
0001
0000
,
0000
0000
0010
0000
0000
0000
0001
0000
0000
0000
1000
0000
,
0000
0000
0100
0000
0000
0000
0010
0000
0000
0000
0001
0000
,
0000
0000
0100
0000
0000
0000
0010
0000
0000
0000
1000
0000
,
0000
0000
0001
0000
0000
0000
1000
0000
0000
0000
0100
0000
,
0000
0000
0010
0000
0000
0000
0001
0000
0000
0000
1000
0000
,
0000
0000
0010
0000
0000
0000
0100
0000
0000
0000
0001
0000
,
0000
0000
1000
0000
0000
0000
0010
0000
0000
0000
0100
0000
,
0000
0000
0001
0000
0000
0000
1000
0000
0000
0000
0001
0000
,
0000
0000
0100
0000
0000
0000
0010
0000
0000
0000
1000
0000
,
0000
0000
0100
0000
0000
0000
0010
0000
0000
0000
0001
0000
,
0000
0000
0100
0000
0000
0000
0001
0000
0000
0000
1000
0000
,
0000
0000
0010
0000
0000
0000
0100
0000
0000
0000
0001
0000
,
0000
0000
0010
0000
0000
0000
0001
0000
0000
0000
1000
0000
,
0000
0000
0100
0000
0000
0000
0010
0000
0000
0000
0001
0000
,
0000
0000
0100
0000
0000
0000
0010
0000
0000
0000
1000
0000
,
0000
0000
0001
0000
0000
0000
1000
0000
0000
0000
0100
0000
,
0000
0000
0010
0000
0000
0000
0001
0000
0000
0000
1000
0000
,
0000
0000
0010
0000
0000
0000
0100
0000
0000
0000
0001
0000
,
0000
0000
1000
0000
0000
0000
0010
0000
0000
0000
0100
0000
,
0000
0000
0001
0000
0000
0000
1000
0000
0000
0000
0001
0000
,
0000
0000
0100
0000
0000
0000
0010
0000
0000
0000
1000
0000
,
0000
0000
0100
0000
0000
0000
0010
0000
0000
0000
0001
0000
,
0000
0000
0100
0000
0000
0000
0001
0000
0000
0000
1000
0000
,
0000
0000
0010
0000
0000
0000
0100
0000
0000
0000
0001
0000
,
0000
0000
0010
0000
0000
0000
0001
0000
0000
0000
1000
0000
,
0000
0000
0100
0000
0000
0000
0010
0000
0000
0000
0001
0000
,
0000
0000
0100
0000
0000
0000
0010
0000
0000
0000
1000
0000
,
0000
0000
0001
0000
0000
0000
1000
0000
0000
0000
0100
0000
,
0000
0000
0010
0000
0000
0000
0001
0000
0000
0000
1000
0000
,
0000
0000
0010
0000
0000
0000
0100
0000
0000
0000
0001
0000
,
0000
0000
1000
0000
0000
0000
0010
0000
0000
0000
0100
0000
,
0000
0000
0001
0000
0000
0000
1000
0000
0000
0000
0001
0000
,
0000
0000
0100
0000
0000
0000
0010
0000
0000
0000
1000
0000
,
0000
0000
0100
0000
0000
0000
0010
0000
0000
0000
0001
0000
,
0000
0000
0100
0000
0000
0000
0001
0000
0000
0000
1000
0000
,
0000
0000
0010
0000
0000
0000
0100
0000
0000
0000
0001
0000
,
0000
0000
0010
0000
0000
0000
0001
0000
0000
0000
1000
0000
,
0000
0000
0100
0000
0000
0000
0010
0000
0000
0000
0001
0000
,
0000
0000
0100
0000
0000
0000
0010
0000
0000
0000
1000
0000
,
0000
0000
0001
0000
0000
0000
1000
0000
0000
0000
0100
0000
,
0000
0000
0010
0000
0000
0000
0001
0000
0000
0000
1000
0000
,
0000
0000
0010
0000
0000
0000
0100
0000
0000
0000
0001
0000
,
0000
0000
1000
0000
0000
0000
0010
0000
0000
0000
0100
0000
,
0000
0000
0001
0000
0000
0000
1000
0000
0000
0000
0001
0000
,
0000
0000
0100
0000
0000
0000
0010
0000
0000
0000
1000
0000
,
0000
0000
0100
0000
0000
0000
0010
0000
0000
0000
0001
0000
,
0000
0000
0100
0000
0000
0000
0001
0000
0000
0000
1000
0000
,
0000
0000
0010
0000
0000
0000
0100
0000
0000
0000
0001
0000
,
0000
0000
0010
0000
0000
0000
0001
0000
0000
0000
1000
0000
,
0000
0000
0100
0000
0000
0000
0010
0000
0000
0000
0001
0000
,
0000
0000
0100
0000
0000
0000
0010
0000
0000
0000
1000
0000
,
0000
0000
0001
0000
0000
0000
1000
0000
0000
0000
0100
0000
,
0000
0000
0010
0000
0000
0000
0002
0000
0000
0000
0000
0000
,
0000
0000
0003
0000
;

//---------------dance-single - 17 (owenviau1)----------------
#NOTES:
     dance-single:
     17 (owenviau1):
     Medium:
     17:
     1.000,1.000,0.742,0.789,1.000,1603.000,188.000,200.000,704.000,64.000:


1100
1000
0000
0000
0110
0010
0000
0000
0101
0100
0000
0000
1002
1000
0000
0000
,
1103
0100
0000
0000
0110
0010
0000
0000
0101
0100
0000
0000
2001
0001
0000
0000
,
3110
0010
0000
0000
0101
0100
0000
0000
1001
0001
0000
0000
1020
1000
0000
0000
,
0131
0110
1100
0000
1010
1000
0001
0000
0110
1010
0101
0011
2001
0000
0010
0000
,
3102
0003
0000
0000
1020
0030
0000
0000
0210
0300
0000
0000
2002
3000
0000
0000
,
1023
0030
0000
0000
1200
0300
0000
0000
0021
0030
0000
0000
2002
0003
0000
0000
,
3210
0300
0000
0000
0102
0003
0000
0000
2010
3000
0000
0000
0012
0003
0000
0000
,
1200
0311
1100
0000
1001
0000
0011
0000
1100
0110
0011
1001
0101
0000
1010
0000
,
0102
0003
0000
0000
1020
0030
0000
0000
0210
0300
0000
0000
2002
3000
0000
0000
,
1023
0030
0000
0000
1200
0300
0000
0000
0021
0030
0000
0000
2002
0003
0000
0000
,
3210
0300
0000
0000
0102
0003
0000
0000
2010
3000
0000
0000
0012
0003
0000
0000
,
2100
3110
0011
0000
1001
0000
0110
0000
1001
0110
0011
1010
0101
0000
0110
0000
,
1002
0003
0000
0000
0120
0030
0000
0000
0201
0300
0000
0000
2002
3000
0000
0000
,
1023
0030
0000
0000
1200
0300
0000
0000
0021
0030
0000
0000
2002
0003
0000
0000
,
3210
0300
0000
0000
0102
0003
0000
0000
2010
3000
0000
0000
0012
0003
0000
0000
,
1200
0311
1100
0000
1001
0000
0011
0000
1100
0110
0011
1001
0101
0000
0110
0000
,
1002
0003
0200
0000
1320
0030
2000
0000
3201
0300
0000
0000
2200
3000
0000
0000
,
1302
0003
0000
0000
2100
3000
0200
0000
0021
0030
0000
0000
2302
0003
0000
0000
,
3210
0300
2000
0000
3012
0003
0200
0000
2010
3000
0000
0000
0312
0000
0000
0000
,
1203
0311
1100
0000
1001
0000
0011
0000
1100
0110
0011
1001
0102
0000
0010
0000
,
1203
0300
0002
0000
1023
0030
2000
0000
3201
0300
0000
0000
2200
3000
0000
0000
,
1302
0003
0000
0000
2100
3000
0200
0000
0021
0030
0000
0000
2302
0003
0000
0000
,
3210
0300
2000
0000
3012
0003
0200
0000
2010
3000
0000
0000
0312
0000
0000
0000
,
1023
0131
1100
0000
1001
0000
0011
0000
1100
0110
0101
1001
0102
0000
0010
0000
,
1203
0300
0002
0000
1023
0030
2000
0000
3201
0300
0000
0000
2020
3000
0000
0000
,
1032
0003
0000
0000
2100
3000
0200
0000
0021
0030
0000
0000
2302
0003
0000
0000
,
3210
0300
2000
0000
3012
0003
0200
0000
2010
3000
0000
0000
0312
0000
0000
0000
,
1023
0131
1100
0000
2001
0000
3201
0000
0300
0000
0000
0000
0000
0000
0000
0000
,
0000
0000
0000
0000
0000
0000
1010
1010
0000
0110
0000
0000
0101
0000
0000
1020
0000
0000
0000
0000
0000
0000
0000
0000
,
1001
0030
1100
0000
1002
0000
0113
0000
,
2010
0000
0101
0000
0000
3000
0120
0000
,
0000
0000
0030
0000
1100
0000
0000
0000
0102
0003
2000
0000
0110
0000
0000
0000
,
3201
0000
0000
0000
0000
0000
0000
0300
1001
0000
0000
0000
0020
0000
0000
0000
1130
0000
0000
0000
0002
0000
0000
0000
0110
0000
0000
0000
0000
0000
0000
0000
,
2013
0000
0000
0000
3110
0101
1001
0000
0110
0000
1100
0000
1001
0000
0210
0000
,
2300
0000
0000
0000
0011
0000
3000
0000
0210
0000
0000
0300
2000
0000
0000
0000
3021
0000
0000
0000
0230
0000
0000
0000
0302
0000
0000
0000
0000
0000
0003
0000
,
2010
0000
0000
0000
0000
0000
0000
0000
3200
0000
0000
0300
0000
0000
0000
0000
0021
0000
0000
0030
2000
0000
0000
0000
0200
0000
0000
0000
0000
0000
0000
0000
,
3320
0000
0000
0000
0000
0000
0000
0030
0002
0000
0000
0003
2000
0000
0000
0000
3210
0000
0000
0000
0302
0000
0000
0000
0020
0000
0000
0000
0000
0000
0000
0033
,
2000
0000
3000
0000
0220
0330
0000
0000
,
2002
0000
0000
0000
0000
0000
0000
0000
0000
0000
0000
0000
3000
0000
0000
0000
0000
0000
0000
0000
0000
0000
0003
0000
0120
0000
0000
0000
0000
0000
0000
0000
0000
0030
0000
0000
2000
0000
0000
0000
0000
0000
0000
0000
0000
0000
0000
0000
0002
0000
0000
0000
0000
0000
0000
0000
0000
0000
0000
0000
3203
0000
0000
0000
0000
0000
0000
0000
0000
0000
0000
0000
0320
0000
0000
0000
0000
0000
0000
0000
0000
0000
0000
0000
0000
0000
0000
0000
0000
0000
0000
0000
0000
0030
0000
0000
,
0002
0000
0000
0000
0000
0000
0000
0003
2000
0000
0000
3000
0000
0000
0000
0000
0210
0000
0000
0000
0302
0000
0000
0000
0020
0000
0000
0000
0000
0000
0000
0033
,
2000
0000
0000
0000
3200
0300
0020
0000
0032
0003
0200
0000
0020
0000
0000
0000
,
0332
2003
3002
2003
3002
2003
3002
2003
3002
2003
3002
2003
3002
2003
3002
2003
0000
0000
3002
0000
0000
2003
0000
0000
,
3002
0003
0000
0000
0000
0000
0000
0000
,
0000
0000
0000
0000
,
0M00
0M00
0M00
0M00
0M00
0M00
0M00
0M00
0M00
0000
0000
0000
MMMM
M000
M000
M000
MMMM
000M
000M
000M
MMMM
0000
0000
0000
MMMM
M00M
M00M
M00M
M00M
M00M
M00M
M00M
,
MMMM
0000
0000
0000
,
1000
0100
0010
0001
0100
0001
1000
0010
0100
0001
0010
0001
1000
0010
0100
0001
,
1000
0001
0100
0010
1000
0001
1000
0100
0010
0001
0100
0010
0100
0001
1000
0100
,
1000
0010
0100
0001
1000
0001
0100
0010
1000
0100
0010
0001
0100
0001
1000
0010
,
0100
0001
1000
0001
0100
0010
1000
0100
0010
0001
0100
0010
1000
0100
1000
0001
,
0100
0001
1000
0010
0100
0001
1000
0100
0010
0001
1000
0001
0100
0010
1000
0001
,
0100
0001
1000
0100
0010
0001
1000
0010
0100
0010
1000
0001
0010
0001
0100
0010
,
1000
0100
0010
0001
0100
0010
1000
0001
0010
0001
0100
0010
1000
0100
0010
0001
,
0100
0010
1000
0100
0010
0001
1000
0001
0100
0010
2000
0000
0000
0000
3002
0000
,
0000
0003
0000
0000
0000
0000
0000
0000
,
0000
0000
0000
0000
0000
0000
0000
0000
0000
0000
0000
0000
0000
0000
0000
0000
0000
0000
0000
0000
0000
0000
0000
0000
0000
0000
0000
0000
0M00
0M00
0M00
0M00
,
0M00
0M00
0M00
0M00
0M00
0000
0000
0000
MMMM
M000
M000
M000
MMMM
000M
000M
000M
MMMM
0000
0000
0000
MMMM
M000
M000
M000
MMMM
000M
000M
000M
MMMM
0000
0000
0000
,
0000
0000
0000
0000
,
1000
0100
0010
0001
0100
0001
1000
0010
0100
0001
0010
0001
1000
0010
0100
0001
,
1000
0001
0100
0010
1000
0001
1000
0100
0010
0001
0100
0010
0100
0001
1000
0100
,
1000
0010
0100
0001
1000
0001
0100
0010
1000
0100
0010
0001
0100
0001
1000
0010
,
0100
0001
1000
0001
0100
0010
1000
0100
0010
0001
0100
0010
1000
0100
1000
0001
,
0100
0001
1000
0010
0100
0001
1000
0100
0010
0001
1000
0001
0100
0010
1000
0001
,
0100
0001
1000
0100
0010
0001
1000
0010
0100
0010
1000
0001
0010
0001
0100
0010
,
1000
0100
0010
0001
0100
0010
1000
0001
0010
0001
0100
0010
1000
0100
0010
0001
,
0100
0010
1000
0100
0010
0001
1000
0001
0010
0100
2000
0000
0000
0000
3020
0000
,
0000
0030
0000
0000
0000
0000
0000
0000
,
0000
0000
0000
0000
,
0M00
0M00
0M00
0M00
0M00
0M00
0M00
0M00
0M00
0000
0000
0000
MMMM
M000
M000
M000
MMMM
M00M
M00M
M00M
MMMM
0000
0000
0000
MMMM
M00M
M00M
M00M
M00M
M00M
M00M
M00M
,
MMMM
0000
0000
0000
,
1000
0100
0010
0001
0100
0001
1000
0010
0100
0001
0010
0001
1000
0010
0100
0001
,
1000
0001
0100
0010
1000
0001
1000
0100
0010
0001
0100
0010
0100
0001
1000
0100
,
1000
0010
0100
0001
1000
0001
0100
0010
1000
0100
0010
0001
0100
0001
1000
0010
,
0100
0001
1000
0001
0100
0010
1000
0100
0010
0001
0100
0010
1000
0100
1000
0001
,
0100
0001
1000
0010
0100
0001
1000
0100
0010
0001
1000
0001
0100
0010
1000
0001
,
0100
0001
1000
0100
0010
0001
1000
0010
0100
0010
1000
0001
0010
0001
0100
0010
,
1000
0100
0010
0001
0100
0010
1000
0001
0010
0001
0100
0010
1000
0100
0010
0001
,
0100
0010
1000
0100
0010
0001
0100
0001
1000
0010
0200
0000
0000
0000
0302
0000
,
0000
0003
0000
0000
0000
0000
0000
0000
,
0000
0000
0000
0000
,
0M00
0M00
0M00
0M00
0M00
0M00
0M00
0M00
0M00
0M00
0M00
0000
0000
0000
0000
0000
MMMM
000M
000M
000M
000M
000M
000M
000M
000M
0000
0000
0000
0000
0000
MMMM
M00M
,
M00M
M00M
M00M
M00M
M00M
M00M
M00M
M00M
MMMM
0000
0000
0000
0000
0000
0000
0000
0000
0000
0000
0000
0000
0000
0000
0000
0000
0000
0000
0000
0000
0000
0000
0000
,
1000
0010
1000
0001
0100
0001
1000
0010
0100
0001
0010
0001
1000
0010
0100
0001
,
1000
0001
0100
0010
1000
0001
1000
0100
0010
0001
0100
0010
0100
0001
1000
0100
,
1000
0010
0100
0001
1000
0001
0100
0010
1000
0100
0010
0001
0100
0001
1000
0010
,
0100
0001
1000
0001
0100
0010
1000
0100
0010
0001
0100
0010
1000
0100
1000
0001
,
0100
0001
1000
0010
0100
0001
0010
0100
1000
0001
0010
0001
0100
0010
1000
0001
,
0100
0001
1000
0100
0010
0001
1000
0010
0100
0010
1000
0001
0010
0001
0100
0010
,
1000
0100
0010
0001
0100
0010
1000
0001
0010
0001
0100
0010
1000
0100
0010
0001
,
0100
0010
1000
0100
0010
0001
1000
0001
0100
0010
2000
0000
0000
0000
3002
0000
,
0000
0003
0000
0000
0000
0000
0000
0000
,
0000
0000
0000
0000
,
0000
0000
0000
0000
00M0
00M0
00M0
00M0
00M0
00M0
00M0
00M0
00M0
00M0
00M0
0000
0000
0000
0000
0000
MMMM
M00M
M00M
M00M
M00M
MMMM
M00M
M00M
M00M
M00M
MMMM
0000
,
0000
0000
0000
0000
MMMM
M00M
M00M
M00M
M00M
M00M
M00M
M00M
M00M
M00M
MMMM
0000
0000
0000
0000
0000
0000
0000
0000
0000
0000
0000
0000
0000
0000
0000
0000
0000
,
1000
0100
0010
0001
0100
0001
1000
0010
0100
0001
0010
0001
1000
0010
0100
0001
,
1000
0001
0100
0010
1000
0001
1000
0100
0010
0001
1000
0010
0100
0001
1000
0100
,
1000
0010
0100
0001
1000
0001
0100
0010
1000
0100
0010
0001
0100
0001
1000
0010
,
0100
0001
1000
0001
0100
0010
1000
0100
0010
0001
0100
0010
1000
0100
1000
0001
,
0100
0001
1000
0010
0100
0001
0010
0100
1000
0001
0010
0001
0100
0010
1000
0001
,
0100
0001
0010
0100
1000
0001
1000
0010
0100
0010
1000
0001
0010
0001
0100
0010
,
1000
0100
0010
0001
0100
0010
1000
0001
0010
0001
0100
0010
1000
0100
0010
0001
,
0100
0010
1000
0100
0010
0001
1000
0001
0100
0010
2000
0000
0000
0000
3002
0000
,
0000
0003
0000
0000
0000
0000
0000
0000
,
0000
0000
0000
0000
,
0000
0000
0000
0000
0000
0000
0000
0000
MMMM
000M
000M
000M
000M
MMMM
M000
M000
M000
M000
MMMM
0000
0000
0000
0000
0000
MMMM
M00M
M00M
M00M
M00M
M00M
M00M
M00M
,
M00M
M00M
MMMM
0000
0000
0000
0000
0000
MMMM
M00M
M00M
M00M
M00M
M00M
M00M
M00M
M00M
M00M
MMMM
0000
0000
0000
0000
0000
0000
0000
0000
0000
0000
0000
0000
0000
,
1000
0100
0010
0001
0100
0001
1000
0010
0100
0001
0010
0001
1000
0010
0100
0001
,
1000
0001
0100
0010
1000
0001
1000
0100
0010
0001
0100
0010
0100
0001
1000
0100
,
1000
0010
0100
0001
1000
0001
0100
0010
1000
0100
0010
0001
0100
0001
1000
0010
,
0100
0001
1000
0001
0100
0010
1000
0100
0010
0001
0100
0010
1000
0100
1000
0001
,
0100
0001
1000
0010
0100
0001
1000
0100
0010
0001
1000
0001
0100
0010
1000
0001
,
0100
0001
1000
0100
0010
0001
1000
0010
0100
0010
1000
0001
0010
0001
0100
0010
,
1000
0100
0010
0001
0100
0010
1000
0001
0010
0001
0100
0010
1000
0100
0010
0001
,
0100
0010
1000
0100
0010
0001
1000
0001
0100
0010
2000
0000
0000
0000
3002
0000
,
0000
0003
0000
0000
0000
0000
0000
0000
,
0000
0000
0000
0000
,
0000
0000
0000
0000
0000
0000
0000
0000
0000
0000
0000
0000
0000
0000
0000
0000
MMMM
000M
000M
000M
000M
MMMM
M000
M000
M000
M000
MMMM
0000
0000
0000
0000
0000
,
MMMM
000M
000M
000M
000M
MMMM
M000
M000
M000
M000
MMMM
0000
0000
0000
0000
0000
MMMM
M00M
M00M
M00M
M00M
M00M
M00M
M00M
M00M
M00M
MMMM
0000
0000
0000
0000
0000
,
1000
0100
0010
0001
0100
0001
1000
0010
0100
0001
0010
0001
1000
0010
0100
0001
,
1000
0001
0100
0010
1000
0001
1000
0100
0010
0001
0100
0010
0100
0001
1000
0100
,
1000
0010
0100
0001
1000
0001
0100
0010
1000
0100
0010
0001
0100
0001
1000
0010
,
0100
0001
1000
0001
0100
0010
1000
0100
0010
0001
0100
0010
1000
0100
1000
0001
,
0100
0001
1000
0010
0100
0001
1000
0100
0010
0001
1000
0001
0100
0010
1000
0001
,
0100
0001
1000
0100
0010
0001
1000
0010
0100
0010
1000
0001
0010
0001
0100
0010
,
1000
0100
0010
0001
0100
0010
1000
0001
0010
0001
0100
0010
1000
0100
0010
0001
,
0100
0010
1000
0100
0010
0001
1000
0010
0100
0001
0020
0000
0000
0000
0230
0000
,
0000
0300
0000
0000
0000
0000
0000
0000
,
0000
0000
0000
0000
,
0000
0000
0000
0000
0000
0000
0000
0000
0000
0000
0000
0000
0000
0000
0000
0000
MMMM
000M
000M
000M
000M
MMMM
M000
M000
M000
M000
MMMM
0000
0000
0000
0000
0000
,
MMMM
M000
M000
M000
M000
MMMM
000M
000M
000M
000M
MMMM
0000
0000
0000
0000
0000
MMMM
M00M
M00M
M00M
M00M
M00M
M00M
M00M
M00M
M00M
MMMM
0000
0000
0000
0000
0000
,
1000
0100
0010
0001
0100
0001
1000
0010
0100
0001
0010
0001
1000
0010
0100
0001
,
1000
0001
0100
0010
1000
0001
1000
0100
0010
0001
0100
0010
0100
0001
1000
0100
,
1000
0010
0100
0001
1000
0001
0100
0010
1000
0100
0010
0001
0100
0001
1000
0010
,
0100
0001
1000
0001
0100
0010
1000
0100
0010
0001
0100
0010
1000
0100
1000
0001
,
0100
0001
1000
0010
0100
0001
1000
0100
0010
0001
1000
0001
0100
0010
1000
0001
,
0100
0001
1000
0100
0010
0001
1000
0010
0100
0010
1000
0001
0010
0001
0100
0010
,
1000
0100
0010
0001
0100
0010
1000
0001
0010
0001
0100
0010
1000
0100
0010
0001
,
0100
0010
1000
0100
0010
0001
1000
0001
0100
0010
1000
0001
1000
0010
0200
0000
,
0000
0302
0000
0003
0000
0000
0000
0000
,
0000
0000
0000
0000
,
0000
0000
0000
0000
0000
0000
0000
0000
0000
0000
0000
0000
0000
0000
0000
0000
0000
0000
0000
0000
0000
0000
0000
0000
MMMM
000M
000M
000M
000M
MMMM
000M
000M
,
000M
000M
MMMM
0000
0000
0000
0000
0000
MMMM
M00M
M00M
M00M
M00M
M00M
M00M
M00M
M00M
M00M
MMMM
0000
0000
0000
0000
0000
MMMM
M00M
M00M
M00M
M00M
M00M
M00M
M00M
,
M00M
0000
0000
M00M
0000
0000
MMMM
0000
0000
0000
0000
0000
0000
0000
0000
0000
0000
0000
0000
0000
0000
0000
0000
0000
1000
0000
0000
0000
0000
0000
0000
0000
0100
0000
0000
0000
0000
0000
0000
0000
0010
0000
0000
0000
0000
0000
0000
0000
0001
0000
0000
0000
0000
0000
0000
0000
1000
0000
0000
0000
0000
0000
0000
0000
0001
0000
0000
0000
0000
0000
0000
0000
0100
0000
0000
0000
0000
0000
0000
0000
0010
0000
0000
0000
0000
0000
0000
0000
1000
0000
0000
0000
0000
0000
0000
0000
,
0001
0010
0100
1000
0001
0100
0010
1000
0001
0010
0001
0100
,
0010
1000
0100
0010
0001
1000
0010
1000
0001
0100
0001
1000
,
0100
1000
0001
0100
0010
1000
0001
0010
0100
1000
0001
0100
,
0001
1000
0010
1000
0001
0100
0010
1000
0100
0010
0001
1000
,
0100
1000
0010
0100
0001
0010
0001
1000
0010
0100
0001
1000
,
0100
1000
0001
0100
0010
1000
0100
0010
0001
0100
0010
1000
,
0010
0000
0100
0000
0001
0000
1000
0000
0100
0000
0010
0000
0001
0000
1000
0000
0001
0000
0100
0000
0000
0020
0000
0000
,
0000
0032
0000
0003
0000
0000
0000
0000
,
0000
0000
0000
0000
,
0000
0000
0000
0000
,
0000
0000
0000
0000
,
M00M
0000
0000
M00M
0000
0000
M00M
0000
0000
M00M
0000
0000
M00M
0000
0000
M00M
0M00
0000
M00M
0000
0000
M00M
0000
0000
M00M
0000
0000
M00M
0000
0000
M00M
0000
00M0
M00M
0000
0000
M00M
0000
0000
M00M
0000
0000
M00M
0000
0000
M00M
0000
0000
M00M
0000
0000
0000
0000
0000
0000
0000
0000
0000
0000
0000
0000
0000
0000
0000
0000
0000
0000
0000
0000
0000
0000
0000
M00M
0000
0000
M00M
0000
0000
M00M
0000
0000
M00M
0000
0000
M00M
0000
0000
M00M
0M00
0000
M00M
0000
0000
M00M
0000
0000
,
M00M
0000
0000
M00M
0000
0000
M00M
0000
00M0
M00M
0000
0000
M00M
0000
0000
M00M
0000
0000
M00M
0000
0000
M00M
0000
0000
M00M
0000
0000
0000
0000
0000
0000
0000
0000
0000
0000
0000
0000
0000
0000
0000
0000
0000
0000
0000
0000
0000
0000
0000
0000
0000
0000
0000
0000
0000
0000
0000
0000
0000
0000
0000
0000
0000
0000
0000
0000
0000
0000
0000
0000
0000
0000
0000
0000
0000
0000
0000
0000
0000
0000
0000
0000
0000
0000
0000
00M0
0000
0000
00M0
0000
0000
00M0
0000
0000
00M0
0000
0000
,
00M0
00M0
00M0
00M0
00M0
00M0
00M0
00M0
00M0
00M0
00M0
0000
0000
0000
0000
0000
MMMM
M00M
M00M
M00M
M00M
M00M
M00M
M00M
M00M
M00M
MMMM
0000
0000
0000
0000
0000
,
MMMM
M00M
M00M
M00M
M00M
M00M
M00M
M00M
M00M
M00M
MMMM
0000
0000
0000
0000
0000
MMMM
M00M
M00M
M00M
M00M
M00M
M00M
M00M
M00M
M00M
MMMM
0000
0000
0000
0000
0000
,
0000
0000
1000
0100
,
0010
0001
1000
0010
,
0100
0010
1000
0001
,
1000
0100
0010
0001
,
1000
0010
1000
0001
,
0100
0001
1000
0100
,
1000
0001
0010
0100
,
1000
0001
0100
0010
,
1000
0100
1000
0010
,
0100
0001
1000
0100
,
0010
0001
1000
0001
,
0010
0100
1000
0001
,
0100
0001
1000
0010
,
1000
0001
0010
0001
,
0100
0010
1000
0100
,
0010
0001
0100
0010
,
0100
0001
1000
0010
,
1000
0001
0100
0010
,
1000
0100
0010
0001
,
1000
0100
0010
0001
,
1000
0010
0100
0010
,
1000
0001
1000
0100
,
0010
0001
1000
0010
,
1000
0001
0100
0001
,
1000
0100
1000
0001
,
0010
0100
1000
0001
,
0100
0010
1000
0100
,
1000
0010
0100
0001
,
1000
0100
0010
0001
,
1000
0001
0010
0100
,
1000
0001
0100
0001
,
1000
0010
1000
0001
,
0010
0001
0100
0010
,
1000
0100
0010
0001
,
0100
0010
0100
0001
,
1000
0010
1000
0001
,
0100
0010
1000
0100
,
0010
0001
1000
0100
,
0010
0001
1000
0010
,
0100
0010
1000
0001
,
1000
0100
0010
0001
,
1000
0010
1000
0001
,
0100
0001
1000
0100
,
1000
0001
0010
0100
,
1000
0001
0100
0010
,
1000
0100
1000
0010
,
0100
0001
1000
0100
,
0010
0001
1000
0001
,
0010
0100
1000
0001
,
0100
0001
1000
0010
,
1000
0001
0010
0001
,
0100
0010
1000
0100
,
0010
0001
0100
0010
,
0100
0001
1000
0010
,
1000
0001
0100
0010
,
1000
0100
0010
0001
,
1000
0010
0100
0001
,
1000
0100
0010
0001
,
1000
0100
1000
0001
,
0100
0001
1000
0010
,
0100
0001
1000
0100
,
0010
0001
2000
0000
,
0000
0MMM
3000
0000
;

//---------------dance-single - 27+ (owenviau1)----------------
#NOTES:
     dance-single:
     27+ (owenviau1):
     Hard:
     27:
     1.000,1.000,0.742,0.789,1.000,1756.000,188.000,200.000,704.000,64.000:


1100
1000
0000
0000
0110
0010
0000
0000
0101
0100
0000
0000
1002
1000
0000
0000
,
1103
0100
0000
0000
0110
0010
0000
0000
0101
0100
0000
0000
2001
0001
0000
0000
,
3110
0010
0000
0000
0101
0100
0000
0000
1001
0001
0000
0000
1020
1000
0000
0000
,
0131
0110
1100
0000
1010
1000
0001
0000
0110
1010
0101
0011
2001
0000
0010
0000
,
3102
0003
0000
0000
1020
0030
0000
0000
0210
0300
0000
0000
2002
3000
0000
0000
,
1023
0030
0000
0000
1200
0300
0000
0000
0021
0030
0000
0000
2002
0003
0000
0000
,
3210
0300
0000
0000
0102
0003
0000
0000
2010
3000
0000
0000
0012
0003
0000
0000
,
1200
0311
1100
0000
1001
0000
0011
0000
1100
0110
0011
1001
0101
0000
1010
0000
,
0102
0003
0000
0000
1020
0030
0000
0000
0210
0300
0000
0000
2002
3000
0000
0000
,
1023
0030
0000
0000
1200
0300
0000
0000
0021
0030
0000
0000
2002
0003
0000
0000
,
3210
0300
0000
0000
0102
0003
0000
0000
2010
3000
0000
0000
0012
0003
0000
0000
,
2100
3110
0011
0000
1001
0000
0110
0000
1001
0110
0011
1010
0101
0000
0110
0000
,
1002
0003
0000
0000
0120
0030
0000
0000
0201
0300
0000
0000
2002
3000
0000
0000
,
1023
0030
0000
0000
1200
0300
0000
0000
0021
0030
0000
0000
2002
0003
0000
0000
,
3210
0300
0000
0000
0102
0003
0000
0000
2010
3000
0000
0000
0012
0003
0000
0000
,
1200
0311
1100
0000
1001
0000
0011
0000
1100
0110
0011
1001
0101
0000
0110
0000
,
1002
0003
0200
0000
1320
0030
2000
0000
3201
0300
0000
0000
2200
3000
0000
0000
,
1302
0003
0000
0000
2100
3000
0200
0000
0021
0030
0000
0000
2302
0003
0000
0000
,
3210
0300
2000
0000
3012
0003
0200
0000
2010
3000
0000
0000
0312
0000
0000
0000
,
1203
0311
1100
0000
1001
0000
0011
0000
1100
0110
0011
1001
0102
0000
0010
0000
,
1203
0300
0002
0000
1023
0030
2000
0000
3201
0300
0000
0000
2200
3000
0000
0000
,
1302
0003
0000
0000
2100
3000
0200
0000
0021
0030
0000
0000
2302
0003
0000
0000
,
3210
0300
2000
0000
3012
0003
0200
0000
2010
3000
0000
0000
0312
0000
0000
0000
,
1023
0131
1100
0000
1001
0000
0011
0000
1100
0110
0101
1001
0102
0000
0010
0000
,
1203
0300
0002
0000
1023
0030
2000
0000
3201
0300
0000
0000
2020
3000
0000
0000
,
1032
0003
0000
0000
2100
3000
0200
0000
0021
0030
0000
0000
2302
0003
0000
0000
,
3210
0300
2000
0000
3012
0003
0200
0000
2010
3000
0000
0000
0312
0000
0000
0000
,
1023
0131
1100
0000
2001
0000
3201
0000
0300
0000
0000
0000
0000
0000
0000
0000
,
0000
0000
0000
0000
0000
0000
1010
1010
0000
0110
0000
0000
0101
0000
0000
1020
0000
0000
0000
0000
0000
0000
0000
0000
,
1001
0030
1100
0000
1002
0000
0113
0000
,
2010
0000
0101
0000
0000
3000
0120
0000
,
0000
0000
0030
0000
1100
0000
0000
0000
0102
0003
2000
0000
0110
0000
0000
0000
,
3201
0000
0000
0000
0000
0000
0000
0300
1001
0000
0000
0000
0020
0000
0000
0000
1130
0000
0000
0000
0002
0000
0000
0000
0110
0000
0000
0000
0000
0000
0000
0000
,
2013
0000
0000
0000
3110
0101
1001
0000
0110
0000
1100
0000
1001
0000
0210
0000
,
2300
0000
0000
0000
0011
0000
3000
0000
0210
0000
0000
0300
2000
0000
0000
0000
3021
0000
0000
0000
0230
0000
0000
0000
0302
0000
0000
0000
0000
0000
0003
0000
,
2010
0000
0000
0000
0000
0000
0000
0000
3200
0000
0000
0300
0000
0000
0000
0000
0021
0000
0000
0030
2000
0000
0000
0000
0200
0000
0000
0000
0000
0000
0000
0000
,
3320
0000
0000
0000
0000
0000
0000
0030
0002
0000
0000
0003
2000
0000
0000
0000
3210
0000
0000
0000
0302
0000
0000
0000
0020
0000
0000
0000
0000
0000
0000
0033
,
2000
0000
3000
0000
0220
0330
0000
0000
,
2002
0000
0000
0000
0000
0000
0000
0000
0000
0000
0000
0000
3000
0000
0000
0000
0000
0000
0000
0000
0000
0000
0003
0000
0120
0000
0000
0000
0000
0000
0000
0000
0000
0030
0000
0000
2000
0000
0000
0000
0000
0000
0000
0000
0000
0000
0000
0000
0002
0000
0000
0000
0000
0000
0000
0000
0000
0000
0000
0000
3203
0000
0000
0000
0000
0000
0000
0000
0000
0000
0000
0000
0320
0000
0000
0000
0000
0000
0000
0000
0000
0000
0000
0000
0000
0000
0000
0000
0000
0000
0000
0000
0000
0030
0000
0000
,
0002
0000
0000
0000
0000
0000
0000
0003
2000
0000
0000
3000
0000
0000
0000
0000
0210
0000
0000
0000
0302
0000
0000
0000
0020
0000
0000
0000
0000
0000
0000
0033
,
2000
0000
0000
0000
3200
0300
0020
0000
0032
0003
0200
0000
0020
0000
0000
0000
,
0332
2003
3002
2003
3002
2003
3002
2003
3002
2003
3002
2003
3002
2003
3002
2003
0000
0000
3002
0000
0000
2003
0000
0000
,
3002
0003
0000
0000
0000
0000
0000
0000
,
0000
0000
0000
0000
,
0M00
0M00
0M00
0M00
0M00
0M00
0M00
0M00
0M00
0000
0000
0000
MMMM
M000
M000
M000
MMMM
000M
000M
000M
MMMM
0000
0000
0000
MMMM
M00M
M00M
M00M
M00M
M00M
M00M
M00M
,
MMMM
0000
0000
0000
,
1000
0100
0010
0001
0100
0001
1000
0010
0100
0001
0010
0001
1000
0010
0100
0001
,
1000
0001
0100
0010
1000
0001
1000
0100
0010
0001
0100
0010
0100
0001
1000
0100
,
1000
0010
0100
0001
1000
0001
0100
0010
1000
0100
0010
0001
0100
0001
1000
0010
,
0100
0001
1000
0001
0100
0010
1000
0100
0010
0001
0100
0010
1000
0100
1000
0001
,
0100
0001
1000
0010
0100
0001
1000
0100
0010
0001
1000
0001
0100
0010
1000
0001
,
0100
0001
1000
0100
0010
0001
1000
0010
0100
0010
1000
0001
0010
0001
0100
0010
,
1000
0100
0010
0001
0100
0010
1000
0001
0010
0001
0100
0010
1000
0100
0010
0001
,
0100
0010
1000
0100
0010
0001
1000
0001
0100
0010
2000
0000
0000
0000
3002
0000
,
0000
0003
0000
0000
0000
0000
0000
0000
,
0000
0000
0000
0000
0000
0000
0000
0000
0000
0000
0000
0000
0000
0000
0000
0000
0000
0000
0000
0000
0000
0000
0000
0000
0000
0000
0000
0000
0M00
0M00
0M00
0M00
,
0M00
0M00
0M00
0M00
0M00
0000
0000
0000
MMMM
M000
M000
M000
MMMM
000M
000M
000M
MMMM
0000
0000
0000
MMMM
M000
M000
M000
MMMM
000M
000M
000M
MMMM
0000
0000
0000
,
0000
0000
0000
0000
,
1000
0100
0010
0001
0100
0001
1000
0010
0100
0001
0010
0001
1000
0010
0100
0001
,
1000
0001
0100
0010
1000
0001
1000
0100
0010
0001
0100
0010
0100
0001
1000
0100
,
1000
0010
0100
0001
1000
0001
0100
0010
1000
0100
0010
0001
0100
0001
1000
0010
,
0100
0001
1000
0001
0100
0010
1000
0100
0010
0001
0100
0010
1000
0100
1000
0001
,
0100
0001
1000
0010
0100
0001
1000
0100
0010
0001
1000
0001
0100
0010
1000
0001
,
0100
0001
1000
0100
0010
0001
1000
0010
0100
0010
1000
0001
0010
0001
0100
0010
,
1000
0100
0010
0001
0100
0010
1000
0001
0010
0001
0100
0010
1000
0100
0010
0001
,
0100
0010
1000
0100
0010
0001
1000
0001
0010
0100
2000
0000
0000
0000
3020
0000
,
0000
0030
0000
0000
0000
0000
0000
0000
,
0000
0000
0000
0000
,
0M00
0M00
0M00
0M00
0M00
0M00
0M00
0M00
0M00
0000
0000
0000
MMMM
M000
M000
M000
MMMM
M00M
M00M
M00M
MMMM
0000
0000
0000
MMMM
M00M
M00M
M00M
M00M
M00M
M00M
M00M
,
MMMM
0000
0000
0000
,
1000
0100
0010
0001
0100
0001
1000
0010
0100
0001
0010
0001
1000
0010
0100
0001
,
1000
0001
0100
0010
1000
0001
1000
0100
0010
0001
0100
0010
0100
0001
1000
0100
,
1000
0010
0100
0001
1000
0001
0100
0010
1000
0100
0010
0001
0100
0001
1000
0010
,
0100
0001
1000
0001
0100
0010
1000
0100
0010
0001
0100
0010
1000
0100
1000
0001
,
0100
0001
1000
0010
0100
0001
1000
0100
0010
0001
1000
0001
0100
0010
1000
0001
,
0100
0001
1000
0100
0010
0001
1000
0010
0100
0010
1000
0001
0010
0001
0100
0010
,
1000
0100
0010
0001
0100
0010
1000
0001
0010
0001
0100
0010
1000
0100
0010
0001
,
0100
0010
1000
0100
0010
0001
0100
0001
1000
0010
0200
0000
0000
0000
0302
0000
,
0000
0003
0000
0000
0000
0000
0000
0000
,
0000
0000
0000
0000
,
0M00
0M00
0M00
0M00
0M00
0M00
0M00
0M00
0M00
0M00
0M00
0000
0000
0000
0000
0000
MMMM
000M
000M
000M
000M
000M
000M
000M
000M
0000
0000
0000
0000
0000
MMMM
M00M
,
M00M
M00M
M00M
M00M
M00M
M00M
M00M
M00M
MMMM
0000
0000
0000
0000
0000
0000
0000
0000
0000
0000
0000
0000
0000
0000
0000
0000
0000
0000
0000
0000
0000
0000
0000
,
1000
0010
1000
0001
0100
0001
1000
0010
0100
0001
0010
0001
1000
0010
0100
0001
,
1000
0001
0100
0010
1000
0001
1000
0100
0010
0001
0100
0010
0100
0001
1000
0100
,
1000
0010
0100
0001
1000
0001
0100
0010
1000
0100
0010
0001
0100
0001
1000
0010
,
0100
0001
1000
0001
0100
0010
1000
0100
0010
0001
0100
0010
1000
0100
1000
0001
,
0100
0001
1000
0010
0100
0001
0010
0100
1000
0001
0010
0001
0100
0010
1000
0001
,
0100
0001
1000
0100
0010
0001
1000
0010
0100
0010
1000
0001
0010
0001
0100
0010
,
1000
0100
0010
0001
0100
0010
1000
0001
0010
0001
0100
0010
1000
0100
0010
0001
,
0100
0010
1000
0100
0010
0001
1000
0001
0100
0010
2000
0000
0000
0000
3002
0000
,
0000
0003
0000
0000
0000
0000
0000
0000
,
0000
0000
0000
0000
,
0000
0000
0000
0000
00M0
00M0
00M0
00M0
00M0
00M0
00M0
00M0
00M0
00M0
00M0
0000
0000
0000
0000
0000
MMMM
M00M
M00M
M00M
M00M
MMMM
M00M
M00M
M00M
M00M
MMMM
0000
,
0000
0000
0000
0000
MMMM
M00M
M00M
M00M
M00M
M00M
M00M
M00M
M00M
M00M
MMMM
0000
0000
0000
0000
0000
0000
0000
0000
0000
0000
0000
0000
0000
0000
0000
0000
0000
,
1000
0100
0010
0001
0100
0001
1000
0010
0100
0001
0010
0001
1000
0010
0100
0001
,
1000
0001
0100
0010
1000
0001
1000
0100
0010
0001
1000
0010
0100
0001
1000
0100
,
1000
0010
0100
0001
1000
0001
0100
0010
1000
0100
0010
0001
0100
0001
1000
0010
,
0100
0001
1000
0001
0100
0010
1000
0100
0010
0001
0100
0010
1000
0100
1000
0001
,
0100
0001
1000
0010
0100
0001
0010
0100
1000
0001
0010
0001
0100
0010
1000
0001
,
0100
0001
0010
0100
1000
0001
1000
0010
0100
0010
1000
0001
0010
0001
0100
0010
,
1000
0100
0010
0001
0100
0010
1000
0001
0010
0001
0100
0010
1000
0100
0010
0001
,
0100
0010
1000
0100
0010
0001
1000
0001
0100
0010
2000
0000
0000
0000
3002
0000
,
0000
0003
0000
0000
0000
0000
0000
0000
,
0000
0000
0000
0000
,
0000
0000
0000
0000
0000
0000
0000
0000
MMMM
000M
000M
000M
000M
MMMM
M000
M000
M000
M000
MMMM
0000
0000
0000
0000
0000
MMMM
M00M
M00M
M00M
M00M
M00M
M00M
M00M
,
M00M
M00M
MMMM
0000
0000
0000
0000
0000
MMMM
M00M
M00M
M00M
M00M
M00M
M00M
M00M
M00M
M00M
MMMM
0000
0000
0000
0000
0000
0000
0000
0000
0000
0000
0000
0000
0000
,
1000
0100
0010
0001
0100
0001
1000
0010
0100
0001
0010
0001
1000
0010
0100
0001
,
1000
0001
0100
0010
1000
0001
1000
0100
0010
0001
0100
0010
0100
0001
1000
0100
,
1000
0010
0100
0001
1000
0001
0100
0010
1000
0100
0010
0001
0100
0001
1000
0010
,
0100
0001
1000
0001
0100
0010
1000
0100
0010
0001
0100
0010
1000
0100
1000
0001
,
0100
0001
1000
0010
0100
0001
1000
0100
0010
0001
1000
0001
0100
0010
1000
0001
,
0100
0001
1000
0100
0010
0001
1000
0010
0100
0010
1000
0001
0010
0001
0100
0010
,
1000
0100
0010
0001
0100
0010
1000
0001
0010
0001
0100
0010
1000
0100
0010
0001
,
0100
0010
1000
0100
0010
0001
1000
0001
0100
0010
2000
0000
0000
0000
3002
0000
,
0000
0003
0000
0000
0000
0000
0000
0000
,
0000
0000
0000
0000
,
0000
0000
0000
0000
0000
0000
0000
0000
0000
0000
0000
0000
0000
0000
0000
0000
MMMM
000M
000M
000M
000M
MMMM
M000
M000
M000
M000
MMMM
0000
0000
0000
0000
0000
,
MMMM
000M
000M
000M
000M
MMMM
M000
M000
M000
M000
MMMM
0000
0000
0000
0000
0000
MMMM
M00M
M00M
M00M
M00M
M00M
M00M
M00M
M00M
M00M
MMMM
0000
0000
0000
0000
0000
,
1000
0100
0010
0001
0100
0001
1000
0010
0100
0001
0010
0001
1000
0010
0100
0001
,
1000
0001
0100
0010
1000
0001
1000
0100
0010
0001
0100
0010
0100
0001
1000
0100
,
1000
0010
0100
0001
1000
0001
0100
0010
1000
0100
0010
0001
0100
0001
1000
0010
,
0100
0001
1000
0001
0100
0010
1000
0100
0010
0001
0100
0010
1000
0100
1000
0001
,
0100
0001
1000
0010
0100
0001
1000
0100
0010
0001
1000
0001
0100
0010
1000
0001
,
0100
0001
1000
0100
0010
0001
1000
0010
0100
0010
1000
0001
0010
0001
0100
0010
,
1000
0100
0010
0001
0100
0010
1000
0001
0010
0001
0100
0010
1000
0100
0010
0001
,
0100
0010
1000
0100
0010
0001
1000
0010
0100
0001
0020
0000
0000
0000
0230
0000
,
0000
0300
0000
0000
0000
0000
0000
0000
,
0000
0000
0000
0000
,
0000
0000
0000
0000
0000
0000
0000
0000
0000
0000
0000
0000
0000
0000
0000
0000
MMMM
000M
000M
000M
000M
MMMM
M000
M000
M000
M000
MMMM
0000
0000
0000
0000
0000
,
MMMM
M000
M000
M000
M000
MMMM
000M
000M
000M
000M
MMMM
0000
0000
0000
0000
0000
MMMM
M00M
M00M
M00M
M00M
M00M
M00M
M00M
M00M
M00M
MMMM
0000
0000
0000
0000
0000
,
1000
0100
0010
0001
0100
0001
1000
0010
0100
0001
0010
0001
1000
0010
0100
0001
,
1000
0001
0100
0010
1000
0001
1000
0100
0010
0001
0100
0010
0100
0001
1000
0100
,
1000
0010
0100
0001
1000
0001
0100
0010
1000
0100
0010
0001
0100
0001
1000
0010
,
0100
0001
1000
0001
0100
0010
1000
0100
0010
0001
0100
0010
1000
0100
1000
0001
,
0100
0001
1000
0010
0100
0001
1000
0100
0010
0001
1000
0001
0100
0010
1000
0001
,
0100
0001
1000
0100
0010
0001
1000
0010
0100
0010
1000
0001
0010
0001
0100
0010
,
1000
0100
0010
0001
0100
0010
1000
0001
0010
0001
0100
0010
1000
0100
0010
0001
,
0100
0010
1000
0100
0010
0001
1000
0001
0100
0010
1000
0001
1000
0010
0200
0000
,
0000
0302
0000
0003
0000
0000
0000
0000
,
0000
0000
0000
0000
,
0000
0000
0000
0000
0000
0000
0000
0000
0000
0000
0000
0000
0000
0000
0000
0000
0000
0000
0000
0000
0000
0000
0000
0000
MMMM
000M
000M
000M
000M
MMMM
000M
000M
,
000M
000M
MMMM
0000
0000
0000
0000
0000
MMMM
M00M
M00M
M00M
M00M
M00M
M00M
M00M
M00M
M00M
MMMM
0000
0000
0000
0000
0000
MMMM
M00M
M00M
M00M
M00M
M00M
M00M
M00M
,
M00M
M00M
MMMM
0000
0000
0000
0000
0000
1000
0000
0010
0000
0100
0000
0001
0000
1000
0000
0001
0000
0100
0000
0010
0000
1000
0000
0001
0000
0010
0000
0001
0000
,
0100
0010
1000
0001
1000
0010
0100
0001
1000
0010
1000
0100
0010
0001
1000
0010
,
0100
0001
1000
0100
1000
0010
0100
0001
1000
0001
0100
0010
1000
0100
0010
0001
,
0100
0001
1000
0010
0100
0001
1000
0001
0100
0010
1000
0100
0010
0001
0100
0010
,
1000
0100
1000
0001
0100
0001
1000
0010
0100
0001
1000
0100
0010
0001
1000
0001
,
0100
0010
1000
0001
0100
0001
1000
0100
0010
0001
1000
0010
0100
0010
1000
0001
,
0010
0001
0100
0010
1000
0100
0010
0001
0100
0010
1000
0001
0010
0001
0100
0010
,
1000
0100
0010
0001
0100
0010
1000
0100
0010
0001
1000
0001
0100
0010
2000
0000
,
0000
3002
0000
0003
0000
0000
0000
0000
,
0000
0000
0000
0000
,
0000
0000
0000
0000
,
0000
0000
0000
0000
,
M00M
0000
0000
M00M
0000
0000
M00M
0000
0000
M00M
0000
0000
M00M
0000
0000
M00M
0M00
0000
M00M
0000
0000
M00M
0000
0000
M00M
0000
0000
M00M
0000
0000
M00M
0000
00M0
M00M
0000
0000
M00M
0000
0000
M00M
0000
0000
M00M
0000
0000
M00M
0000
0000
M00M
0000
0000
0000
0000
0000
0000
0000
0000
0000
0000
0000
0000
0000
0000
0000
0000
0000
0000
0000
0000
0000
0000
0000
M00M
0000
0000
M00M
0000
0000
M00M
0000
0000
M00M
0000
0000
M00M
0000
0000
M00M
0M00
0000
M00M
0000
0000
M00M
0000
0000
,
M00M
0000
0000
M00M
0000
0000
M00M
0000
00M0
M00M
0000
0000
M00M
0000
0000
M00M
0000
0000
M00M
0000
0000
M00M
0000
0000
M00M
0000
0000
0000
0000
0000
0000
0000
0000
0000
0000
0000
0000
0000
0000
0000
0000
0000
0000
0000
0000
0000
0000
0000
0000
0000
0000
0000
0000
0000
0000
0000
0000
0000
0000
0000
0000
0000
0000
0000
0000
0000
0000
0000
0000
0000
0000
0000
0000
0000
0000
0000
0000
0000
0000
0000
0000
0000
0000
0000
00M0
0000
0000
00M0
0000
0000
00M0
0000
0000
00M0
0000
0000
,
00M0
00M0
00M0
00M0
00M0
00M0
00M0
00M0
00M0
00M0
00M0
0000
0000
0000
0000
0000
MMMM
M00M
M00M
M00M
M00M
M00M
M00M
M00M
M00M
M00M
MMMM
0000
0000
0000
0000
0000
,
MMMM
M00M
M00M
M00M
M00M
M00M
M00M
M00M
M00M
M00M
MMMM
0000
0000
0000
0000
0000
MMMM
M00M
M00M
M00M
M00M
M00M
M00M
M00M
M00M
M00M
MMMM
0000
0000
0000
0000
0000
,
0000
0000
0000
0000
0000
0000
1000
0000
0100
0000
0010
0000
,
0001
0000
1000
0000
0010
0000
1000
0000
0001
0000
0100
0000
,
0010
0000
1000
0000
0100
0000
1000
0000
0001
0000
0100
0000
,
0010
0000
1000
0000
0001
0000
0100
0000
0001
0000
1000
0000
,
0100
0000
0010
0000
0001
0000
1000
0000
0001
0000
0100
0000
,
0010
0000
0100
0000
0001
0000
1000
0000
0100
0000
1000
0000
,
0001
0000
0100
0000
0010
0000
1000
0000
0001
0000
0010
0000
,
0001
0000
1000
0000
0100
0000
1000
0000
0001
0000
0100
0000
,
0010
0000
1000
0000
0001
0000
0010
0000
0100
0000
1000
0000
,
0001
0000
0100
0000
0010
0000
1000
0000
0100
0000
0010
0000
,
0001
0000
0100
0000
0010
0000
1000
0000
0001
0000
0100
0000
,
0010
0000
1000
0000
0100
0000
1000
0000
0001
0000
0100
0000
,
0010
0000
1000
0000
0001
0000
0100
0000
0001
0000
1000
0000
,
0100
0000
0010
0000
0001
0000
1000
0000
0001
0000
0100
0000
,
0010
0000
0100
0000
0001
0000
1000
0000
0100
0000
1000
0000
,
0001
0000
0100
0000
0010
0000
1000
0000
0001
0000
0100
0000
,
0001
0000
1000
0000
0010
0000
1000
0000
0001
0000
0100
0000
,
0010
0000
1000
0000
0001
0000
0010
0000
0100
0000
1000
0000
,
0001
0000
0100
0000
0010
0000
1000
0000
0100
0000
0010
0000
,
0001
0000
1000
0000
0010
0000
1000
0000
0001
0000
0100
0000
,
0010
0000
1000
0000
0100
0000
1000
0000
0001
0000
0100
0000
,
0010
0000
1000
0000
0001
0000
0100
0000
0001
0000
1000
0000
,
0100
0000
0010
0000
0001
0000
1000
0000
0001
0000
0100
0000
,
0010
0000
0100
0000
0001
0000
1000
0000
0100
0000
1000
0000
,
0001
0000
0100
0000
0010
0000
1000
0000
0001
0000
0010
0000
,
0001
0000
1000
0000
0100
0000
1000
0000
0001
0000
0100
0000
,
0010
0000
1000
0000
0001
0000
0010
0000
0100
0000
1000
0000
,
0001
0000
0100
0000
0010
0000
1000
0000
0100
0000
0010
0000
,
0001
0000
0100
0000
0010
0000
1000
0000
0001
0000
0100
0000
,
0010
0000
1000
0000
0100
0000
1000
0000
0001
0000
0100
0000
,
0010
0000
1000
0000
0001
0000
0100
0000
0001
0000
1000
0000
,
0100
0000
0010
0000
0001
0000
1000
0000
0001
0000
0100
0000
,
0010
0000
0100
0000
0001
0000
1000
0000
0100
0000
1000
0000
,
0001
0000
0100
0000
0010
0000
1000
0000
0001
0000
0100
0000
,
0001
0000
1000
0000
0010
0000
1000
0000
0001
0000
0100
0000
,
0010
0000
1000
0000
0001
0000
0010
0000
0100
0000
1000
0000
,
0001
0000
0100
0000
0010
0000
1000
0000
0100
0000
0010
0000
,
0001
0000
1000
0000
0010
0000
1000
0000
0001
0000
0100
0000
,
0010
0000
1000
0000
0100
0000
1000
0000
0001
0000
0100
0000
,
0010
0000
1000
0000
0001
0000
0100
0000
0001
0000
1000
0000
,
0100
0000
0010
0000
0001
0000
1000
0000
0001
0000
0100
0000
,
0010
0000
0100
0000
0001
0000
1000
0000
0100
0000
1000
0000
,
0001
0000
0100
0000
0010
0000
1000
0000
0001
0000
0010
0000
,
0001
0000
1000
0000
0100
0000
1000
0000
0001
0000
0100
0000
,
0010
0000
1000
0000
0001
0000
0010
0000
0100
0000
1000
0000
,
0001
0000
0100
0000
0010
0000
1000
0000
0100
0000
0010
0000
,
0001
0000
0100
0000
0010
0000
1000
0000
0001
0000
0100
0000
,
0010
0000
1000
0000
0100
0000
1000
0000
0001
0000
0100
0000
,
0010
0000
1000
0000
0001
0000
0100
0000
0001
0000
1000
0000
,
0100
0000
0010
0000
0001
0000
1000
0000
0001
0000
0100
0000
,
0010
0000
0100
0000
0001
0000
1000
0000
0100
0000
1000
0000
,
0001
0000
0100
0000
0010
0000
1000
0000
0001
0000
0100
0000
,
0001
0000
1000
0000
0010
0000
1000
0000
0001
0000
0100
0000
,
0010
0000
1000
0000
0001
0000
0010
0000
0100
0000
1000
0000
,
0001
0000
0100
0000
0010
0000
1000
0000
0100
0000
0010
0000
,
0001
0000
1000
0000
0010
0000
1000
0000
0001
0000
0100
0000
,
0010
0000
1000
0000
0100
0000
1000
0000
0001
0000
0100
0000
,
0010
0000
1000
0000
0001
0000
0100
0000
0001
0000
1000
0000
,
0100
0000
0010
0000
0001
0000
1000
0000
0001
0000
0100
0000
,
0010
0000
0100
0000
0001
0000
1000
0000
0100
0000
1000
0000
,
0001
0000
0100
0000
0010
0000
1000
0000
0001
0000
0100
0000
,
0001
0000
0010
0000
0100
0000
2000
0000
0000
0000
0000
0000
,
0000
0MMM
3000
0000
;

//---------------dance-single - 37 (owenviau1)----------------
#NOTES:
     dance-single:
     37 (owenviau1):
     Challenge:
     37:
     1.000,1.000,0.742,0.789,1.000,1878.000,188.000,200.000,704.000,64.000:


1100
1000
0000
0000
0110
0010
0000
0000
0101
0100
0000
0000
1002
1000
0000
0000
,
1103
0100
0000
0000
0110
0010
0000
0000
0101
0100
0000
0000
2001
0001
0000
0000
,
3110
0010
0000
0000
0101
0100
0000
0000
1001
0001
0000
0000
1020
1000
0000
0000
,
0131
0110
1100
0000
1010
1000
0001
0000
0110
1010
0101
0011
2001
0000
0010
0000
,
3102
0003
0000
0000
1020
0030
0000
0000
0210
0300
0000
0000
2002
3000
0000
0000
,
1023
0030
0000
0000
1200
0300
0000
0000
0021
0030
0000
0000
2002
0003
0000
0000
,
3210
0300
0000
0000
0102
0003
0000
0000
2010
3000
0000
0000
0012
0003
0000
0000
,
1200
0311
1100
0000
1001
0000
0011
0000
1100
0110
0011
1001
0101
0000
1010
0000
,
0102
0003
0000
0000
1020
0030
0000
0000
0210
0300
0000
0000
2002
3000
0000
0000
,
1023
0030
0000
0000
1200
0300
0000
0000
0021
0030
0000
0000
2002
0003
0000
0000
,
3210
0300
0000
0000
0102
0003
0000
0000
2010
3000
0000
0000
0012
0003
0000
0000
,
2100
3110
0011
0000
1001
0000
0110
0000
1001
0110
0011
1010
0101
0000
0110
0000
,
1002
0003
0000
0000
0120
0030
0000
0000
0201
0300
0000
0000
2002
3000
0000
0000
,
1023
0030
0000
0000
1200
0300
0000
0000
0021
0030
0000
0000
2002
0003
0000
0000
,
3210
0300
0000
0000
0102
0003
0000
0000
2010
3000
0000
0000
0012
0003
0000
0000
,
1200
0311
1100
0000
1001
0000
0011
0000
1100
0110
0011
1001
0101
0000
0110
0000
,
1002
0003
0200
0000
1320
0030
2000
0000
3201
0300
0000
0000
2200
3000
0000
0000
,
1302
0003
0000
0000
2100
3000
0200
0000
0021
0030
0000
0000
2302
0003
0000
0000
,
3210
0300
2000
0000
3012
0003
0200
0000
2010
3000
0000
0000
0312
0000
0000
0000
,
1203
0311
1100
0000
1001
0000
0011
0000
1100
0110
0011
1001
0102
0000
0010
0000
,
1203
0300
0002
0000
1023
0030
2000
0000
3201
0300
0000
0000
2200
3000
0000
0000
,
1302
0003
0000
0000
2100
3000
0200
0000
0021
0030
0000
0000
2302
0003
0000
0000
,
3210
0300
2000
0000
3012
0003
0200
0000
2010
3000
0000
0000
0312
0000
0000
0000
,
1023
0131
1100
0000
1001
0000
0011
0000
1100
0110
0101
1001
0102
0000
0010
0000
,
1203
0300
0002
0000
1023
0030
2000
0000
3201
0300
0000
0000
2020
3000
0000
0000
,
1032
0003
0000
0000
2100
3000
0200
0000
0021
0030
0000
0000
2302
0003
0000
0000
,
3210
0300
2000
0000
3012
0003
0200
0000
2010
3000
0000
0000
0312
0000
0000
0000
,
1023
0131
1100
0000
2001
0000
3201
0000
0300
0000
0000
0000
0000
0000
0000
0000
,
0000
0000
0000
0000
0000
0000
1010
1010
0000
0110
0000
0000
0101
0000
0000
1020
0000
0000
0000
0000
0000
0000
0000
0000
,
1001
0030
1100
0000
1002
0000
0113
0000
,
2010
0000
0101
0000
0000
3000
0120
0000
,
0000
0000
0030
0000
1100
0000
0000
0000
0102
0003
2000
0000
0110
0000
0000
0000
,
3201
0000
0000
0000
0000
0000
0000
0300
1001
0000
0000
0000
0020
0000
0000
0000
1130
0000
0000
0000
0002
0000
0000
0000
0110
0000
0000
0000
0000
0000
0000
0000
,
2013
0000
0000
0000
3110
0101
1001
0000
0110
0000
1100
0000
1001
0000
0210
0000
,
2300
0000
0000
0000
0011
0000
3000
0000
0210
0000
0000
0300
2000
0000
0000
0000
3021
0000
0000
0000
0230
0000
0000
0000
0302
0000
0000
0000
0000
0000
0003
0000
,
2010
0000
0000
0000
0000
0000
0000
0000
3200
0000
0000
0300
0000
0000
0000
0000
0021
0000
0000
0030
2000
0000
0000
0000
0200
0000
0000
0000
0000
0000
0000
0000
,
3320
0000
0000
0000
0000
0000
0000
0030
0002
0000
0000
0003
2000
0000
0000
0000
3210
0000
0000
0000
0302
0000
0000
0000
0020
0000
0000
0000
0000
0000
0000
0033
,
2000
0000
3000
0000
0220
0330
0000
0000
,
2002
0000
0000
0000
0000
0000
0000
0000
0000
0000
0000
0000
3000
0000
0000
0000
0000
0000
0000
0000
0000
0000
0003
0000
0120
0000
0000
0000
0000
0000
0000
0000
0000
0030
0000
0000
2000
0000
0000
0000
0000
0000
0000
0000
0000
0000
0000
0000
0002
0000
0000
0000
0000
0000
0000
0000
0000
0000
0000
0000
3203
0000
0000
0000
0000
0000
0000
0000
0000
0000
0000
0000
0320
0000
0000
0000
0000
0000
0000
0000
0000
0000
0000
0000
0000
0000
0000
0000
0000
0000
0000
0000
0000
0030
0000
0000
,
0002
0000
0000
0000
0000
0000
0000
0003
2000
0000
0000
3000
0000
0000
0000
0000
0210
0000
0000
0000
0302
0000
0000
0000
0020
0000
0000
0000
0000
0000
0000
0033
,
2000
0000
0000
0000
3200
0300
0020
0000
0032
0003
0200
0000
0020
0000
0000
0000
,
0332
2003
3002
2003
3002
2003
3002
2003
3002
2003
3002
2003
3002
2003
3002
2003
0000
0000
3002
0000
0000
2003
0000
0000
,
3002
0003
0000
0000
0000
0000
0000
0000
,
0000
0000
0000
0000
,
0M00
0M00
0M00
0M00
0M00
0M00
0M00
0M00
0M00
0000
0000
0000
MMMM
M000
M000
M000
MMMM
000M
000M
000M
MMMM
0000
0000
0000
MMMM
M00M
M00M
M00M
M00M
M00M
M00M
M00M
,
MMMM
0000
0000
0000
,
1000
0100
0010
0001
0100
0001
1000
0010
0100
0001
0010
0001
1000
0010
0100
0001
,
1000
0001
0100
0010
1000
0001
1000
0100
0010
0001
0100
0010
0100
0001
1000
0100
,
1000
0010
0100
0001
1000
0001
0100
0010
1000
0100
0010
0001
0100
0001
1000
0010
,
0100
0001
1000
0001
0100
0010
1000
0100
0010
0001
0100
0010
1000
0100
1000
0001
,
0100
0001
1000
0010
0100
0001
1000
0100
0010
0001
1000
0001
0100
0010
1000
0001
,
0100
0001
1000
0100
0010
0001
1000
0010
0100
0010
1000
0001
0010
0001
0100
0010
,
1000
0100
0010
0001
0100
0010
1000
0001
0010
0001
0100
0010
1000
0100
0010
0001
,
0100
0010
1000
0100
0010
0001
1000
0001
0100
0010
2000
0000
0000
0000
3002
0000
,
0000
0003
0000
0000
0000
0000
0000
0000
,
0000
0000
0000
0000
0000
0000
0000
0000
0000
0000
0000
0000
0000
0000
0000
0000
0000
0000
0000
0000
0000
0000
0000
0000
0000
0000
0000
0000
0M00
0M00
0M00
0M00
,
0M00
0M00
0M00
0M00
0M00
0000
0000
0000
MMMM
M000
M000
M000
MMMM
000M
000M
000M
MMMM
0000
0000
0000
MMMM
M000
M000
M000
MMMM
000M
000M
000M
MMMM
0000
0000
0000
,
0000
0000
0000
0000
,
1000
0100
0010
0001
0100
0001
1000
0010
0100
0001
0010
0001
1000
0010
0100
0001
,
1000
0001
0100
0010
1000
0001
1000
0100
0010
0001
0100
0010
0100
0001
1000
0100
,
1000
0010
0100
0001
1000
0001
0100
0010
1000
0100
0010
0001
0100
0001
1000
0010
,
0100
0001
1000
0001
0100
0010
1000
0100
0010
0001
0100
0010
1000
0100
1000
0001
,
0100
0001
1000
0010
0100
0001
1000
0100
0010
0001
1000
0001
0100
0010
1000
0001
,
0100
0001
1000
0100
0010
0001
1000
0010
0100
0010
1000
0001
0010
0001
0100
0010
,
1000
0100
0010
0001
0100
0010
1000
0001
0010
0001
0100
0010
1000
0100
0010
0001
,
0100
0010
1000
0100
0010
0001
1000
0001
0010
0100
2000
0000
0000
0000
3020
0000
,
0000
0030
0000
0000
0000
0000
0000
0000
,
0000
0000
0000
0000
,
0M00
0M00
0M00
0M00
0M00
0M00
0M00
0M00
0M00
0000
0000
0000
MMMM
M000
M000
M000
MMMM
M00M
M00M
M00M
MMMM
0000
0000
0000
MMMM
M00M
M00M
M00M
M00M
M00M
M00M
M00M
,
MMMM
0000
0000
0000
,
1000
0100
0010
0001
0100
0001
1000
0010
0100
0001
0010
0001
1000
0010
0100
0001
,
1000
0001
0100
0010
1000
0001
1000
0100
0010
0001
0100
0010
0100
0001
1000
0100
,
1000
0010
0100
0001
1000
0001
0100
0010
1000
0100
0010
0001
0100
0001
1000
0010
,
0100
0001
1000
0001
0100
0010
1000
0100
0010
0001
0100
0010
1000
0100
1000
0001
,
0100
0001
1000
0010
0100
0001
1000
0100
0010
0001
1000
0001
0100
0010
1000
0001
,
0100
0001
1000
0100
0010
0001
1000
0010
0100
0010
1000
0001
0010
0001
0100
0010
,
1000
0100
0010
0001
0100
0010
1000
0001
0010
0001
0100
0010
1000
0100
0010
0001
,
0100
0010
1000
0100
0010
0001
0100
0001
1000
0010
0200
0000
0000
0000
0302
0000
,
0000
0003
0000
0000
0000
0000
0000
0000
,
0000
0000
0000
0000
,
0M00
0M00
0M00
0M00
0M00
0M00
0M00
0M00
0M00
0M00
0M00
0000
0000
0000
0000
0000
MMMM
000M
000M
000M
000M
000M
000M
000M
000M
0000
0000
0000
0000
0000
MMMM
M00M
,
M00M
M00M
M00M
M00M
M00M
M00M
M00M
M00M
MMMM
0000
0000
0000
0000
0000
0000
0000
0000
0000
0000
0000
0000
0000
0000
0000
0000
0000
0000
0000
0000
0000
0000
0000
,
1000
0010
1000
0001
0100
0001
1000
0010
0100
0001
0010
0001
1000
0010
0100
0001
,
1000
0001
0100
0010
1000
0001
1000
0100
0010
0001
0100
0010
0100
0001
1000
0100
,
1000
0010
0100
0001
1000
0001
0100
0010
1000
0100
0010
0001
0100
0001
1000
0010
,
0100
0001
1000
0001
0100
0010
1000
0100
0010
0001
0100
0010
1000
0100
1000
0001
,
0100
0001
1000
0010
0100
0001
0010
0100
1000
0001
0010
0001
0100
0010
1000
0001
,
0100
0001
1000
0100
0010
0001
1000
0010
0100
0010
1000
0001
0010
0001
0100
0010
,
1000
0100
0010
0001
0100
0010
1000
0001
0010
0001
0100
0010
1000
0100
0010
0001
,
0100
0010
1000
0100
0010
0001
1000
0001
0100
0010
2000
0000
0000
0000
3002
0000
,
0000
0003
0000
0000
0000
0000
0000
0000
,
0000
0000
0000
0000
,
0000
0000
0000
0000
00M0
00M0
00M0
00M0
00M0
00M0
00M0
00M0
00M0
00M0
00M0
0000
0000
0000
0000
0000
MMMM
M00M
M00M
M00M
M00M
MMMM
M00M
M00M
M00M
M00M
MMMM
0000
,
0000
0000
0000
0000
MMMM
M00M
M00M
M00M
M00M
M00M
M00M
M00M
M00M
M00M
MMMM
0000
0000
0000
0000
0000
0000
0000
0000
0000
0000
0000
0000
0000
0000
0000
0000
0000
,
1000
0100
0010
0001
0100
0001
1000
0010
0100
0001
0010
0001
1000
0010
0100
0001
,
1000
0001
0100
0010
1000
0001
1000
0100
0010
0001
1000
0010
0100
0001
1000
0100
,
1000
0010
0100
0001
1000
0001
0100
0010
1000
0100
0010
0001
0100
0001
1000
0010
,
0100
0001
1000
0001
0100
0010
1000
0100
0010
0001
0100
0010
1000
0100
1000
0001
,
0100
0001
1000
0010
0100
0001
0010
0100
1000
0001
0010
0001
0100
0010
1000
0001
,
0100
0001
0010
0100
1000
0001
1000
0010
0100
0010
1000
0001
0010
0001
0100
0010
,
1000
0100
0010
0001
0100
0010
1000
0001
0010
0001
0100
0010
1000
0100
0010
0001
,
0100
0010
1000
0100
0010
0001
1000
0001
0100
0010
2000
0000
0000
0000
3002
0000
,
0000
0003
0000
0000
0000
0000
0000
0000
,
0000
0000
0000
0000
,
0000
0000
0000
0000
0000
0000
0000
0000
MMMM
000M
000M
000M
000M
MMMM
M000
M000
M000
M000
MMMM
0000
0000
0000
0000
0000
MMMM
M00M
M00M
M00M
M00M
M00M
M00M
M00M
,
M00M
M00M
MMMM
0000
0000
0000
0000
0000
MMMM
M00M
M00M
M00M
M00M
M00M
M00M
M00M
M00M
M00M
MMMM
0000
0000
0000
0000
0000
0000
0000
0000
0000
0000
0000
0000
0000
,
1000
0100
0010
0001
0100
0001
1000
0010
0100
0001
0010
0001
1000
0010
0100
0001
,
1000
0001
0100
0010
1000
0001
1000
0100
0010
0001
0100
0010
0100
0001
1000
0100
,
1000
0010
0100
0001
1000
0001
0100
0010
1000
0100
0010
0001
0100
0001
1000
0010
,
0100
0001
1000
0001
0100
0010
1000
0100
0010
0001
0100
0010
1000
0100
1000
0001
,
0100
0001
1000
0010
0100
0001
1000
0100
0010
0001
1000
0001
0100
0010
1000
0001
,
0100
0001
1000
0100
0010
0001
1000
0010
0100
0010
1000
0001
0010
0001
0100
0010
,
1000
0100
0010
0001
0100
0010
1000
0001
0010
0001
0100
0010
1000
0100
0010
0001
,
0100
0010
1000
0100
0010
0001
1000
0001
0100
0010
2000
0000
0000
0000
3002
0000
,
0000
0003
0000
0000
0000
0000
0000
0000
,
0000
0000
0000
0000
,
0000
0000
0000
0000
0000
0000
0000
0000
0000
0000
0000
0000
0000
0000
0000
0000
MMMM
000M
000M
000M
000M
MMMM
M000
M000
M000
M000
MMMM
0000
0000
0000
0000
0000
,
MMMM
000M
000M
000M
000M
MMMM
M000
M000
M000
M000
MMMM
0000
0000
0000
0000
0000
MMMM
M00M
M00M
M00M
M00M
M00M
M00M
M00M
M00M
M00M
MMMM
0000
0000
0000
0000
0000
,
1000
0100
0010
0001
0100
0001
1000
0010
0100
0001
0010
0001
1000
0010
0100
0001
,
1000
0001
0100
0010
1000
0001
1000
0100
0010
0001
0100
0010
0100
0001
1000
0100
,
1000
0010
0100
0001
1000
0001
0100
0010
1000
0100
0010
0001
0100
0001
1000
0010
,
0100
0001
1000
0001
0100
0010
1000
0100
0010
0001
0100
0010
1000
0100
1000
0001
,
0100
0001
1000
0010
0100
0001
1000
0100
0010
0001
1000
0001
0100
0010
1000
0001
,
0100
0001
1000
0100
0010
0001
1000
0010
0100
0010
1000
0001
0010
0001
0100
0010
,
1000
0100
0010
0001
0100
0010
1000
0001
0010
0001
0100
0010
1000
0100
0010
0001
,
0100
0010
1000
0100
0010
0001
1000
0010
0100
0001
0020
0000
0000
0000
0230
0000
,
0000
0300
0000
0000
0000
0000
0000
0000
,
0000
0000
0000
0000
,
0000
0000
0000
0000
0000
0000
0000
0000
0000
0000
0000
0000
0000
0000
0000
0000
MMMM
000M
000M
000M
000M
MMMM
M000
M000
M000
M000
MMMM
0000
0000
0000
0000
0000
,
MMMM
M000
M000
M000
M000
MMMM
000M
000M
000M
000M
MMMM
0000
0000
0000
0000
0000
MMMM
M00M
M00M
M00M
M00M
M00M
M00M
M00M
M00M
M00M
MMMM
0000
0000
0000
0000
0000
,
1000
0100
0010
0001
0100
0001
1000
0010
0100
0001
0010
0001
1000
0010
0100
0001
,
1000
0001
0100
0010
1000
0001
1000
0100
0010
0001
0100
0010
0100
0001
1000
0100
,
1000
0010
0100
0001
1000
0001
0100
0010
1000
0100
0010
0001
0100
0001
1000
0010
,
0100
0001
1000
0001
0100
0010
1000
0100
0010
0001
0100
0010
1000
0100
1000
0001
,
0100
0001
1000
0010
0100
0001
1000
0100
0010
0001
1000
0001
0100
0010
1000
0001
,
0100
0001
1000
0100
0010
0001
1000
0010
0100
0010
1000
0001
0010
0001
0100
0010
,
1000
0100
0010
0001
0100
0010
1000
0001
0010
0001
0100
0010
1000
0100
0010
0001
,
0100
0010
1000
0100
0010
0001
1000
0001
0100
0010
1000
0001
1000
0010
0200
0000
,
0000
0302
0000
0003
0000
0000
0000
0000
,
0000
0000
0000
0000
,
0000
0000
0000
0000
0000
0000
0000
0000
0000
0000
0000
0000
0000
0000
0000
0000
0000
0000
0000
0000
0000
0000
0000
0000
MMMM
000M
000M
000M
000M
MMMM
000M
000M
,
000M
000M
MMMM
0000
0000
0000
0000
0000
MMMM
M00M
M00M
M00M
M00M
M00M
M00M
M00M
M00M
M00M
MMMM
0000
0000
0000
0000
0000
MMMM
M00M
M00M
M00M
M00M
M00M
M00M
M00M
,
M00M
M00M
MMMM
0000
0000
0000
0000
0000
1000
0000
0010
0000
0100
0000
0001
0000
1000
0000
0001
0000
0100
0000
0010
0000
1000
0000
0001
0000
0010
0000
0001
0000
,
0100
0010
1000
0001
1000
0010
0100
0001
1000
0010
1000
0100
0010
0001
1000
0010
,
0100
0001
1000
0100
1000
0010
0100
0001
1000
0001
0100
0010
1000
0100
0010
0001
,
0100
0001
1000
0010
0100
0001
1000
0001
0100
0010
1000
0100
0010
0001
0100
0010
,
1000
0100
1000
0001
0100
0001
1000
0010
0100
0001
1000
0100
0010
0001
1000
0001
,
0100
0010
1000
0001
0100
0001
1000
0100
0010
0001
1000
0010
0100
0010
1000
0001
,
0010
0001
0100
0010
1000
0100
0010
0001
0100
0010
1000
0001
0010
0001
0100
0010
,
1000
0100
0010
0001
0100
0010
1000
0100
0010
0001
1000
0001
0100
0010
2000
0000
,
0000
3002
0000
0003
0000
0000
0000
0000
,
0000
0000
0000
0000
,
0000
0000
0000
0000
,
0000
0000
0000
0000
,
M00M
0000
0000
M00M
0000
0000
M00M
0000
0000
M00M
0000
0000
M00M
0000
0000
M00M
0M00
0000
M00M
0000
0000
M00M
0000
0000
M00M
0000
0000
M00M
0000
0000
M00M
0000
00M0
M00M
0000
0000
M00M
0000
0000
M00M
0000
0000
M00M
0000
0000
M00M
0000
0000
M00M
0000
0000
0000
0000
0000
0000
0000
0000
0000
0000
0000
0000
0000
0000
0000
0000
0000
0000
0000
0000
0000
0000
0000
M00M
0000
0000
M00M
0000
0000
M00M
0000
0000
M00M
0000
0000
M00M
0000
0000
M00M
0M00
0000
M00M
0000
0000
M00M
0000
0000
,
M00M
0000
0000
M00M
0000
0000
M00M
0000
00M0
M00M
0000
0000
M00M
0000
0000
M00M
0000
0000
M00M
0000
0000
M00M
0000
0000
M00M
0000
0000
0000
0000
0000
0000
0000
0000
0000
0000
0000
0000
0000
0000
0000
0000
0000
0000
0000
0000
0000
0000
0000
0000
0000
0000
0000
0000
0000
0000
0000
0000
0000
0000
0000
0000
0000
0000
0000
0000
0000
0000
0000
0000
0000
0000
0000
0000
0000
0000
0000
0000
0000
0000
0000
0000
0000
0000
0000
00M0
0000
0000
00M0
0000
0000
00M0
0000
0000
00M0
0000
0000
,
00M0
00M0
00M0
00M0
00M0
00M0
00M0
00M0
00M0
00M0
00M0
0000
0000
0000
0000
0000
MMMM
M00M
M00M
M00M
M00M
M00M
M00M
M00M
M00M
M00M
MMMM
0000
0000
0000
0000
0000
,
MMMM
M00M
M00M
M00M
M00M
M00M
M00M
M00M
M00M
M00M
MMMM
0000
0000
0000
0000
0000
MMMM
M00M
M00M
M00M
M00M
M00M
M00M
M00M
M00M
M00M
MMMM
0000
0000
0000
0000
0000
,
0000
0000
0000
0000
1000
0100
0010
0001
,
1000
0001
0100
0010
1000
0001
0010
0001
,
0100
0010
1000
0100
0010
0001
0100
0010
,
1000
0001
0010
0100
1000
0001
0100
0001
,
1000
0010
0100
0001
1000
0100
0010
0001
,
0100
0010
1000
0010
0100
0001
1000
0100
,
0010
0001
0100
0010
1000
0001
0010
0100
,
1000
0010
0100
0001
1000
0001
0010
0100
,
1000
0001
0100
0010
1000
0001
0100
0001
,
1000
0010
0100
0001
1000
0100
0010
0001
,
1000
0010
0100
0001
1000
0100
1000
0010
,
0100
0001
1000
0100
1000
0010
0100
0001
,
1000
0001
0100
0010
1000
0100
0010
0001
,
0100
0010
1000
0001
0100
0001
1000
0010
,
0100
0001
1000
0100
0010
0001
1000
0100
,
0010
0001
1000
0001
0100
0010
1000
0001
,
0010
0001
0100
0010
1000
0100
0010
0001
,
0100
0010
1000
0001
0010
0100
1000
0001
,
0100
0001
1000
0010
0100
0001
1000
0100
,
0010
0001
0100
0010
1000
0010
0100
0001
,
1000
0100
0010
0001
0100
0010
0100
0001
,
1000
0100
1000
0010
0100
0001
1000
0001
,
0010
0100
1000
0010
0100
0010
1000
0001
,
0100
0001
1000
0010
0100
0001
1000
0100
,
0010
0001
1000
0010
0100
0001
1000
0100
,
1000
0010
0100
0001
1000
0100
1000
0010
,
0100
0001
1000
0010
0100
0001
1000
0100
,
0010
0001
0100
0010
1000
0001
0100
0001
,
1000
0010
0100
0001
1000
0100
0010
0001
,
1000
0100
0010
0001
1000
0001
0100
0010
,
1000
0001
0010
0001
0100
0010
1000
0100
,
0010
0001
0100
0010
1000
0001
0010
0100
,
1000
0001
0100
0001
1000
0010
0100
0001
,
1000
0100
0010
0001
0100
0010
1000
0010
,
0100
0001
1000
0100
0010
0001
1000
0010
,
0100
0001
1000
0100
1000
0010
0100
0001
,
1000
0001
0010
0100
1000
0010
0100
0010
,
1000
0001
0100
0001
1000
0010
0100
0001
,
1000
0100
0010
0001
1000
0010
0100
0001
,
1000
0100
1000
0010
0100
0001
1000
0100
,
1000
0010
0100
0001
1000
0001
0100
0010
,
1000
0100
0010
0001
0100
0010
1000
0001
,
0100
0001
1000
0010
0100
0001
1000
0100
,
0010
0001
1000
0100
0010
0001
1000
0001
,
0100
0010
1000
0001
0010
0001
0100
0010
,
1000
0100
0010
0001
0100
0010
1000
0001
,
0010
0100
1000
0001
0100
0001
1000
0010
,
0100
0001
1000
0100
0010
0001
0100
0010
,
1000
0010
0100
0001
1000
0100
0010
0001
,
0100
0010
0100
0001
1000
0100
1000
0010
,
0100
0001
1000
0001
0010
0100
1000
0010
,
0100
0010
1000
0001
0100
0001
1000
0010
,
0100
0001
1000
0100
0010
0001
1000
0010
,
0100
0001
1000
0100
1000
0010
0100
0001
,
1000
0100
1000
0010
0100
0001
1000
0001
,
0100
0010
1000
0100
0010
0001
0100
0010
,
1000
0001
0100
0001
1000
0010
0100
0001
,
1000
0100
0010
0001
1000
0100
1000
0010
,
0100
0001
1000
0100
1000
0010
0100
0001
,
1000
0001
0100
0010
1000
0100
0010
0001
,
0100
0010
1000
0001
0100
0001
1000
0010
,
1000
0001
0100
0010
2000
0000
0000
0000
,
0000
0MMM
3000
0000
;
