#TITLE:Jack;
#SUBTITLE:;
#ARTIST:DesQ;
#TITLETRANSLIT:;
#SUBTITLETRANSLIT:;
#ARTISTTRANSLIT:;
#CREDIT:;
#BANNER:jack.png;
#BACKGROUND:jack-bg.png;
#LYRICSPATH:;
#CDTITLE:;
#MUSIC:jack.mp3;
#OFFSET:-1.250;
#SAMPLESTART:25.750;
#SAMPLELENGTH:12.000;
#SELECTABLE:YES;
#BPMS:0.000=116.000,40.000=58.000,44.000=116.000;
#STOPS:;
#BGCHANGES:;
// cache tags:
#FIRSTBEAT:8.000;
#LASTBEAT:190.000;
#SONGFILENAME:Songs/IzzySM Keyboard Mega Pack/jack/jack.sm;
#HASMUSIC:1;
#HASBANNER:1;
#MUSICLENGTH:104.103;
// end cache tags

//---------------dance-single - ----------------
#NOTES:
     dance-single:
     :
     Challenge:
     11:
     1.000,1.000,1.000,0.154,1.000,647.000,241.000,16.000,0.000,0.000:  // measure 1
0000
0000
0000
0000
,  // measure 2
0000
0000
0000
0000
,  // measure 3
1001
1001
0000
1010
1010
1010
1010
1010
0110
0110
0000
0110
0110
0110
0110
0110
,  // measure 4
0101
0101
0000
0101
0101
0101
0101
0101
0011
0011
0000
0011
0011
0011
0011
0011
,  // measure 5
0110
0110
0000
0110
0110
0110
0110
0110
1100
1100
0000
1100
1100
1100
1100
1100
,  // measure 6
1001
1001
0000
1001
1001
1001
1001
1001
0101
0101
0000
0101
0101
0101
0101
0101
,  // measure 7
0110
0110
0000
0110
0110
0110
0110
0110
1010
1010
0000
1010
1010
1010
1010
1010
,  // measure 8
0110
0110
0000
0110
0110
0110
0110
0110
1001
1001
0000
1001
1001
1001
1001
1001
,  // measure 9
1010
1010
0000
1010
1010
1010
1010
1010
0101
0101
0000
0101
0101
0101
0101
0101
,  // measure 10
0011
0011
0000
0011
0011
0011
0011
0011
1100
1100
0000
1100
1100
1100
1100
1100
,  // measure 11
1001
0000
0100
0000
0010
0000
0001
0000
1000
0000
0000
0000
1001
0000
0000
0000
0001
0000
0100
0000
0010
0000
1000
0000
0010
0000
0100
0000
0001
0000
0010
0000
0100
0000
1000
0000
0001
0000
0010
0000
0100
0000
0000
0000
0110
0000
0000
0000
1000
0000
0100
0000
0001
0000
0100
0000
1000
0001
1000
0000
0000
0000
0001
0000
,  // measure 12
1001
1001
0000
0001
0100
0010
1000
0010
0110
0110
0000
1000
0100
0010
0001
0010
,  // measure 13
1100
1100
0000
0010
0100
1000
0001
0010
1100
1100
0000
0001
1000
0100
0010
0100
,  // measure 14
1001
1001
0000
0010
0001
1000
0001
0100
1010
1010
0000
0001
0100
0010
1000
0010
,  // measure 15
0101
0101
0000
1000
0001
0100
1000
0100
0011
0011
0000
0010
0001
1000
0001
1000
,  // measure 16
1001
0100
1000
0100
0010
0001
0010
0001
0100
0010
0100
0010
1000
0001
1000
0001
,  // measure 17
0010
0100
0010
0100
1000
0100
1000
0100
0010
0001
0011
0000
0001
0011
0000
0001
,  // measure 18
1001
0100
0001
0100
0010
1000
0010
1000
0100
0010
0100
0010
0001
1000
0001
1000
,  // measure 19
0010
0100
0010
0100
0001
0100
0001
0100
0010
1000
1010
0000
1000
1010
0000
1000
,  // measure 20
1001
0100
0010
1000
0001
0010
0100
1000
0001
0100
0010
1000
0001
0010
0100
1000
,  // measure 21
0001
0100
0010
1000
0001
0010
0100
1000
0001
0100
1010
0000
0100
1010
0000
0100
,  // measure 22
1001
0100
0010
0001
1000
0010
0100
0001
1000
0100
0010
0001
1000
0010
0100
0001
,  // measure 23
1000
0100
0010
0001
1000
0010
0100
0001
1000
0100
0001
0010
1000
0010
0001
0100
,  // measure 24
1001
0000
1001
0000
1001
0110
0000
0101
0000
0101
0101
0000
1001
0000
0220
0330
,  // measure 25
1100
0000
1100
0000
0011
1001
0000
1010
0000
1010
1010
0000
0202
0000
0000
0303
,  // measure 26
0011
0000
0011
0000
1100
1010
0000
0101
0000
0101
0101
0000
0110
0000
2002
3003
,  // measure 27
1100
0000
1100
0000
2002
0000
3003
0000
0001
1000
0000
1000
0000
1000
0000
1000
,  // measure 28
0001
0001
0001
0001
0001
0001
0001
0001
0001
0001
0001
0001
0001
0001
0001
0001
,  // measure 29
0010
0010
0010
0010
0010
0010
0010
0010
0010
0010
0010
0010
0010
0010
0010
0010
,  // measure 30
0100
0100
0100
0100
0100
0100
0100
0100
0100
0100
0100
0100
0100
0100
0100
0100
,  // measure 31
1000
1000
1000
1000
1000
1000
1000
1000
1000
1000
1000
1000
1000
1000
1000
1000
,  // measure 32
0001
0001
0001
0001
0001
0001
0001
0001
0001
0001
0001
0001
0001
0001
0001
0001
,  // measure 33
0010
0010
0010
0010
0010
0010
0010
0010
0010
0010
0010
0010
0010
0010
0010
0010
,  // measure 34
0100
0100
0100
0100
0100
0100
0100
0100
0100
0100
0100
0100
0100
0100
0100
0100
,  // measure 35
1000
1000
1000
1000
1000
1000
1000
1000
1000
1000
1000
1000
1000
1000
1000
1000
,  // measure 36
1001
0000
1001
0000
0011
0000
1000
0100
0010
0001
0010
0100
1010
0000
0000
0000
,  // measure 37
0110
0000
0110
0000
0101
0000
0001
0100
0010
1000
0010
0100
0101
0000
0001
0100
,  // measure 38
1010
0000
1010
0000
1001
0000
0001
0100
1000
0100
0001
0010
1010
0000
0000
0000
,  // measure 39
1000
0010
0001
0100
0101
0000
0001
0100
1000
0100
0001
1000
1001
0001
1000
0001
,  // measure 40
1001
0100
0010
0100
1010
0100
0001
0100
0010
1000
0100
0010
0011
0001
0100
0010
,  // measure 41
1000
0100
0010
0100
1100
1000
0001
0100
0010
0100
0001
0010
0110
0100
1000
0001
,  // measure 42
1001
1000
0100
0010
0011
0001
0100
0010
1000
0100
0010
0100
1100
1000
0001
0100
,  // measure 43
0001
1000
0010
0100
0101
0001
0100
0010
1000
0001
1000
0001
1000
0001
1000
0001
,  // measure 44
1001
0110
0000
1010
1010
1010
1010
1010
1010
1010
0000
0110
0101
0000
2002
3003
,  // measure 45
1010
1001
0000
1001
0101
0101
0101
0101
0101
0101
0000
0011
0110
0000
2200
3300
,  // measure 46
0101
0011
0000
0011
0110
0110
0110
0110
0110
0110
0000
1100
1001
0000
0220
0330
,  // measure 47
1010
0101
0000
0101
0011
0011
0011
0011
0011
0011
0000
0110
1001
0000
0220
0330
,  // measure 48
1000
0001
0000
0001
1000
0100
0001
0010
1000
0000
0000
0000
0000
0000
0000
0000
;

//---------------dance-single - ----------------
#NOTES:
     dance-single:
     :
     Hard:
     9:
     0.683,0.684,0.490,0.077,0.711,439.000,51.000,8.000,0.000,0.000:  // measure 1
0000
0000
0000
0000
,  // measure 2
0000
0000
0000
0000
,  // measure 3
1000
0001
0000
1000
0100
1000
0100
1000
0100
1000
0000
0001
0100
0001
0100
0001
,  // measure 4
0100
0001
0000
0010
0100
0010
0100
0010
0100
0010
0000
0100
0010
0100
0010
0100
,  // measure 5
0010
0100
0000
1000
0010
1000
0010
1000
0010
1000
0000
0001
0100
0001
0100
0001
,  // measure 6
0100
0001
0000
1000
0001
1000
0001
1000
0001
1000
0000
0100
0010
0100
0010
0100
,  // measure 7
0010
0100
0000
0010
0001
0010
0001
0010
0001
0010
0000
0001
0100
0001
0100
0001
,  // measure 8
0100
0001
0000
0100
0010
0100
0010
0100
0010
0100
0000
0010
1000
0010
1000
0010
,  // measure 9
1000
0010
0000
1000
0100
1000
0100
1000
0100
1000
0000
0100
0001
0100
0001
0100
,  // measure 10
0001
0100
0000
0001
0100
0001
0100
0001
0100
0001
0000
0100
1000
0100
1000
0100
,  // measure 11
2000
0001
0001
0000
0001
0001
0001
0001
0001
0001
0001
0000
0001
0001
0001
0001
,  // measure 12
3001
0100
0000
0100
0010
1000
0010
1000
0010
0100
0000
0100
0001
0010
0001
0010
,  // measure 13
0001
1000
0000
1000
0100
0010
0100
0010
0100
1000
0000
1000
0010
0100
0010
0100
,  // measure 14
0010
0100
0000
0100
0001
0010
0001
0010
0001
0010
0000
0010
0001
0100
0001
0100
,  // measure 15
0001
1000
0000
1000
0010
0100
0010
0100
0010
1000
0000
1000
0100
0001
0100
0001
,  // measure 16
0100
1000
0010
0100
0001
0010
0100
1000
,  // measure 17
0010
0000
0100
0000
0001
0000
0100
0000
0010
0000
1010
0000
0000
1001
0000
0000
,  // measure 18
0101
0010
1000
0100
1000
0001
0010
0100
,  // measure 19
0010
0000
0001
0000
0100
0000
0010
0000
1000
0000
1100
0000
0000
0011
0000
0000
,  // measure 20
0110
0001
1000
0100
0001
0100
1000
0010
,  // measure 21
0100
0000
0001
0000
0100
0000
1000
0000
0100
0000
1001
0000
0000
1100
0000
0000
,  // measure 22
0011
1000
0100
0010
0100
1000
0010
0100
,  // measure 23
0001
0000
0010
0000
0100
0000
0010
0000
0001
0100
0010
1000
0010
0100
0001
0000
,  // measure 24
1001
0000
0000
0000
0000
0000
0000
1000
,  // measure 25
1001
0000
0000
0000
0000
0000
0020
0030
,  // measure 26
0110
0000
0000
0000
,  // measure 27
0000
0000
2002
0000
0000
0000
0000
3003
,  // measure 28
1001
0100
0010
0100
1000
1001
0011
0010
,  // measure 29
0100
1000
1010
0100
0001
0011
0101
0001
,  // measure 30
1000
0100
0110
0100
1000
1001
0101
0010
,  // measure 31
1000
0010
0110
0010
1000
1001
0011
1000
,  // measure 32
1001
0001
0011
0010
0100
1100
1010
0001
,  // measure 33
0010
0100
1100
0001
1000
1010
1100
1000
,  // measure 34
0001
0100
0110
0010
1000
1010
1001
0001
,  // measure 35
0100
0010
1010
1000
0100
0101
1100
0000
,  // measure 36
1001
0000
0100
0000
0010
0000
0100
0000
1000
0001
1000
0000
1010
0000
0000
0000
,  // measure 37
0001
0000
0100
0000
0010
0000
0100
0000
0001
0010
0001
0000
0011
0000
0000
0000
,  // measure 38
1001
0000
0010
0000
0100
0000
0001
0000
1000
0100
1000
0000
0110
0000
0000
0000
,  // measure 39
0001
0010
0001
0000
0110
0000
0100
1000
0100
1000
0100
0000
1001
0000
0000
0000
,  // measure 40
0110
0000
1000
0000
0001
0000
0010
0000
0100
0010
0100
0000
1100
0000
0000
0000
,  // measure 41
0001
0000
0100
0000
0010
0000
1000
0000
0010
0100
0010
0000
1010
0000
0000
0000
,  // measure 42
1000
0000
0100
0000
0010
0000
0100
0000
1000
0001
1000
0000
0110
0000
0000
0000
,  // measure 43
0001
0100
0001
0000
1001
0000
1000
0100
1000
0100
1000
0000
1001
0000
0000
0000
,  // measure 44
1000
0001
0000
0001
0100
0010
0100
0010
0100
0010
0000
0010
1000
0000
0002
0000
,  // measure 45
1003
0100
0000
0100
0010
0001
0010
0001
0010
0001
0000
0001
1000
0000
0020
0000
,  // measure 46
0130
0001
0000
0001
0010
0100
0010
0100
0010
0100
0000
0100
1000
0000
0002
0000
,  // measure 47
0013
0100
0000
0100
1000
0001
1000
0001
1000
0001
0000
0001
1000
0000
0020
0000
,  // measure 48
1030
0001
0000
0001
1000
0100
0001
0100
1000
0000
0000
0000
0000
0000
0000
0000
;

//---------------dance-single - ----------------
#NOTES:
     dance-single:
     :
     Medium:
     8:
     0.515,0.525,0.394,0.144,0.235,319.000,41.000,15.000,0.000,0.000:  // measure 1
0000
0000
0000
0000
,  // measure 2
0000
0000
0000
0000
,  // measure 3
1001
0000
0002
0100
0103
0000
0200
0010
,  // measure 4
0310
0000
0020
1000
1030
0000
2000
0100
,  // measure 5
3100
0000
0200
0010
0310
0000
0020
0001
,  // measure 6
0031
0000
0002
1000
1003
0000
0010
0100
,  // measure 7
1001
0000
1000
0100
1100
0000
0100
0010
,  // measure 8
0011
0000
0001
0100
0101
0000
0100
0010
,  // measure 9
1010
0000
1000
0100
0101
0000
0001
0010
,  // measure 10
1010
0000
1000
0001
0110
0000
0001
1000
,  // measure 11
0110
1000
0001
1000
0001
1000
0001
1000
,  // measure 12
0110
0000
1001
0000
0110
0000
1000
0100
,  // measure 13
0011
0000
0001
0100
1010
0000
1000
0001
,  // measure 14
0110
0000
0010
0100
1001
0000
1000
0010
,  // measure 15
0101
0000
0001
0010
1100
0000
1000
0001
,  // measure 16
1001
1000
0100
0100
0010
0010
0001
0001
,  // measure 17
0100
0000
0100
0000
0010
0000
0010
0000
1000
0000
1000
0000
0000
0001
0000
0000
,  // measure 18
0110
0100
0010
0010
0001
0001
1000
1000
,  // measure 19
0001
0000
0001
0000
0100
0000
0100
0000
0010
0000
0010
0000
0000
1000
0000
0000
,  // measure 20
1100
0100
0010
0010
0001
0001
0100
0100
,  // measure 21
0010
0000
0010
0000
0100
0000
0100
0000
0001
0000
0001
0000
0000
0100
0000
0000
,  // measure 22
1010
0010
1000
1000
0100
0100
0001
0001
,  // measure 23
0100
0000
0100
0000
1000
0000
1000
0000
0001
0100
0001
0000
1000
0010
1000
0000
,  // measure 24
1001
0000
0000
0000
0000
0000
0000
2000
,  // measure 25
3001
0000
0000
0020
,  // measure 26
0130
0000
0000
0000
,  // measure 27
0000
2002
0000
3003
,  // measure 28
1000
0000
0100
0000
0010
0001
0000
1000
0000
0001
0010
0000
0100
0000
0000
0000
,  // measure 29
0001
0000
0100
0000
0010
1000
0000
0001
0000
1000
0010
0000
0100
0000
0000
0000
,  // measure 30
0100
0000
0010
0000
1000
0001
0000
0100
0000
0001
1000
0000
0010
0000
0000
0000
,  // measure 31
0001
0000
1000
0000
0100
0010
0000
1000
0000
0010
0100
0000
1000
0000
0000
0000
,  // measure 32
1000
0000
0001
0000
0100
0010
0000
0001
0000
0010
0100
0000
0001
0000
0000
0000
,  // measure 33
0100
0000
0001
0000
0100
0010
0000
0100
0000
0010
0100
0000
0001
0000
0000
0000
,  // measure 34
0100
0000
1000
0000
0100
0001
0000
0010
0000
0001
0100
0000
1000
0000
0000
0000
,  // measure 35
1000
0000
0001
0000
0100
1000
0000
0010
0000
1000
0100
0000
0001
0000
0000
0000
,  // measure 36
1001
0100
0001
0100
0010
1000
1001
0000
,  // measure 37
0101
0010
1000
0100
0010
0100
1100
0000
,  // measure 38
0011
1000
0001
0100
0010
0100
1010
0000
,  // measure 39
0101
0010
1000
0100
0010
0100
1100
0000
,  // measure 40
1001
0100
0010
1000
0100
1000
1100
0100
,  // measure 41
0010
0001
0011
0010
0001
1000
1001
0010
,  // measure 42
1000
0100
1001
0010
0001
0100
1001
0010
,  // measure 43
1000
0100
1001
0010
0001
0100
1001
0000
,  // measure 44
1000
0100
0000
0100
1000
0000
1000
0000
1000
0001
0000
0001
0100
0000
0020
0000
,  // measure 45
0130
0001
0000
0001
0100
0000
0100
0000
0100
0010
0000
0010
1000
0000
0002
0000
,  // measure 46
1003
0100
0000
0100
0010
0000
0010
0000
0010
0001
0000
0001
1000
0000
0002
0000
,  // measure 47
1003
0010
0000
0010
0100
0000
0100
0000
0100
0001
0000
0001
1000
0000
0020
0000
,  // measure 48
1030
0001
0000
0001
1000
0100
1000
0100
1000
0000
0000
0000
0000
0000
0000
0000
;

//---------------dance-single - ----------------
#NOTES:
     dance-single:
     :
     Easy:
     5:
     0.354,0.388,0.279,0.221,0.000,206.000,29.000,23.000,0.000,0.000:  // measure 1
0000
0000
0000
0000
,  // measure 2
0000
0000
0000
0000
,  // measure 3
1001
2000
3001
0002
,  // measure 4
0013
0020
0130
0200
,  // measure 5
1300
2000
3010
0020
,  // measure 6
0130
0200
0301
0002
,  // measure 7
1003
0020
0130
0200
,  // measure 8
1300
2000
3001
0002
,  // measure 9
0103
0020
1030
0200
,  // measure 10
0301
0020
0130
1000
,  // measure 11
2000
0000
0001
0000
0000
0000
0001
3000
,  // measure 12
1001
1001
0100
0010
,  // measure 13
1000
0100
0010
0001
,  // measure 14
1001
0100
0001
0010
,  // measure 15
1000
0100
0010
0001
,  // measure 16
0110
1000
0001
0010
,  // measure 17
0100
0000
0010
0000
1000
0100
0010
0001
,  // measure 18
1000
0010
0100
0001
,  // measure 19
0100
0000
0010
0000
1000
0001
0100
0001
,  // measure 20
1000
1000
0100
0100
,  // measure 21
0010
0000
0010
0000
0001
0100
0001
0100
,  // measure 22
0010
0010
1000
1000
,  // measure 23
0001
0000
0001
0000
1000
0001
1000
0001
,  // measure 24
1001
0000
0000
0000
,  // measure 25
1001
0000
0000
1000
,  // measure 26
1001
0000
0000
0000
,  // measure 27
0000
0000
2002
0000
0000
0000
0000
3003
,  // measure 28
1000
1000
1000
0000
0001
0001
0001
0000
,  // measure 29
0100
0100
0100
0000
0010
0010
0010
0000
,  // measure 30
1000
0100
1000
0000
0001
0100
0001
0000
,  // measure 31
1000
0010
1000
0000
0001
0010
0001
0000
,  // measure 32
1000
0100
0010
0000
0001
0100
0010
0000
,  // measure 33
1000
0010
0100
0000
0001
0010
0100
0000
,  // measure 34
1000
0100
0001
0000
0001
0100
1000
0000
,  // measure 35
1000
0010
0001
0000
0001
0010
1000
0000
,  // measure 36
1001
1010
0100
0011
,  // measure 37
0001
1100
1000
0101
,  // measure 38
0100
1001
0010
1001
,  // measure 39
0001
0110
1000
0110
,  // measure 40
1001
0110
1000
0101
,  // measure 41
0010
1100
0001
0110
,  // measure 42
1000
0011
0100
1001
,  // measure 43
1000
0001
1001
0000
0010
0100
0110
0000
,  // measure 44
2001
0000
0001
0001
3001
0000
0001
0010
,  // measure 45
0200
0000
1000
1000
1300
0000
0010
0100
,  // measure 46
2000
0000
0100
0100
3100
0000
0010
0100
,  // measure 47
0002
0000
1000
1000
1003
0000
0010
0001
,  // measure 48
1002
0000
0100
0100
0103
0000
0000
0000
;
