#TITLE:Monolith;
#SUBTITLE:-Renaissance Mix-;
#ARTIST:Affinity feat. dj Amuro;
#TITLETRANSLIT:;
#SUBTITLETRANSLIT:;
#ARTISTTRANSLIT:;
#CREDIT:;
#BANNER:Monolith Ren-banner.png;
#BACKGROUND:Monolith Ren-bg.png;
#LYRICSPATH:;
#CDTITLE:esm09-cdtitle.png;
#MUSIC:monoren.mp3;
#OFFSET:-1.259;
#SAMPLESTART:60.071;
#SAMPLELENGTH:19.616;
#SELECTABLE:YES;
#BPMS:0.000=98.000,16.000=196.000;
#STOPS:108.000=0.300
,108.500=0.340
,142.000=0.160
,143.000=0.160
,143.500=0.160
,148.500=0.140
,149.500=0.160
,150.000=0.140
,156.500=0.160
,160.000=0.140
,162.000=0.160
,163.000=0.160
,163.500=0.160
,164.500=0.160
,196.000=0.300
,196.500=0.300
,342.000=0.300
,342.500=0.300
;
#BGCHANGES:;
// cache tags:
#FIRSTBEAT:0.000;
#LASTBEAT:368.333;
#SONGFILENAME:Songs/KBU/Monolith ~Rennaissance~ (eastsideman09)/monoren.sm;
#HASMUSIC:1;
#HASBANNER:1;
#MUSICLENGTH:127.555;
// end cache tags

//---------------dance-single - ----------------
#NOTES:
     dance-single:
     :
     Hard:
     12:
     1.000,1.000,1.000,0.643,1.000,938.000,195.000,82.000,212.000,4.000:
1010
0000
0000
1000
0000
0000
10MM
0000
0000
0100
0000
0000
0100
0000
0000
0100
0000
0000
MM01
0000
0000
0001
1000
0010
,
0101
0000
0000
0000
0000
0000
0100
0000
0000
0000
0000
0000
M10M
0000
0000
0000
0000
0000
1010
0000
0000
0000
0000
0000
0010
0000
0000
0000
0000
0000
0010
0000
0000
0000
0000
0000
10MM
0000
0100
0000
0010
0000
0001
0000
0000
0100
0000
0000
,
1001
0001
0MM1
1100
1000
1000
MM11
0010
,
1001
0000
0000
0000
0000
0000
0000
0000
0010
0000
0000
0000
0000
0000
0000
0000
0100
0000
0000
0000
0000
0000
0000
0000
1000
0000
0000
0000
0000
0000
0000
0000
0000
0000
0000
0000
0010
0000
0000
0000
0000
0000
0000
0000
0000
0000
0000
0000
1M0M
0000
0000
0000
0000
0000
0000
0000
0000
0000
0000
0000
0100
0000
0000
0000
0000
0000
0000
0000
0000
0000
0000
0000
0001
0000
0000
0000
0000
0000
0000
0000
0000
0000
0000
0000
0000
0000
0000
0000
0000
0000
0000
0000
0000
0000
0000
0000
0001
0000
0000
0000
0000
0000
0000
0000
0000
0000
0000
0000
1000
0000
0000
0000
0000
0000
0000
0000
0000
0000
0000
0000
0001
0000
0000
0000
0000
0000
0000
0000
0000
0000
0000
0000
1000
0000
0000
0000
0000
0000
0000
0000
0000
0000
0000
0000
0M1M
0000
0000
0000
0000
0000
1000
0000
0000
0000
0000
0000
0001
0000
0000
0000
0000
0000
0100
0000
0000
0000
0000
0000
0010
0000
0000
0000
0000
0000
0000
0000
0000
0000
0000
0000
1000
0000
0000
0000
0000
0000
0000
0000
0000
0000
0000
0000
,
1001
0100
0010
0000
1000
0001
0010
0001
1000
0010
0100
0000
0010
0001
1000
0010
,
1000
0001
0010
0000
0001
1000
0010
0100
0010
1000
0001
0000
1000
0100
0010
0001
,
0010
0100
1000
0000
0001
0100
0010
1000
0010
0100
0001
0000
0100
1000
0001
0100
,
0001
1000
0100
0000
0010
0001
0100
0010
1000
0100
0010
0000
0100
0001
0010
0100
,
1000
0010
0100
0000
0001
1000
0100
1000
0010
0100
0001
0000
1000
0010
0100
0001
,
0010
0100
1000
0000
0001
0100
0010
1000
0100
0010
0100
0000
0001
1000
0100
0010
,
0001
1000
0010
0000
0100
0001
0010
0100
1000
0001
0010
0000
0100
0001
1000
0010
,
0100
0001
0010
0000
1000
0001
0010
0001
1000
0100
0010
0000
0100
0001
0010
0100
,
1001
0010
0100
0001
1000
0100
0010
0001
0100
0010
0100
0001
0010
0100
1000
0001
,
0100
0001
1000
0010
0100
0001
1000
0100
1000
0001
0010
0100
0010
0001
1000
0010
,
0100
0001
0010
0100
0010
0001
0100
0010
0100
0001
0010
0100
1000
0010
0100
0010
,
1000
0100
0010
0100
1000
0010
0100
0010
1000
0001
0100
0010
1000
0100
1000
0010
,
0101
1000
0010
0100
0001
1000
0100
0010
0001
1000
0100
1000
0001
0100
0010
0100
,
0001
0010
0100
1000
0100
0010
0100
1000
0010
0100
0010
1000
0001
0100
0001
1000
,
0010
0100
0001
0100
0010
1000
0001
0010
0100
1000
0001
0100
0010
0100
0001
1000
,
0100
0010
0001
1000
0010
0100
0001
0010
0100
1000
0001
0100
0001
1000
0110
0001
,
0110
0100
0010
0001
0100
1000
0001
0010
,
0100
0100
MMMM
0100
0100
0010
1000
0001
,
0010
0010
0100
1000
0010
0100
0001
0010
,
0100
0100
MMMM
0100
0100
0001
0010
0100
,
0001
0001
1000
0100
0010
1000
0010
0100
,
0001
0001
MMMM
0010
0010
0001
1000
0001
,
0100
MMMM
0100
0100
MMMM
0100
0001
0010
,
M2M2
0303
1M1M
0000
M22M
0000
0330
0000
M11M
0000
0100
0000
0010
0000
0001
0000
,
0100
1000
0001
0010
0100
0100
MMMM
0100
,
0100
0010
1000
0001
0010
0010
0100
1000
,
0010
0100
0001
0010
0100
0100
MMMM
0100
,
0100
0001
0010
0100
0001
0001
1000
0100
,
0010
1000
0010
0100
0001
0001
MMMM
0010
,
0010
0001
1000
0001
0010
1000
0010
0001
,
0010
MMMM
0010
0001
1000
MMMM
1000
0100
,
MMMM
0000
0000
0000
0000
0000
0000
0000
0100
0000
0000
0000
0000
0000
0000
0000
0001
0000
0000
0000
0000
0000
0000
0000
1000
0000
0000
0000
0000
0000
0000
0000
M22M
0330
0000
0000
0000
0000
0000
0000
0101
0000
0000
0000
0000
0000
0000
0000
M1M1
0000
0000
0000
0000
0000
0000
0000
2M2M
3030
0000
0000
0000
0000
0000
0000
,
11MM
0000
1100
0001
0010
0100
1000
0001
0100
0010
1000
0100
0010
0001
0010
0100
,
1000
0000
0000
0000
0010
0000
0000
0000
2002
3003
0000
0000
0000
0000
0000
0000
1100
0000
0000
0000
0000
0000
0000
0000
11MM
0000
0000
0000
0000
0000
0000
0000
M22M
0330
0000
0000
0000
0000
0000
0000
MM11
0000
0000
0000
0000
0000
0000
0000
0011
0000
0000
0000
1000
0000
0000
0000
0100
0000
0000
0000
0010
0000
0000
0000
,
0001
0000
0000
0000
1000
0000
0000
0000
0010
0000
0000
0000
0100
0000
0000
0000
0001
0000
0000
0000
0100
0000
0000
0000
0010
0000
0000
0000
1000
0000
0000
0000
0001
0000
0000
0000
0010
0000
0000
0000
0100
0000
0000
0000
1000
0000
0000
0000
0022
0033
0000
0000
0000
0000
0000
0000
0001
0000
0000
0000
0000
0000
0000
0000
,
1001
0000
0000
0000
0000
0000
0000
0000
1MM1
0000
0000
0000
0000
0000
0000
0000
2020
3030
0000
0000
0000
0000
0000
0000
0010
0000
0000
0000
0000
0000
0000
0000
0110
0000
0000
0000
1000
0000
0000
0000
0220
0330
0000
0000
0000
0000
0000
0000
0100
0000
0000
0000
0000
0000
0000
0000
0101
0000
0000
0000
0000
0000
0000
0000
,
M1M1
0000
0000
0000
0000
0000
0000
0000
2002
3003
0000
0000
0000
0000
0000
0000
1000
0000
0000
0000
0001
0000
0000
0000
1010
0000
0000
0000
0000
0000
0000
0000
2MM2
3003
0000
0000
0000
0000
0000
0000
0101
0000
0000
0000
0000
0000
0000
0000
M1M1
0000
0000
0000
0000
0000
0000
0000
1MM1
0000
0000
0000
0000
0000
0000
0000
,
0011
0000
0000
0000
0000
0000
0000
0000
MM22
0033
0000
0000
0000
0000
0000
0000
0100
0000
0000
0000
0010
0000
0000
0000
0100
0000
0000
0000
0010
0000
0000
0000
1000
0000
0000
0000
0001
0000
0000
0000
1000
0000
0000
0000
0001
0000
0000
0000
0100
0000
0000
0000
0010
0000
0000
0000
0100
0000
0000
0000
0010
0000
0000
0000
,
2200
3300
0220
0330
0011
1001
0100
1010
,
000M
1010
0001
1100
00M0
1100
0110
0011
,
0202
0303
2002
3003
1010
1001
0010
0101
,
M000
0101
0010
1001
0011
0110
1010
0110
,
0202
0303
0220
0330
1010
1001
0010
0101
,
M000
0101
1000
0011
0M00
0011
1001
1100
,
0220
0330
2002
3003
0011
1100
0001
0110
,
2M2M
3030
M1M1
0000
2MM2
0000
3003
0000
22MM
0000
3300
0000
0220
0000
0330
0000
,
0011
1001
0100
1010
000M
1010
0001
1100
,
00M0
1100
0110
0011
0202
0303
2002
3003
,
1010
1001
0010
0101
M000
0101
0010
1001
,
0011
0110
1010
0110
0202
0303
0220
0330
,
1010
1001
0010
0101
M000
0101
1000
0011
,
0M00
0011
1001
1100
0220
0330
2002
3003
,
0011
1100
0001
0110
1000
0101
0010
1001
,
0011
0110
1100
1010
1001
0100
1001
0010
,
0001
1100
0001
0110
1000
0001
0101
1000
,
0001
1010
0001
0110
1000
0001
1001
0100
,
0010
1100
0001
0110
0001
1000
1001
0010
,
0001
0000
1100
0000
0011
1000
0001
0100
1001
0000
0100
0000
1010
0000
0001
0000
,
0010
1100
0010
1001
0010
0100
0110
0001
,
0100
1010
0100
1001
0010
0001
1001
0100
,
0001
1100
0010
1001
0100
0010
0110
0001
,
1000
0000
0101
0000
1100
0010
0101
0010
1001
0000
0100
0000
0001
0000
0010
0000
,
MMMM
0010
0001
0100
1010
0001
0110
1000
,
0010
0101
0110
1010
0101
200M
3M20
M230
,
03M2
1013
0110
1010
0110
0M02
20M3
3M02
,
20M3
0000
3011
0000
0101
0010
1100
0010
1001
0000
0100
00M0
0100
000M
1000
00M0
,
1000
0000
0M00
0000
1000
0000
000M
0000
10M0
0000
0000
0000
0M01
0000
0000
0000
00M1
0000
M000
0000
0010
0000
0000
0000
010M
0000
0000
0000
10M0
0000
0000
000M
,
0100
1001
0101
0110
1100
00M2
2M03
302M
,
M230
1301
0101
1001
0101
200M
3M20
203M
,
3M20
0000
M131
0000
M1M1
0000
M1M1
0000
M1M1
0000
000M
M000
00M0
000M
0M00
0000
,
0100
0001
1000
0001
0100
0001
1000
0001
0110
0000
MMMM
0000
MMMM
0000
MMMM
0000
,
0001
0010
0001
0010
0001
0010
0100
1000
0100
1000
0100
1000
0100
0010
0100
0010
,
0100
0010
0100
0010
1000
0100
0010
0001
0100
0010
1000
0100
0010
0001
0010
0001
,
1000
0001
1000
0001
1000
0100
1000
0100
0010
0001
0010
0001
0100
0001
0100
0001
,
0100
0010
0100
0010
0100
0010
0100
0010
1000
0001
0100
0001
1000
0010
0100
0010
,
1000
0001
0010
0001
1000
0100
0010
0100
1000
0001
0100
0001
1000
0010
0100
0010
,
1000
0100
0010
0001
0010
0100
1000
0010
0100
0001
1000
0001
0100
0010
1000
0001
,
1000
0010
0100
0010
1000
0001
0010
0001
1000
0100
0010
0100
1000
0001
0010
0100
,
0010
0001
1000
0010
0100
0001
1000
0100
M010
0001
1000
0001
0010
0001
1000
0001
,
0010
0001
0100
0001
0010
0001
0100
0001
0010
0100
1000
0100
0010
0100
1000
0100
,
0010
0001
1000
0001
0010
0001
1000
0001
0010
0100
1000
0100
0010
0001
1000
0010
,
0100
0001
0100
0010
1000
0001
0010
0100
20M2
3003
M11M
0000
MM22
0000
0033
0000
,
11MM
0000
1001
0000
110M
0000
1010
0000
11M0
0000
1001
0000
110M
0000
1000
0100
,
M010
0000
0001
0010
010M
0000
1010
0000
M110
0000
0011
0000
011M
0000
1000
0100
,
0010
0001
0100
0010
0100
0001
0010
0100
0010
0001
0100
0010
0100
0001
0010
0100
,
1000
0010
0100
0010
1000
0100
0010
0100
1000
0010
0100
0010
1000
0100
0010
0001
,
2200
0000
0000
0000
0000
0000
0000
0000
0000
0000
0000
0000
0000
0000
0000
0000
0000
0000
0000
0000
0000
0000
0000
0000
3300
0000
0000
0000
0000
0000
0000
0MM0
,
0000
0000
M00M
0000
0000
0000
0000
0000
M00M
0000
0000
0000
0000
0000
M00M
0000
0000
0000
0000
0000
M00M
0000
0000
0000
0MM0
0000
0000
0000
0000
0000
0000
0000
0000
0000
0000
0000
0MM0
0000
M00M
0000
0000
0000
0000
M00M
0000
0000
0000
0000
M00M
0000
0000
0000
0000
0000
M00M
0000
0MM0
0000
0000
0000
000M
0000
0000
0000
,
0000
0000
0000
0000
0000
0000
M00M
0000
0000
0000
0000
0000
0000
0000
0000
0000
0MM0
0000
0000
0000
0000
0000
0000
0000
0000
0000
0000
0000
0000
0000
0000
0000
0000
0000
0000
0000
0000
0000
0000
0000
0000
0000
0000
0000
0000
0000
0000
0000
0000
0000
0000
0000
0000
0000
0000
0000
0000
0000
0000
0000
0000
0000
0000
0000
0000
0000
0000
0000
0000
0000
0000
0000
0000
0000
0000
0000
0000
0000
0000
0000
0000
0000
0000
0000
0000
0000
0000
0000
0000
0000
0000
0000
0000
0000
0000
0000
0000
0000
0000
0000
0000
0000
0000
0000
0000
0000
0000
0000
0000
0000
0000
0000
0000
0000
0000
0000
0000
0000
0000
0000
0000
0000
0000
0000
0000
0000
0000
0000
0000
0000
0000
0000
0000
0000
0000
0000
0000
0000
0000
0000
0000
0000
0000
0000
0000
0000
0000
0000
0000
0000
0000
0000
0000
0000
0000
0000
0000
0000
0000
0000
0000
0000
0000
0000
0000
0000
0000
0000
0000
0000
0000
0000
0000
0000
0000
0000
0000
0000
0000
0000
0000
0000
0000
0000
0000
0000
0000
0000
0000
0000
0000
0000
;
