#TITLE:B.O.B.;
#SUBTITLE:Sexuality Violation;
#ARTIST:OutKast;
#TITLETRANSLIT:;
#SUBTITLETRANSLIT:;
#ARTISTTRANSLIT:;
#CREDIT:;
#BANNER:BOB-bn.png;
#BACKGROUND:BOB-bg.png;
#LYRICSPATH:;
#CDTITLE:GazeboCD.png;
#MUSIC:BOB.ogg;
#OFFSET:-0.223;
#SAMPLESTART:56.390;
#SAMPLELENGTH:24.800;
#SELECTABLE:YES;
#BPMS:0.000=153.836;
#STOPS:;
#BGCHANGES:;
// cache tags:
#FIRSTBEAT:0.000;
#LASTBEAT:400.000;
#SONGFILENAME:Songs/Sexuality Violation 2/B.O.B. - [Gazebo]/BOB.sm;
#HASMUSIC:1;
#HASBANNER:1;
#MUSICLENGTH:161.924;
// end cache tags

//---------------dance-single - Gazebo----------------
#NOTES:
     dance-single:
     Gazebo:
     Challenge:
     14:
     1.000,1.000,0.229,0.426,1.000,1126.000,37.000,69.000,10.000,5.000:

00M0
0000
M000
0000
,
000M
0000
0M00
0000
,
00M0
0000
0M00
0000
,
M000
0000
000M
0020
,
1031
0000
0000
1000
0000
0000
1000
0000
0000
0001
0010
0000
0001
0000
0001
0100
,
0000
0010
0000
0010
1000
0000
1000
0001
0000
0001
0000
0001
0020
0000
0000
0000
,
1131
0000
0001
0010
0001
0000
1000
0001
0000
0100
0001
0000
1000
0010
0000
1000
,
0001
0000
1000
0100
0000
0010
0001
0000
0100
0001
0000
0001
0000
0001
1000
0000
,
0MM0
0000
0001
0100
0000
0101
0000
1001
0000
1100
0000
0011
0000
0101
0000
2000
,
0000
3001
0000
0011
0000
2000
0000
3001
0100
0010
0000
1010
0000
0002
0000
0003
,
0100
0001
1000
0001
0010
0100
0000
2200
0000
0000
3300
0000
1000
0001
1000
0000
,
0001
0000
0100
0010
1000
0001
0000
0202
0000
0303
0000
1000
0001
0000
0010
0000
,
1100
0000
0100
1000
0001
0000
0001
0000
0100
0000
0100
0010
0000
0000
0000
0000
,
1000
0010
1000
0000
0100
0000
1000
0001
0010
0000
0010
0100
0000
0000
0000
0000
,
1000
0000
0001
0010
0001
0000
1000
0000
0010
0000
0010
0100
0000
0000
0000
0001
,
1000
0000
0010
0100
0010
0000
1000
0001
0010
0000
0001
1000
0000
0000
0020
0000
,
0230
0000
0000
0000
0320
0000
0230
0000
0000
0000
0301
1000
0001
0000
0010
0000
,
0011
0000
0001
0000
1000
0000
1200
0000
0000
1300
0001
0000
0001
0100
0010
0000
,
1010
0000
1000
0001
1000
0001
0000
0000
0011
0000
0001
0010
0000
0001
1000
0001
,
0100
0000
0000
0000
0000
0000
1010
0000
0000
1000
0010
1000
0010
0000
0000
0100
0001
0100
0001
0000
0000
1000
0001
1000
,
0001
0010
0000
0001
1000
0000
0100
2000
0000
0000
3000
0000
0010
1000
0000
0001
,
0100
0000
0001
1000
0000
0001
0010
0000
0220
0000
0330
0000
1111
0000
0000
0000
,
1000
0100
1000
0000
0001
0100
0010
0000
2020
0000
3030
0000
1000
0001
1000
0000
,
0100
0000
0010
0001
2000
0000
3000
0000
0001
0100
0001
0000
1000
0000
0010
0100
,
0002
0000
0003
1000
0001
0000
0010
0000
0100
0000
0100
1000
0000
0001
0000
0000
,
1000
0000
1000
0000
0010
0000
0100
0010
1000
0000
1000
0001
0000
0010
0000
0000
,
0100
0000
0010
0001
0010
0000
0001
1000
0010
0000
0010
0100
0000
0001
0000
0000
,
1000
0000
1000
0100
0000
0010
0000
0000
0001
1000
0000
0010
0000
0100
0000
0000
,
0001
0000
0001
1000
0000
0100
0000
0000
0010
0000
0010
0002
0000
0000
0003
0000
,
1000
0100
1000
0001
1000
0010
0100
0001
0100
0010
1000
0002
0000
0000
0003
0000
,
0100
0001
0000
0202
0000
0000
0303
0000
1000
0000
0001
0020
0000
0000
0030
0100
,
1000
0000
0001
0010
0001
1000
0001
0000
0100
0000
0100
0010
0000
0010
1000
0001
,
1000
0000
0001
0000
0010
0000
0100
1000
0001
0000
0001
0100
0000
0010
0000
0000
,
1000
0000
0100
0010
0100
0000
1000
0000
0001
0000
0010
0001
0000
0001
0000
0000
,
1000
0010
0000
1000
0001
0000
0100
0001
0000
1000
0000
0000
0022
0000
0033
1000
,
0001
0010
0001
0100
0010
0000
2222
3333
,
1000
0000
0001
0000
0100
0000
0001
0020
0000
0000
0130
0000
0000
0000
0100
0000
,
1000
0000
0001
0000
0100
0000
0001
0020
0000
0000
0230
0000
0000
0000
0000
0000
,
1300
0001
1000
0100
0010
0001
1000
0100
1000
0001
0010
0001
1000
0010
1000
0010
0100
0001
1000
0100
0010
0001
1000
0001
,
1000
0100
1000
0010
0100
0001
0100
0001
1000
0001
0010
0100
1000
0001
0010
0001
1000
0001
1000
0100
0010
0001
0100
0001
,
1000
0000
0001
0000
0100
0000
0001
0020
0000
0000
0130
0000
1000
0000
0100
0000
,
0010
0001
1000
0020
0000
0230
0000
0000
,
0301
1000
0001
0100
0010
1000
0001
0100
0001
1000
0010
1000
0100
0010
0001
0010
0100
1000
0001
0010
0001
0100
0010
1000
,
0010
1000
0001
0100
0001
1000
0010
1000
0001
1000
0100
0010
0001
0010
0100
0010
0001
1000
0001
0100
0001
0100
0010
1000
,
0001
0000
1000
0000
0010
0000
1000
0200
0000
0000
0310
0000
0000
0000
0010
0000
,
0001
0000
1000
0000
0010
0000
1000
0200
0000
0000
0320
0000
0000
0000
0000
0000
,
0031
1000
0001
0010
0100
1000
0001
0010
0001
1000
0100
1000
0001
0100
0001
0100
0010
1000
0001
0010
0100
1000
0001
1000
,
0001
0010
0001
1000
0010
1000
0010
0100
0001
1000
0100
1000
0100
0010
0001
1000
0010
1000
0010
0100
0001
0010
0100
1000
,
0001
0000
1000
0000
0100
0000
1000
0020
0000
0000
0130
0000
0001
0000
0100
0000
,
0010
1000
0001
0020
0000
0230
0000
0000
,
1300
0001
1000
0100
0010
0001
1000
0100
1000
0001
0010
0001
0100
0010
1000
0010
0100
0001
1000
0100
1000
0100
0010
0001
,
1000
0100
1000
0001
0010
0001
1000
0010
0100
0001
1000
0001
1000
0010
0100
0001
1000
0001
0010
0100
0010
0001
1000
0001
,
1000
0100
0000
0000
0011
0000
0000
0000
1001
0000
1000
0020
0000
0000
0130
0001
,
1000
0001
1000
0100
0010
0000
0100
1000
0001
0000
0001
0020
0000
0000
0031
0000
,
1000
0000
0010
0000
1010
0000
1000
0100
0010
0000
0001
0000
1000
0000
0000
0000
,
0001
0000
0001
0000
0010
0100
0010
0100
1000
0000
1000
0001
0000
0000
0010
0001
,
1000
0000
0010
0000
1000
0000
0010
0000
0100
0001
1000
0100
0000
0000
0000
0000
,
1000
0000
1000
0000
0001
1000
0010
1000
0100
0000
1000
0001
0000
0000
0010
0000
,
0001
0000
0000
0000
0000
0000
0100
0000
0000
0001
0000
0000
1000
0000
0000
0000
0000
0000
0010
0000
0000
0000
0000
0000
0010
0000
0000
0000
0000
0000
0100
0000
0000
0001
0000
0000
1000
0000
0000
0000
0000
0000
0001
0000
0010
0000
0001
0000
,
0010
0000
0100
0000
0100
0000
1000
0000
0001
0010
0001
1000
0010
0000
0100
0001
,
1000
0000
1010
0000
0001
0000
0011
0000
1000
0000
1000
0200
0000
0000
0300
0000
,
1000
0100
1000
0001
1000
0000
0010
1000
0001
0000
0001
0200
0000
0000
0300
0000
,
0010
1000
0001
0000
0010
0000
0100
0010
0001
0000
0001
1000
0000
0000
0000
0000
,
0010
0100
0010
1000
0010
0000
0100
0001
1000
0000
1000
0200
0000
0000
1300
0000
,
1100
0000
0001
0100
0001
0000
1000
0010
1000
0000
1000
0002
0000
0000
1003
0100
,
0010
0000
0100
1000
0001
0000
1000
0001
0100
0001
1000
0000
1010
0000
0010
1000
,
0001
0010
0001
1000
0001
0000
1000
0000
0100
0000
0010
0000
0022
0000
0033
0000
,
0001
1000
0010
0100
0010
0000
0100
0001
1000
0000
1000
0020
0000
0000
0130
0001
,
1000
0010
1000
0001
1000
0100
0010
0001
0100
0010
0100
0001
1000
0000
0000
0000
,
0001
0100
0001
1000
0001
0010
0100
1000
0010
0100
0010
1000
0001
0000
0000
0000
,
1000
0010
1000
0001
1000
0100
0010
0001
0100
0010
0100
0001
1000
0000
0000
0001
,
0010
0100
1000
0001
0100
0010
0100
0001
,
0001
0010
0001
1000
0001
0100
0010
1000
0100
0010
0100
1000
0001
0000
0000
0000
,
1000
0100
1000
0001
1000
0010
0100
0001
0010
0100
0010
0001
1000
0000
0000
0000
,
0001
0010
0001
1000
0001
0100
0010
1000
0100
0010
0100
1000
0001
0000
0000
1000
,
0010
0100
0001
1000
0100
0010
0100
1000
,
1000
0010
1000
0001
1000
0100
0010
0001
0100
0010
0100
0001
1000
0010
0100
0001
,
1000
0100
1000
0001
1000
0010
0100
0001
0010
0100
0010
0001
1000
0100
0010
0001
,
1000
0010
1000
0001
1000
0100
0010
0001
0100
0010
0100
0001
1000
0010
0100
0001
,
0010
0001
1000
0001
0100
0001
1000
0001
0010
0100
1000
0010
1000
0001
0010
0001
,
1000
0010
1000
0001
1000
0100
0010
0001
0100
0010
0100
0001
1000
0010
0100
0001
,
1000
0100
1000
0001
1000
0010
0100
0001
0010
0100
0010
0001
1000
0000
0001
0000
,
0100
0010
0100
0000
0001
0000
0001
1000
0100
1000
0001
0000
0010
0000
0100
1000
,
0001
0100
0001
1000
0010
0000
0100
0000
0101
0000
0000
0000
2222
0000
3333
0000
,
0001
0000
1000
0000
0010
0000
1000
0200
0000
0000
0310
0000
0000
0000
0010
0000
,
0001
0000
1000
0000
0010
0000
1000
0200
0000
0000
0320
0000
0000
0000
0000
0000
,
0031
1000
0001
0010
0100
1000
0001
0010
0001
1000
0100
1000
0001
0100
0001
0100
0010
1000
0001
0010
0100
1000
0001
1000
,
0001
0010
0001
1000
0100
1000
0001
1000
0001
0100
0010
0100
0010
1000
0001
1000
0010
1000
0010
0100
0001
0010
0001
1000
,
0001
0000
1000
0000
0010
0000
1000
0200
0000
0000
0310
0000
0001
0000
0010
0000
,
0100
1000
0001
0200
0000
0320
0000
0000
,
1030
0001
1000
0010
0100
0001
1000
0010
1000
0001
0100
0001
0010
0100
1000
0100
0010
0001
1000
0010
1000
0010
0100
0001
,
1000
0001
1000
0010
1000
0001
0100
0001
1000
0100
0010
0001
0010
0001
1000
0100
1000
0001
1000
0010
1000
0010
0100
0001
,
1000
0000
0001
0000
0100
0000
0001
0020
0000
0000
0130
0000
0000
0000
0100
0000
,
1000
0000
0001
0000
0100
0000
0001
0020
0000
0000
0230
0000
0000
0000
0000
0000
,
1300
0001
1000
0100
0010
0001
1000
0100
1000
0001
0010
0001
1000
0010
1000
0010
0100
0001
1000
0010
1000
0001
0010
0001
,
0010
0100
1000
0001
0100
0001
0100
0010
1000
0001
0010
0001
1000
0100
1000
0010
1000
0001
0100
0001
0100
0010
1000
0001
,
1000
0000
0001
0000
0010
0000
0001
0200
0000
0000
0310
0000
1000
0000
0010
0000
,
0100
0001
1000
0200
0000
2300
0000
0000
,
3001
0010
0001
0010
0001
0010
0001
0010
0100
1000
0100
1000
0001
1000
0001
1000
,
0010
0100
0101
0001
1010
1000
0110
0001
,
1001
0000
0000
0000
;

//---------------dance-single - Gazebo----------------
#NOTES:
     dance-single:
     Gazebo:
     Hard:
     12:
     0.994,1.000,0.229,0.426,1.000,1014.000,37.000,69.000,10.000,5.000:
00M0
0000
M000
0000
,
000M
0000
0M00
0000
,
00M0
0000
0M00
0000
,
M000
0000
000M
0020
,
1031
0000
0000
1000
0000
0000
1000
0000
0000
0001
0010
0000
0001
0000
0001
0100
,
0000
0010
0000
0010
1000
0000
1000
0001
0000
0001
0000
0001
0020
0000
0000
0000
,
1131
0000
0001
0010
0001
0000
1000
0001
0000
0100
0001
0000
1000
0010
0000
1000
,
0001
0000
1000
0100
0000
0010
0001
0000
0100
0001
0000
0001
0000
0001
1000
0000
,
0MM0
0000
0001
0100
0000
0101
0000
1001
0000
1100
0000
0011
0000
0101
0000
2000
,
0000
3001
0000
0011
0000
2000
0000
3001
0100
0010
0000
1010
0000
0002
0000
0003
,
0100
0001
1000
0001
0010
0100
0000
2200
0000
0000
3300
0000
1000
0001
1000
0000
,
0001
0000
0100
0010
1000
0001
0000
0202
0000
0303
0000
1000
0001
0000
0010
0000
,
1100
0000
0100
1000
0001
0000
0001
0000
0100
0000
0100
0010
0000
0000
0000
0000
,
1000
0010
1000
0000
0100
0000
1000
0001
0010
0000
0010
0100
0000
0000
0000
0000
,
1000
0000
0001
0010
0001
0000
1000
0000
0010
0000
0010
0100
0000
0000
0000
0001
,
1000
0000
0010
0100
0010
0000
1000
0001
0010
0000
0001
1000
0000
0000
0020
0000
,
0230
0000
0000
0000
0320
0000
0230
0000
0000
0000
0301
1000
0001
0000
0010
0000
,
0011
0000
0001
0000
1000
0000
1200
0000
0000
1300
0001
0000
0001
0100
0010
0000
,
1010
0000
1000
0001
1000
0001
0000
0000
0011
0000
0001
0010
0000
0001
1000
0001
,
0100
0000
0000
0000
0000
0000
1010
0000
0000
1000
0010
1000
0010
0000
0000
0100
0001
0100
0001
0000
0000
1000
0001
1000
,
0001
0010
0000
0001
1000
0000
0100
2000
0000
0000
3000
0000
0010
1000
0000
0001
,
0100
0000
0001
1000
0000
0001
0010
0000
0220
0000
0330
0000
1111
0000
0000
0000
,
1000
0100
1000
0000
0001
0100
0010
0000
2020
0000
3030
0000
1000
0001
1000
0000
,
0100
0000
0010
0001
2000
0000
3000
0000
0001
0100
0001
0000
1000
0000
0010
0100
,
0002
0000
0003
1000
0001
0000
0010
0000
0100
0000
0100
1000
0000
0001
0000
0000
,
1000
0000
1000
0000
0010
0000
0100
0010
1000
0000
1000
0001
0000
0010
0000
0000
,
0100
0000
0010
0001
0010
0000
0001
1000
0010
0000
0010
0100
0000
0001
0000
0000
,
1000
0000
1000
0100
0000
0010
0000
0000
0001
1000
0000
0010
0000
0100
0000
0000
,
0001
0000
0001
1000
0000
0100
0000
0000
0010
0000
0010
0002
0000
0000
0003
0000
,
1000
0100
1000
0001
1000
0010
0100
0001
0100
0010
1000
0002
0000
0000
0003
0000
,
0100
0001
0000
0202
0000
0000
0303
0000
1000
0000
0001
0020
0000
0000
0030
0100
,
1000
0000
0001
0010
0001
1000
0001
0000
0100
0000
0100
0010
0000
0010
1000
0001
,
1000
0000
0001
0000
0010
0000
0100
1000
0001
0000
0001
0100
0000
0010
0000
0000
,
1000
0000
0100
0010
0100
0000
1000
0000
0001
0000
0010
0001
0000
0001
0000
0000
,
1000
0010
0000
1000
0001
0000
0100
0001
0000
1000
0000
0000
0022
0000
0033
1000
,
0001
0010
0001
0100
0010
0000
2222
3333
,
1000
0000
0001
0000
0100
0000
0001
0020
0000
0000
0130
0000
0000
0000
0100
0000
,
1000
0000
0001
0000
0100
0000
0001
0020
0000
0000
0230
0000
0000
0000
0000
0000
,
1300
0001
0100
0001
1000
0010
0100
0001
1000
0100
1000
0001
1000
0010
0100
0001
,
0100
0001
0010
0100
1000
0001
0100
0001
0100
0010
1000
0001
0010
0100
1000
0010
,
1000
0000
0001
0000
0100
0000
0001
0020
0000
0000
0130
0000
1000
0000
0100
0000
,
0010
0001
1000
0020
0000
0230
0000
0000
,
0301
1000
0100
1000
0001
0010
0100
1000
0010
0100
0010
0100
0001
1000
0100
0010
,
0001
1000
0100
1000
0001
1000
0010
0100
0010
0100
0001
1000
0001
0010
0100
1000
,
0001
0000
1000
0000
0010
0000
1000
0200
0000
0000
0310
0000
0000
0000
0010
0000
,
0001
0000
1000
0000
0010
0000
1000
0200
0000
0000
0320
0000
0000
0000
0000
0000
,
0031
1000
0010
1000
0001
0100
0010
1000
0001
0010
0001
1000
0001
0100
0010
1000
,
0010
1000
0001
0010
0100
1000
0001
0100
0010
1000
0001
0010
0100
1000
0010
1000
,
0001
0000
1000
0000
0100
0000
1000
0020
0000
0000
0130
0000
0001
0000
0100
0000
,
0010
1000
0001
0020
0000
0230
0000
0000
,
1300
0001
0100
0001
1000
0010
0100
0001
0010
0100
0010
0100
1000
0001
0100
0001
,
1000
0010
1000
0001
1000
0001
0010
0100
1000
0100
0010
0001
1000
0001
0100
0001
,
1000
0100
0000
0000
0011
0000
0000
0000
1001
0000
1000
0020
0000
0000
0130
0001
,
1000
0001
1000
0100
0010
0000
0100
1000
0001
0000
0001
0020
0000
0000
0031
0000
,
1000
0000
0010
0000
1010
0000
1000
0100
0010
0000
0001
0000
1000
0000
0000
0000
,
0001
0000
0001
0000
0010
0100
0010
0100
1000
0000
1000
0001
0000
0000
0010
0001
,
1000
0000
0010
0000
1000
0000
0010
0000
0100
0001
1000
0100
0000
0000
0000
0000
,
1000
0000
1000
0000
0001
1000
0010
1000
0100
0000
1000
0001
0000
0000
0010
0000
,
0001
0000
0000
0000
0000
0000
0100
0000
0000
0001
0000
0000
1000
0000
0000
0000
0000
0000
0010
0000
0000
0000
0000
0000
0010
0000
0000
0000
0000
0000
0100
0000
0000
0001
0000
0000
1000
0000
0000
0000
0000
0000
0001
0000
0010
0000
0001
0000
,
0010
0000
0100
0000
0100
0000
1000
0000
0001
0010
0001
1000
0010
0000
0100
0001
,
1000
0000
1010
0000
0001
0000
0011
0000
1000
0000
1000
0200
0000
0000
0300
0000
,
1000
0100
1000
0001
1000
0000
0010
1000
0001
0000
0001
0200
0000
0000
0300
0000
,
0010
1000
0001
0000
0010
0000
0100
0010
0001
0000
0001
1000
0000
0000
0000
0000
,
0010
0100
0010
1000
0010
0000
0100
0001
1000
0000
1000
0200
0000
0000
1300
0000
,
1100
0000
0001
0100
0001
0000
1000
0010
1000
0000
1000
0002
0000
0000
1003
0100
,
0010
0000
0100
1000
0001
0000
1000
0001
0100
0001
1000
0000
1010
0000
0010
1000
,
0001
0010
0001
1000
0001
0000
1000
0000
0100
0000
0010
0000
0022
0000
0033
0000
,
0001
1000
0010
0100
0010
0000
0100
0001
1000
0000
1000
0020
0000
0000
0130
0001
,
1000
0010
1000
0001
1000
0100
0010
0001
0100
0010
0100
0001
1000
0000
0000
0000
,
0001
0100
0001
1000
0001
0010
0100
1000
0010
0100
0010
1000
0001
0000
0000
0000
,
1000
0010
1000
0001
1000
0100
0010
0001
0100
0010
0100
0001
1000
0000
0000
0001
,
0010
0100
1000
0001
0100
0010
0100
0001
,
0001
0010
0001
1000
0001
0100
0010
1000
0100
0010
0100
1000
0001
0000
0000
0000
,
1000
0100
1000
0001
1000
0010
0100
0001
0010
0100
0010
0001
1000
0000
0000
0000
,
0001
0010
0001
1000
0001
0100
0010
1000
0100
0010
0100
1000
0001
0000
0000
1000
,
0010
0100
0001
1000
0100
0010
0100
1000
,
1000
0010
1000
0001
1000
0100
0010
0001
0100
0010
0100
0001
1000
0010
0100
0001
,
1000
0100
1000
0001
1000
0010
0100
0001
0010
0100
0010
0001
1000
0100
0010
0001
,
1000
0010
1000
0001
1000
0100
0010
0001
0100
0010
0100
0001
1000
0010
0100
0001
,
0010
0001
1000
0001
0100
0001
1000
0001
0010
0100
1000
0010
1000
0001
0010
0001
,
1000
0010
1000
0001
1000
0100
0010
0001
0100
0010
0100
0001
1000
0010
0100
0001
,
1000
0100
1000
0001
1000
0010
0100
0001
0010
0100
0010
0001
1000
0000
0001
0000
,
0100
0010
0100
0000
0001
0000
0001
1000
0100
1000
0001
0000
0010
0000
0100
1000
,
0001
0100
0001
1000
0010
0000
0100
0000
0101
0000
0000
0000
2222
0000
3333
0000
,
0001
0000
1000
0000
0010
0000
1000
0200
0000
0000
0310
0000
0000
0000
0010
0000
,
0001
0000
1000
0000
0010
0000
1000
0200
0000
0000
0320
0000
0000
0000
0000
0000
,
0031
1000
0010
1000
0001
0100
0010
1000
0001
0010
0001
1000
0001
0100
0010
1000
,
0001
1000
0001
0100
0001
1000
0100
1000
0100
0010
0001
1000
0100
1000
0010
1000
,
0001
0000
1000
0000
0010
0000
1000
0200
0000
0000
0310
0000
0001
0000
0010
0000
,
0100
1000
0001
0200
0000
0320
0000
0000
,
1030
0001
0010
0001
1000
0100
0010
0001
0100
0010
0100
0010
1000
0001
0010
0001
,
1000
0001
1000
0100
1000
0001
0100
0001
0100
0010
1000
0001
0100
0001
0010
0001
,
1000
0000
0001
0000
0100
0000
0001
0020
0000
0000
0130
0000
0000
0000
0100
0000
,
1000
0000
0001
0000
0100
0000
0001
0020
0000
0000
0230
0000
0000
0000
0000
0000
,
1300
0001
0100
0001
1000
0010
0100
0001
1000
0001
0010
0001
1000
0010
1000
0100
,
0010
0100
1000
0001
0100
0001
1000
0100
0010
0001
0100
0001
0100
0010
1000
0001
,
1000
0000
0001
0000
0010
0000
0001
0200
0000
0000
0310
0000
1000
0000
0010
0000
,
0100
0001
1000
0200
0000
2300
0000
0000
,
3001
0010
0001
0010
0001
0010
0001
0010
0100
1000
0100
1000
0001
1000
0001
1000
,
0010
0100
0101
0001
1010
1000
0110
0001
,
1001
0000
0000
0000
;

//---------------dance-single - Gazebo----------------
#NOTES:
     dance-single:
     Gazebo:
     Medium:
     10:
     0.791,0.834,0.142,0.543,0.766,786.000,23.000,88.000,10.000,2.000:
00M0
0000
M000
0000
,
000M
0000
0M00
0000
,
00M0
0000
0M00
0000
,
M000
0000
000M
0020
,
1031
0000
0000
1000
0000
0000
1000
0000
0000
0001
0010
0000
0001
0000
0001
0100
,
0000
0010
0000
0010
1000
0000
1000
0001
0000
0001
0000
0001
0020
0000
0000
0000
,
1031
0000
0001
0010
0001
0000
1000
0001
0000
0100
0001
0000
1000
0010
0000
1000
,
0001
0000
1000
0100
0000
0010
0001
0000
0100
0001
0000
0001
0000
0001
1000
0000
,
0MM0
0000
0001
0100
0000
0010
0000
0100
0000
0001
0000
1000
0000
0100
0000
2000
,
0000
3001
0000
0010
0000
0002
0000
1003
0010
0100
0000
0010
0000
2000
0000
3000
,
0010
1000
0001
1000
0100
1000
0000
2200
0000
0000
3300
0000
1000
0001
1000
0000
,
0001
0000
0100
0010
1000
0001
0000
0202
0000
0303
0000
1000
0001
0000
0010
0000
,
1100
0000
0100
1000
0001
0000
0001
0000
0100
0000
0100
0010
0000
0000
0000
0000
,
1000
0010
1000
0000
0100
0000
1000
0001
0010
0000
0010
0100
0000
0000
0000
0000
,
1000
0000
0001
0010
0001
0000
1000
0000
0010
0000
0010
0100
0000
0000
0000
0001
,
1000
0000
0010
0100
0010
0000
1000
0001
0010
0000
0001
1000
0000
0000
0020
0000
,
0230
0000
0000
0000
0320
0000
0230
0000
0000
0000
0301
1000
0001
0000
0010
0000
,
0011
0000
0001
0000
1000
0000
1200
0000
0000
1300
0001
0000
0001
0100
0010
0000
,
1010
0000
1000
0000
0001
0000
0010
0000
0001
0000
0001
1000
0000
1000
0000
0010
,
0100
0000
0001
0000
0100
0000
0001
0000
1000
0000
0001
0010
0000
0010
0000
0000
,
0001
0010
0000
0001
1000
0000
0100
2000
0000
0000
3000
0000
0010
1000
0000
0001
,
0100
0000
0001
1000
0000
0001
0010
0000
0220
0000
0330
0000
1001
0000
0000
0000
,
1000
0100
1000
0000
0001
0100
0010
0000
2020
0000
3030
0000
1000
0001
1000
0000
,
0100
0000
0010
0001
2000
0000
3000
0000
0001
0100
0001
0000
1000
0000
0010
0100
,
0002
0000
0003
1000
0001
0000
0010
0000
0100
0000
0100
1000
0000
0001
0000
0000
,
1000
0000
1000
0000
0010
0000
0100
0010
1000
0000
1000
0001
0000
0010
0000
0000
,
0100
0000
0010
0001
0010
0000
0001
1000
0010
0000
0010
0100
0000
0001
0000
0000
,
1000
0000
1000
0100
0000
0010
0000
0000
0001
1000
0000
0010
0000
0100
0000
0000
,
0001
0000
0001
1000
0000
0100
0000
0000
0010
0000
0010
0002
0000
0000
0003
0000
,
1000
0100
1000
0001
1000
0010
0100
0001
0100
0010
1000
0002
0000
0000
0003
0000
,
0100
0001
0000
0202
0000
0000
0303
0000
1000
0000
0001
0020
0000
0000
0030
0100
,
1000
0000
0001
0010
0001
1000
0001
0000
0100
0000
0100
0010
0000
0010
1000
0001
,
1000
0000
0001
0000
0010
0000
0100
1000
0001
0000
0001
0100
0000
0010
0000
0000
,
1000
0000
0100
0010
0100
0000
1000
0000
0001
0000
0010
0001
0000
0001
0000
0000
,
1000
0010
0000
1000
0001
0000
0100
0001
0000
1000
0000
0000
0022
0000
0033
1000
,
0001
0010
0001
0100
0010
0000
2002
3003
,
1000
0000
0001
0000
0100
0000
0001
0020
0000
0000
0130
0000
0000
0000
0100
0000
,
1000
0000
0001
0000
0100
0000
0001
0020
0000
0000
0230
0000
0000
0000
0000
0000
,
2300
0000
3001
1000
0020
0000
2030
0000
,
0000
0001
0000
0100
0000
0100
0000
3001
,
1000
0000
0001
0000
0100
0000
0001
0020
0000
0000
0130
0000
1000
0000
0100
0000
,
0010
0001
1000
0020
0000
0230
0000
0000
,
0302
0000
1003
0001
0020
0000
0230
0010
,
0000
0000
0000
1000
0000
0000
1300
0000
,
0001
0000
1000
0000
0010
0000
1000
0200
0000
0000
0310
0000
0000
0000
0010
0000
,
0001
0000
1000
0000
0010
0000
1000
0200
0000
0000
0320
0000
0000
0000
0000
0000
,
0032
0000
1003
0001
0200
0000
0302
0000
,
0000
0010
0000
0010
0000
0010
0000
1003
,
0001
0000
1000
0000
0100
0000
1000
0020
0000
0000
0130
0000
0001
0000
0100
0000
,
0010
1000
0001
0020
0000
0230
0000
0000
,
2300
0000
3001
1000
0020
0000
0230
0000
,
0000
0000
0000
0000
0000
0000
0000
0300
,
0001
1000
0000
0000
0101
0000
0000
0000
1001
0000
1000
0020
0000
0000
0130
0001
,
1000
0001
1000
0100
0010
0000
0100
1000
0001
0000
0001
0020
0000
0000
0031
0000
,
1000
0000
0010
0000
1010
0000
1000
0100
0010
0000
0001
0000
1000
0000
0000
0000
,
0001
0000
0001
0000
0010
0100
0010
0100
1000
0000
1000
0001
0000
0000
0010
0001
,
1000
0000
0010
0000
1000
0000
0010
0000
0100
0001
1000
0100
0000
0000
0000
0000
,
1000
0000
1000
0000
0001
1000
0010
1000
0100
0000
1000
0001
0000
0000
0010
0000
,
0001
0000
0000
0000
0000
0000
0100
0000
0000
0001
0000
0000
1000
0000
0000
0000
0000
0000
0010
0000
0000
0000
0000
0000
0010
0000
0000
0000
0000
0000
0100
0000
0000
0001
0000
0000
1000
0000
0000
0000
0000
0000
0001
0000
0010
0000
0001
0000
,
0010
0000
0100
0000
0100
0000
1000
0000
0001
0010
0001
1000
0010
0000
0100
0001
,
1000
0000
0100
0000
0010
0000
0001
0000
1000
0000
1000
0200
0000
0000
0300
0000
,
1000
0100
1000
0001
1000
0000
0010
1000
0001
0000
0001
0200
0000
0000
0300
0000
,
0010
1000
0001
0000
0010
0000
0100
0010
0001
0000
0001
1000
0000
0000
0000
0000
,
0010
0100
0010
1000
0010
0000
0100
0001
1000
0000
1000
0200
0000
0000
1300
0000
,
1100
0000
0001
0100
0001
0000
1000
0010
1000
0000
1000
0002
0000
0000
1003
0100
,
0010
0000
0100
1000
0001
0000
1000
0001
0100
0001
1000
0000
1010
0000
0010
1000
,
0001
0010
0001
1000
0001
0000
1000
0000
0100
0000
0010
0000
0022
0000
0033
0000
,
0001
1000
0010
0100
0010
0000
0100
0001
1000
0000
1000
0020
0000
0000
0130
0001
,
1000
0001
0000
0000
0010
0001
0000
0000
2000
0000
0000
0000
3010
0000
0000
1000
,
0001
0000
1000
0100
0010
0000
0100
1000
0002
0000
0000
0000
0013
0000
0001
1000
,
0001
0100
0001
1000
0010
0000
0100
0000
0001
0000
1000
0001
0000
0000
0000
0000
,
1000
0100
1000
0000
0001
0000
0010
0001
1000
0000
0100
1000
0000
0000
0000
0000
,
0001
0100
0010
0100
0001
0000
1000
0010
0100
0000
0001
1000
0000
0000
0000
0000
,
0001
0010
0000
0000
0100
0010
0000
0000
0001
0000
0000
1000
0001
0000
0100
0000
,
0010
1000
0000
0000
0001
1000
0000
0001
0010
0000
0100
1000
0001
0000
1000
0000
,
0010
1000
0010
0000
0100
0000
0001
1000
0100
0000
0010
0001
0000
0001
0000
0000
,
1000
0000
0001
0100
0010
1000
0010
0000
1000
0000
0001
1000
0000
1000
0000
0000
,
0001
0010
0001
0010
0100
0000
0010
0001
1000
0100
1000
0001
0000
0001
0100
0010
,
1000
0000
0001
0000
1000
0000
0100
0010
0100
0000
0010
0001
1000
0000
0000
0001
,
0100
0010
0100
0010
1000
0000
0001
0100
0001
0000
1000
0001
0000
0001
0000
0000
,
0010
0100
0010
0000
0001
0010
0001
1000
0010
0000
0100
0010
0000
0000
1000
0010
,
1000
0001
1000
0000
0001
0000
0010
0100
1000
0000
0001
1000
0000
0000
0001
0000
,
0100
0010
0100
0000
0001
0000
0001
1000
0100
1000
0001
0000
0010
0000
0100
1000
,
0001
0100
0001
1000
0010
0000
0100
0000
0101
0000
0000
0000
2002
0000
3003
0000
,
0001
0000
1000
0000
0010
0000
1000
0200
0000
0000
0310
0000
0000
0000
0010
0000
,
0001
0000
1000
0000
0010
0000
1000
0200
0000
0000
0320
0000
0000
0000
0000
0000
,
0032
0000
1003
0001
0200
0000
0302
0000
,
0000
0000
0000
0100
0000
0000
0000
1003
,
0001
0000
1000
0000
0010
0000
1000
0200
0000
0000
0310
0000
0001
0000
0010
0000
,
0100
1000
0001
0200
0000
0320
0000
0000
,
2030
0000
3001
1000
0200
0000
0320
0000
,
0000
0000
0000
0100
0000
0000
0000
0031
,
1000
0000
0001
0000
0100
0000
0001
0020
0000
0000
0130
0000
0000
0000
0100
0000
,
1000
0000
0001
0000
0100
0000
0001
0020
0000
0000
0230
0000
0000
0000
0000
0000
,
2300
0000
3001
1000
0020
0000
2030
0010
,
0000
0001
0000
0000
0000
0001
0000
3000
,
1000
0000
0001
0000
0010
0000
0001
0200
0000
0000
0310
0000
1000
0000
0010
0000
,
0100
0001
1000
0200
0000
2300
0000
0000
,
3001
0010
0001
0010
0001
0010
0001
0010
0100
1000
0100
1000
0001
1000
0001
1000
,
0010
0100
0001
1000
0001
0010
0001
1000
,
1001
0000
0000
0000
;
