#TITLE:Beautiful Green Wild Beast;
#SUBTITLE:Naruto;
#ARTIST:Toshiro Masuda;
#TITLETRANSLIT:;
#SUBTITLETRANSLIT:;
#ARTISTTRANSLIT:;
#CREDIT:Manaka-kun;
#BANNER:Beautiful Green Wild Beast BN.PNG;
#BACKGROUND:Beautiful Green Wild Beast BG.PNG;
#LYRICSPATH:;
#CDTITLE:domo.png;
#MUSIC:01 - Beautiful Green Wild Beast.mp3;
#OFFSET:-2.040;
#SAMPLESTART:58.848;
#SAMPLELENGTH:12.000;
#SELECTABLE:YES;
#BPMS:0.000=166.000,256.000=164.500;
#STOPS:;
#BGCHANGES:;
// cache tags:
#FIRSTBEAT:0.000;
#LASTBEAT:312.000;
#SONGFILENAME:Songs/toune 1 (2010)/Beautiful Green Wild Beast/Beautiful Green Wild Beast.sm;
#HASMUSIC:1;
#HASBANNER:1;
#MUSICLENGTH:120.659;
// end cache tags

//---------------dance-single - ----------------
#NOTES:
     dance-single:
     :
     Challenge:
     10:
     0.916,1.000,0.796,0.738,1.000,589.000,96.000,89.000,0.000,0.000:
1001
0000
0000
0000
,
1010
0000
0000
0000
,
0101
0000
0000
0000
,
1001
0000
0000
0000
0000
0110
0000
0000
0000
0011
0000
0000
,
1010
0000
0000
0000
,
1100
0000
0000
0000
,
0101
0000
0000
0000
,
0011
0000
1000
0001
0000
1001
0000
0000
1000
1001
0000
0000
,
1000
0000
0000
0000
1000
0000
0010
0000
0001
0000
0010
0000
1000
0000
0000
0000
0022
0000
0000
0000
0000
0033
1000
0000
,
0100
0000
0000
0000
0010
0000
0100
0000
0010
0000
1000
0000
0100
0000
0000
0000
0202
0000
0000
0000
0000
0303
1000
0000
,
0010
0000
0001
1000
0100
0010
1000
1000
0100
0010
0001
0010
,
1001
0000
0100
1000
0000
0110
0000
0000
0010
1001
0000
0000
,
1001
0000
1000
0100
0010
0100
0001
0000
1001
0000
0000
0001
,
0010
0000
0001
0010
0001
1000
0100
0000
2020
0000
3030
0010
,
0100
0000
0010
1000
0010
0001
0010
0000
0220
0000
0330
0010
,
1000
0000
0010
0100
0000
0110
0000
0000
0010
1001
0001
1000
,
0001
0000
0000
0000
1000
0001
0020
0000
0030
0000
0001
1000
,
0002
0000
0003
0000
1000
0001
0200
0000
0300
0000
0100
0010
,
2000
0000
3000
0020
0000
0030
0200
0000
0300
0002
0000
1003
,
1100
0000
0100
0010
0000
0110
0000
0000
0010
1000
0100
0010
,
0002
0000
0003
0000
1000
0010
2000
0000
3000
0000
0001
0100
,
0002
0000
0003
0000
0100
0010
2000
0000
3000
0000
0010
0100
,
0002
0000
0003
0200
0000
0300
0020
0000
0030
0200
0000
1300
,
1001
0000
0010
1100
0000
0011
0000
1000
0100
0010
0002
0023
,
0230
0000
0300
0000
2000
3200
2300
0000
3000
0000
0020
2030
,
3002
0000
0003
0000
0020
0230
2300
0000
3000
0000
0200
0320
,
2030
0000
3000
0020
0000
0030
2000
0000
3000
0002
0000
1003
,
1010
0000
0100
0011
0000
0110
0000
0000
0100
0100
1000
0100
,
0020
0000
0030
0000
2000
3020
0230
0000
0300
0000
0002
2003
,
3200
0000
0300
0000
0002
2003
3020
0000
0030
0000
2000
3002
,
0023
0000
0030
2000
0000
3000
0200
0000
0300
2000
0000
3001
,
0011
0000
0100
0110
0000
1001
0000
0000
0010
0010
0001
0010
,
0200
0300
0002
2003
3200
0320
2030
0000
0200
3300
0000
0000
,
0002
0023
2030
3200
0302
0023
2030
0000
3200
0300
0000
0000
,
1001
0000
0001
1000
0001
1000
1001
0000
0010
0100
0010
0100
,
0110
0001
0010
0100
1000
0100
0010
0100
1000
0200
0300
0002
,
0000
0003
1000
0110
0000
0001
1000
0000
0100
0110
0000
0001
,
0011
0000
0100
1100
0000
0100
0011
0000
0100
0110
0000
1000
,
0011
0000
0001
1100
0000
0100
1000
0100
0010
0001
0010
0100
,
1000
0000
0000
0000
0000
0000
2002
0000
0000
0000
3003
0000
,
0110
0000
1000
0001
0100
0001
0010
0000
0011
0000
0000
0100
,
1010
0000
0100
0010
1000
0001
0100
0000
0110
0000
0000
0010
,
1100
0000
0010
1000
0001
0010
0100
0000
0011
0000
0000
1000
,
0202
0303
1000
1100
0000
0110
0000
0000
0001
1000
0001
1000
,
0101
0000
1000
0010
0100
0001
1000
0000
0110
0000
0000
1000
,
0110
0000
0001
1000
0100
0010
0100
0000
1100
0000
0000
0010
,
0110
0000
1000
1000
0100
0100
0010
0000
0011
0000
0000
1000
,
0022
0033
1000
0110
0000
1001
0000
0000
1000
0001
0100
0010
,
1100
0000
0100
0010
1000
0001
0100
0000
0011
0000
0000
1000
,
0110
0000
1000
0010
0100
1000
0001
0000
1010
0000
0000
0010
,
1010
0000
0100
0001
0100
1000
0100
0000
1010
0000
0000
0100
,
0022
0033
1000
0110
0000
0011
0000
0000
1000
0101
0000
1000
,
0011
0000
1000
0010
0100
0001
0010
0000
1100
0000
0000
0010
,
0101
0000
0010
1000
0001
0100
0010
0000
1100
0000
0000
0100
,
0011
0000
1000
0100
0010
1000
0100
0000
0011
0000
0000
0100
,
0022
0033
1000
0110
0000
1001
0000
0000
0001
1000
0001
1000
,
0001
0010
0100
1000
0100
0010
0001
0010
0100
1000
0100
0010
0001
0010
0100
1000
0100
0010
0001
0010
0100
1000
0100
0010
,
0001
0010
0100
1000
0001
0010
0100
1000
0001
0010
0100
1000
0001
0010
0100
1000
0001
0010
0100
1000
0001
0010
0100
1000
,
0020
0000
0000
0000
0000
0000
0000
0000
0000
0000
0000
0030
,
1000
0100
0001
0010
1000
0100
0001
0100
1000
0010
0000
1000
,
0000
0000
0001
1100
0000
0100
0011
0000
0010
1100
0000
0100
,
0011
0000
0100
0110
0000
0010
0110
0000
1000
1001
0000
0001
,
1001
0000
0001
0011
0000
0100
1000
0100
0010
0001
0010
0100
,
1000
0000
0000
0000
0000
0000
0000
0000
0000
0000
1000
0001
,
1000
0000
0010
1000
0000
0100
0001
0000
0100
0010
1000
0100
,
1000
0000
0100
0001
0000
0010
0100
0000
0001
1000
0001
1000
,
0100
0010
0001
0010
0100
0010
0001
0000
1000
0000
0000
0000
,
1000
0100
0010
0100
1000
0100
0010
0000
1000
0000
0001
1000
,
0001
0000
0010
1000
0000
0100
0010
0000
0001
1000
0001
1000
,
0001
0000
0100
0010
0000
1000
0100
0000
0010
0100
0010
0100
,
0010
1000
0001
0100
0001
1000
0010
0000
0110
0000
0000
0000
,
0001
0010
0001
0010
0100
1000
0100
0000
0110
1000
0001
1000
,
0001
0000
0010
1000
0000
0100
0010
0000
0001
0100
0001
1000
,
0002
0000
0000
0000
0000
0003
2000
0000
0000
0000
0000
3000
,
0001
0010
1000
0100
0001
0100
1000
0100
0010
0001
0010
0100
,
1000
0100
0001
1000
0010
1000
0100
1000
0001
0100
0010
0100
,
1000
0010
0100
0010
0001
0100
0010
0001
0100
0010
0001
0100
,
1000
0100
0010
1000
0001
0100
0010
1000
0110
0000
2002
0000
,
3003
0000
0000
0000
;
