#TITLE:Policy in the sky!;
#SUBTITLE:;
#ARTIST:DJ SHARPNEL;
#TITLETRANSLIT:;
#SUBTITLETRANSLIT:;
#ARTISTTRANSLIT:;
#CREDIT:;
#BANNER:policyinthesky-bn.png;
#BACKGROUND:policyinthesky-bg.png;
#LYRICSPATH:;
#CDTITLE:!exige.png;
#MUSIC:09 Policy in the sky!.mp3;
#OFFSET:-0.053;
#SAMPLESTART:54.894;
#SAMPLELENGTH:10.958;
#SELECTABLE:YES;
#BPMS:0.000=175.000;
#STOPS:;
#BGCHANGES:;
// cache tags:
#FIRSTBEAT:0.000;
#LASTBEAT:323.750;
#SONGFILENAME:Songs/hard shit/Exige - Policy in the sky!/policyinthesky.sm;
#HASMUSIC:1;
#HASBANNER:1;
#MUSICLENGTH:111.464;
// end cache tags

//---------------dance-single - ----------------
#NOTES:
     dance-single:
     :
     Hard:
     11:
     1.000,1.000,1.000,0.090,1.000,859.000,278.000,10.000,0.000,0.000:  // measure 1
1001
0000
0010
0000
1100
0000
0001
0010
1100
0010
0001
0100
1001
0000
0100
1000
,  // measure 2
0011
0000
0100
0000
1001
0000
0010
0001
1010
0001
0010
0001
1100
0000
0100
1000
,  // measure 3
0011
0000
1000
0000
0101
0000
1000
0001
0110
0001
1000
0010
1001
0000
0001
0010
,  // measure 4
1001
0000
0010
0000
1001
0000
0001
1000
0101
1000
0001
0010
1001
0000
0110
0000
,  // measure 5
1001
0000
0100
0000
0011
0000
0100
1000
0101
1000
0010
1000
0011
0000
0001
1000
,  // measure 6
0110
0000
0001
0000
1010
0000
0001
0010
0101
1000
0001
0100
1010
0000
0001
0010
,  // measure 7
1001
0000
0010
0000
1100
0000
0001
1000
0101
0010
0001
1000
0110
0000
1000
0010
,  // measure 8
1000
1000
0000
1000
0000
1000
0000
1000
,  // measure 9
1001
0010
0100
1000
0001
0010
0100
1000
0001
0100
0010
1000
0001
0100
0010
1000
,  // measure 10
0001
0010
0001
0010
0100
1000
0100
1000
0001
0010
0100
1000
0001
0010
0100
1000
,  // measure 11
0001
0010
0001
1000
0001
0010
0001
1000
0010
0100
0010
1000
0010
0100
0010
1000
,  // measure 12
0001
0010
0001
1000
0100
1000
0001
0010
0001
1000
0100
1000
0001
0010
0001
0010
,  // measure 13
1000
0010
0100
0001
1000
0010
0100
0001
1000
0010
0100
0001
1000
0010
0100
0001
,  // measure 14
1000
0010
1000
0100
1000
0010
1000
0100
1000
0010
1000
0100
1000
0010
1000
0100
,  // measure 15
0001
0010
0100
1000
0001
0010
0100
1000
0001
0010
0100
1000
0001
0010
0100
1000
,  // measure 16
2002
0000
0000
0000
0000
0000
0000
3003
,  // measure 17
0011
0100
1001
0011
0110
1100
1001
0011
,  // measure 18
1000
0101
1000
0011
0110
1100
0101
0011
,  // measure 19
1001
0100
0011
1100
0101
0110
1100
1001
,  // measure 20
0010
1001
0100
1001
0011
0110
1100
0101
,  // measure 21
1001
0100
0011
0101
0110
1010
0001
1010
,  // measure 22
0001
1010
0001
1010
0101
0011
0110
1001
,  // measure 23
1100
0001
0110
0011
0110
1001
1010
0101
,  // measure 24
1000
0101
1000
0101
0011
0101
0110
1010
,  // measure 25
1001
0001
0110
0011
1001
1010
0110
0011
,  // measure 26
0100
0011
0100
0011
1100
1001
0110
0101
,  // measure 27
0011
0010
1100
1100
1010
1010
0110
0110
,  // measure 28
0001
0110
0001
0110
0110
0101
0101
0011
,  // measure 29
0011
0100
1100
0110
0101
0011
1000
0011
,  // measure 30
1000
0011
0001
1010
1100
1001
0011
0101
,  // measure 31
0110
1000
1001
0011
0101
0011
1010
0101
,  // measure 32
0001
0101
0001
0101
0011
1001
0110
0011
,  // measure 33
1001
0100
0010
0001
1000
0100
0010
0001
1000
0001
0100
0010
1000
0001
0100
0010
,  // measure 34
0001
1000
0001
0100
0001
1000
0001
0100
0001
0010
0001
1000
0100
1000
0001
0010
,  // measure 35
0001
0100
0010
1000
0001
0100
0010
1000
0001
0010
0001
0100
0001
0010
0001
0100
,  // measure 36
0010
0100
1000
0001
0010
0100
1000
0001
1000
0010
1000
0100
1000
0010
1000
0100
,  // measure 37
1000
0100
0010
0001
1000
0100
0010
0001
1000
0010
0100
0010
1000
0010
0100
0010
,  // measure 38
0001
0100
0001
0010
0001
0100
0001
0010
0100
0010
1000
0001
0100
0010
1000
0001
,  // measure 39
1000
0100
1000
0001
1000
0100
1000
0001
0010
0100
0010
1000
0010
0100
0010
1000
,  // measure 40
0100
0010
0100
0001
0100
0010
0100
0001
1000
0100
1000
0001
1000
0100
1000
0001
,  // measure 41
0010
0100
1000
0001
0010
0100
0010
1000
0001
0010
0001
1000
0100
1000
0001
0010
,  // measure 42
0100
1000
0010
0100
0010
1000
0100
0010
0001
1000
0100
1000
0010
0100
1000
0010
,  // measure 43
0100
0010
1000
0100
0010
0001
0100
0010
0100
0001
0010
0001
1000
0010
1000
0001
,  // measure 44
1000
0100
0010
0001
1000
0010
1000
0100
1000
0100
0010
0001
1000
0001
0010
0100
,  // measure 45
1000
0001
1000
0100
0010
0001
1000
0001
0010
0100
1000
0010
1000
0100
0010
0001
,  // measure 46
0100
0001
0010
0100
0010
0100
1000
0001
1000
0001
0010
0100
1000
0001
1000
0010
,  // measure 47
1000
0001
1000
0100
0010
0001
1000
0001
1000
0100
0010
0001
1000
0001
1000
0100
,  // measure 48
2002
0000
0000
0000
0000
0000
0000
3003
,  // measure 49
1001
0000
0001
1000
0001
0000
1001
0000
1001
0000
1000
0001
1000
0001
1000
0000
,  // measure 50
1001
0100
0011
0101
0110
1010
1100
0001
,  // measure 51
1100
0001
1100
0110
0101
0011
1001
0001
,  // measure 52
1001
0000
1000
0000
1001
0000
0001
0000
1001
0000
1000
0100
0011
0000
0101
0000
,  // measure 53
0110
0010
0110
0010
0110
0010
1100
1000
,  // measure 54
0101
0001
0101
0001
0101
0001
1010
0110
,  // measure 55
0101
0010
1100
0001
1010
0110
0101
0011
,  // measure 56
2002
0000
3003
0011
1002
0000
1000
0003
,  // measure 57
0011
0000
1000
0001
1000
0000
1100
0000
0011
0000
1000
0001
0100
0001
1000
0000
,  // measure 58
0110
1000
0011
0110
1001
0101
0011
1000
,  // measure 59
0110
0001
1010
1100
1001
1010
1001
0100
,  // measure 60
1010
0000
1000
0000
0011
0000
1000
0000
0101
0000
1000
0001
0110
0000
1001
0000
,  // measure 61
0110
0010
0110
0010
0110
0001
0110
1000
,  // measure 62
1100
1000
1100
1000
1100
0001
0110
1000
,  // measure 63
0001
0100
0010
1000
0001
0100
0010
1000
0001
0100
0010
1000
0001
0100
0010
1000
,  // measure 64
0012
0000
0010
0000
0100
0000
1000
0003
,  // measure 65
1001
0100
1010
1001
1100
1001
0101
1010
,  // measure 66
0100
1010
0100
1010
1100
1010
0101
1010
,  // measure 67
1001
0001
1010
0011
1100
0011
0110
0011
,  // measure 68
0001
0011
0001
0011
0101
0011
0101
1100
,  // measure 69
1001
0001
1100
1001
1010
0110
0010
0110
,  // measure 70
0010
0110
0010
0110
0101
1100
0011
1010
,  // measure 71
1100
0001
1010
0110
0011
0101
1010
1001
,  // measure 72
0001
1001
0001
1001
0110
0011
0101
1010
,  // measure 73
1100
0000
0010
0000
1001
0000
0001
0010
0001
1000
0100
0010
1001
0000
1000
0000
,  // measure 74
0011
0000
0100
0000
1010
0000
0001
0010
0100
1000
0010
1000
0101
0000
0010
0000
,  // measure 75
1001
0000
0100
0000
0011
0000
1000
0100
1000
0001
0010
0001
1100
0000
0010
0000
,  // measure 76
0101
0000
0010
0000
1100
0000
0001
0100
0001
0010
0001
1000
0101
0000
0011
0000
,  // measure 77
1001
0000
0010
0000
1100
0000
1000
0001
1000
0001
0010
0100
1001
0000
0010
0000
,  // measure 78
1100
0000
0010
0000
1001
0000
0001
0010
1000
0010
0100
1000
0011
0000
0100
0000
,  // measure 79
1000
0001
1000
0001
1000
0100
0010
0001
1000
0001
1000
0001
1000
0100
0010
0001
,  // measure 80
1000
1001
0000
1001
0011
0110
1100
2002
,  // measure 81
0000
0000
3003
0000
;

//---------------dance-single - ----------------
#NOTES:
     dance-single:
     :
     Challenge:
     14:
     1.000,1.000,1.000,1.000,1.000,1200.000,486.000,160.000,0.000,141.000:  // measure 1
1011
0000
0011
0000
1101
0000
1100
0010
1101
0010
1100
0001
1110
0000
0101
0010
,  // measure 2
1101
0000
0011
0000
1110
0000
0011
0100
1011
0100
1001
0010
1101
0000
0110
0001
,  // measure 3
1110
0000
0011
0000
1110
0000
0011
0100
1011
0100
0011
1000
0111
0000
0110
0001
,  // measure 4
1110
0000
0011
0000
1110
0000
0110
0001
1110
0001
0110
1000
0111
0000
0111
1000
,  // measure 5
0111
0000
0110
0000
1110
0000
0110
0001
1110
0001
1100
0001
1110
0000
1100
0001
,  // measure 6
1110
0000
1001
0000
0111
0000
1100
0001
1110
0001
0110
1000
0111
0000
0101
0010
,  // measure 7
1101
0000
0011
0000
0111
0000
1001
0010
1101
0010
1001
0100
1011
0000
0110
1000
,  // measure 8
0001
0000
0011
0000
0001
0000
0011
0100
1000
0100
0011
1000
0100
0000
0011
1000
,  // measure 9
0111
1000
0001
0010
1100
0001
0010
0001
1100
0010
0001
1000
0101
0010
0100
1000
,  // measure 10
0101
0010
0001
1000
0101
0010
1000
0001
1010
0100
0010
0001
1010
0100
0010
1000
,  // measure 11
0101
0010
0001
0010
1001
0100
1000
0100
0011
0100
0010
0100
1001
0010
0001
0010
,  // measure 12
1001
0100
0010
0001
1100
0001
0010
0001
0110
1000
0001
1000
0110
0001
1100
0001
,  // measure 13
1110
0001
0010
0100
0011
0100
0010
0001
1100
0010
0100
0010
1001
0010
0001
0010
,  // measure 14
1101
0010
0100
0001
1100
0010
1000
0010
0101
1000
0001
0010
1001
0100
0010
0001
,  // measure 15
1110
0001
1100
0001
1010
0100
1001
0010
1101
0010
1001
0010
1100
0010
1001
0010
,  // measure 16
2202
0000
0000
0000
0000
0000
0000
0000
0000
0000
0000
0010
0010
0000
0010
3303
,  // measure 17
1100
0010
0001
0010
1100
0010
1100
0001
1010
0100
1010
0001
1100
0001
1100
0010
,  // measure 18
0100
1000
0110
1000
0001
0100
1010
0001
1010
0100
1010
0001
1010
0100
1010
0001
,  // measure 19
1010
0100
0010
0001
1100
0001
1010
0100
1001
0100
0011
0100
1001
0100
0011
0100
,  // measure 20
1000
0001
1010
0001
0010
0100
1001
0010
1100
0001
1010
0100
0011
1000
0101
0010
,  // measure 21
1101
0010
0100
1000
0011
1000
0101
0010
1001
0100
1010
0001
1000
0001
1100
0001
,  // measure 22
1000
0001
1010
0001
0010
0001
1100
0001
0110
1000
0011
1000
0110
0001
1100
0001
,  // measure 23
0110
1000
0001
1000
0110
1000
0011
0100
1010
0001
1100
0010
0101
1000
0110
0001
,  // measure 24
1000
0001
0110
1000
0001
1000
0110
0001
0110
1000
0011
0100
1001
0010
1100
0001
,  // measure 25
1110
0001
0010
0100
1010
0001
0110
0001
1010
0100
0011
0100
1010
0001
1100
0010
,  // measure 26
0100
0001
1100
0010
0100
0001
1010
0100
1001
0010
0101
0010
1100
0010
0101
1000
,  // measure 27
0110
0001
0100
1000
0110
0001
0110
1000
0110
0001
0110
1000
0011
0100
1001
0010
,  // measure 28
0100
0001
0110
1000
0001
0010
0101
1000
0101
0010
1100
0010
1001
0010
1100
0001
,  // measure 29
1110
0001
1000
0100
0011
1000
0110
0001
1100
0010
1001
0100
0001
0010
1001
0100
,  // measure 30
0001
0010
1001
0010
0001
0100
1001
0010
1100
0010
1001
0100
0011
0100
0011
0100
,  // measure 31
1010
0001
0100
0001
0110
1000
0011
0100
0011
1000
0011
0100
1010
0001
0110
1000
,  // measure 32
0010
0100
1010
0001
0100
1000
0011
1000
0011
0100
1010
0001
0110
1000
0011
1000
,  // measure 33
0111
1000
0001
0010
1100
0001
1100
0010
1100
0010
1100
0010
1001
0010
1100
0001
,  // measure 34
0010
0001
1100
0001
0010
0001
1100
0001
1010
0001
0110
0001
1010
0001
0110
0001
,  // measure 35
1010
0100
0010
0001
1100
0001
1010
0100
0011
1000
0101
0010
1100
0001
1010
0100
,  // measure 36
0010
0100
1010
0100
0010
0100
1010
0100
0011
0100
1010
0001
1010
0100
1010
0001
,  // measure 37
1110
0001
0010
0100
0011
0100
1010
0001
1100
0010
1001
0100
0010
0100
1010
0001
,  // measure 38
0100
0001
1010
0100
0010
0001
1100
0010
0101
0010
0101
1000
0101
0010
1100
0001
,  // measure 39
1100
0010
1000
0001
1100
0010
0101
0010
1100
0010
0101
1000
0101
0010
0101
0010
,  // measure 40
0100
0001
1100
0010
0100
0001
1100
0010
0101
1000
0011
0100
0011
1000
0011
0100
,  // measure 41
1011
0100
0001
0010
1001
0010
1100
0001
1010
0100
1001
0010
1100
0001
1010
0100
,  // measure 42
0010
0001
1100
0001
0010
0001
1100
0001
1010
0100
1010
0001
1100
0001
1010
0001
,  // measure 43
1100
0010
0001
1000
0011
0100
1001
0010
0101
1000
0011
0100
1010
0001
0110
0001
,  // measure 44
1000
0100
0011
0100
1000
0100
0011
1000
0110
0001
1010
0001
1100
0001
1010
0001
,  // measure 45
1110
0001
0100
0010
1001
0010
0101
0010
1100
0010
1001
0100
0010
0100
1001
0010
,  // measure 46
0100
0010
1001
0100
0010
0100
1001
0010
1001
0010
0101
1000
0011
0100
1010
0001
,  // measure 47
1100
0001
0010
0001
1010
0001
0110
0001
1010
0001
0110
0001
1010
0001
0110
0001
,  // measure 48
2220
0000
0000
0000
0000
0000
0000
0000
0000
0000
0000
0000
0000
0000
0000
3330
,  // measure 49
0011
0100
1000
0100
1011
0100
0011
1000
0101
1000
0010
0100
1011
0100
0010
1000
,  // measure 50
0011
0100
1000
0010
1101
0010
1100
0001
1100
0010
1001
0100
1011
0100
0010
0100
,  // measure 51
1001
0100
0010
0001
1110
0001
1010
0100
1010
0001
1010
0100
1011
0100
0010
1000
,  // measure 52
0101
0010
1000
0100
1011
0100
1000
0010
0101
0010
0100
1000
0111
1000
0101
1000
,  // measure 53
0111
1000
0100
1000
0111
1000
0010
1000
0101
1000
0100
1000
0111
1000
0001
1000
,  // measure 54
0110
0001
0010
0001
1110
0001
0010
0001
1010
0001
0010
0001
1110
0001
1010
0100
,  // measure 55
0011
0100
1000
0001
1110
0001
0010
0001
0110
1000
0011
0100
1001
0010
1100
0010
,  // measure 56
1002
0100
0010
1003
0012
0000
1010
0003
0102
0000
0000
0003
0002
0000
0000
0003
,  // measure 57
1101
0010
0100
1000
0111
1000
0110
0001
0110
1000
0100
1000
0111
1000
0100
0010
,  // measure 58
1100
0001
0100
0010
1101
0010
1100
0010
0101
1000
0101
0010
1101
0010
0001
1000
,  // measure 59
0110
0001
0100
0010
1101
0010
0101
0010
1001
0010
1001
0100
1011
0100
0010
0001
,  // measure 60
0110
1000
0100
1000
0111
1000
0100
0001
1010
0100
0001
1000
0111
1000
0011
0100
,  // measure 61
1011
0100
0010
0001
1110
0001
0010
0100
0011
0100
0010
0001
1110
0001
0010
0100
,  // measure 62
1001
0010
0100
1000
0111
1000
0100
0010
0101
0010
0100
1000
0111
1000
0011
0100
,  // measure 63
1001
0010
1100
0010
1101
0010
0101
0010
0101
0010
0101
0010
1100
0001
1010
0100
,  // measure 64
1012
0000
0000
0003
0002
0000
0000
0003
0002
0000
0000
0003
0002
0000
0000
0003
,  // measure 65
1011
0100
1000
0100
0011
1000
0011
0100
0011
1000
0011
0100
0011
1000
0011
0100
,  // measure 66
1000
0100
0011
1000
0100
1000
0011
0100
0011
1000
0011
0100
0011
1000
0101
0010
,  // measure 67
1100
0001
0010
0001
1100
0010
1100
0001
1100
0010
1100
0001
1100
0010
1100
0001
,  // measure 68
0010
0001
1100
0001
0010
0001
1100
0010
1100
0001
1100
0010
1100
0001
0110
1000
,  // measure 69
0111
1000
0001
1000
0110
0001
0110
1000
0110
0001
0110
1000
0001
1000
0110
0001
,  // measure 70
1000
0001
0110
1000
0001
1000
0110
0001
0110
1000
0110
0001
0110
1000
0110
1000
,  // measure 71
0101
0010
0100
1000
0101
0010
0101
1000
0101
0010
0101
1000
0101
0010
0101
1000
,  // measure 72
0010
1000
0101
0010
1000
0010
0101
1000
0101
0010
0101
1000
0101
0010
0101
1000
,  // measure 73
2012
3103
0010
0100
2002
3013
2002
3103
2002
3013
2002
3103
2002
3013
2002
3103
,  // measure 74
0010
0100
2002
3013
0100
0010
2002
3103
2002
3013
2002
3103
2002
3013
2002
3103
,  // measure 75
2020
3031
0100
0001
2020
3130
2020
3031
2020
3130
2020
3031
2020
3130
2020
3031
,  // measure 76
0100
0001
2020
3130
0001
0100
2020
3031
2020
3130
2020
3031
2020
3130
2020
3031
,  // measure 77
1220
0331
0010
1000
0220
0331
0220
1330
0220
0331
0220
1330
0001
1000
0220
0331
,  // measure 78
1000
0001
0220
1330
0001
1000
0220
0331
0220
1330
0220
0331
0220
1330
0220
0331
,  // measure 79
0202
0313
1100
0010
0202
1303
0202
0313
0202
1303
0202
0313
0202
1303
0202
0313
,  // measure 80
1111
0000
2222
0000
0000
3333
2222
3333
2222
3333
2222
3333
2222
3333
2222
3333
,  // measure 81
2222
3333
2222
3333
2222
3333
2222
3333
2222
3333
2222
3333
2222
3333
2222
3333
;
