#TITLE:SO DEEP;
#SUBTITLE:(PERFECT SPHERE REMIX)(TBM);
#ARTIST:SILVERTEAR;
#TITLETRANSLIT:;
#SUBTITLETRANSLIT:;
#ARTISTTRANSLIT:;
#CREDIT:;
#BANNER:SO DEEP (PERFECT SPHERE REMIX).png;
#BACKGROUND:SO DEEP (PERFECT SPHERE REMIX)-bg.png;
#LYRICSPATH:;
#CDTITLE:./CDTITLES/DANCE MANIA BEST OF WORLD TRANCE -FANTASIA-.PNG;
#MUSIC:Pandemonium.mp3;
#OFFSET:-1.762;
#SAMPLESTART:8.550;
#SAMPLELENGTH:12.000;
#SELECTABLE:YES;
#BPMS:0.000=140.000;
#STOPS:;
#BGCHANGES:;
// cache tags:
#FIRSTBEAT:16.000;
#LASTBEAT:212.000;
#SONGFILENAME:Songs/new cc/Pandemonium/SO DEEP (PERFECT SPHERE REMIX).sm;
#HASMUSIC:1;
#HASBANNER:0;
#MUSICLENGTH:115.023;
// end cache tags

//---------------dance-single - Expert----------------
#NOTES:
     dance-single:
     Expert:
     Challenge:
     12:
     0.958,0.917,0.713,0.696,1.000,609.000,82.000,80.000,0.000,8.000:






0000
0000
0000
0000
,
0000
0000
0000
0000
,
0000
0000
0000
0000
,
0000
0000
0000
0000
,
2000
0000
0001
0000
0000
0000
3002
0000
1000
0000
0003
0000
0200
0000
0010
0000
0000
0000
0310
0000
1000
0000
0000
0000
0010
0100
0010
0000
0200
0000
0001
0000
,
0320
1000
0000
2030
0001
0000
3001
0100
0000
0100
0001
0000
0001
0010
0110
0000
,
0002
0000
0100
0000
0000
0000
0203
0000
0010
0000
0000
0000
0302
0000
1000
0000
0000
0000
2003
0000
0100
0000
0000
0000
3010
0100
0010
0100
2000
0000
0100
0000
,
3002
0000
1000
0000
0000
0000
2003
0000
0001
0000
3000
0000
0020
0000
0100
0000
0000
0000
0130
0000
0001
0000
0000
0000
0100
0010
0100
0000
0020
0000
1000
0000
,
0230
0001
0000
0302
1000
0000
1003
0010
0000
0010
1000
0000
1000
0100
0110
0000
,
2000
0000
0010
0000
0000
0000
3020
0000
0100
0000
0000
0000
2030
0000
0001
0000
0000
0000
3002
0000
0010
0000
0000
0000
0103
0010
0100
0010
0002
0000
0010
0000
,
0103
0000
0001
0000
0000
0000
0100
0000
0001
0000
0000
0000
0010
0000
1000
0000
0000
0000
0010
0000
1000
0000
0000
0000
0010
0100
0010
0000
0100
0000
0000
0000
,
0010
0001
0000
0001
1001
0000
1001
0100
0000
0100
0010
0000
0110
0000
1001
0000
,
0020
0000
0100
0000
0000
0000
0230
0000
0010
0000
0300
0000
2000
0000
0001
0000
0000
0000
3001
0000
0010
0000
0000
0000
0001
1000
0001
0000
2000
0000
0010
0000
,
3002
0010
0000
0023
0100
0000
0130
1000
0000
1000
0100
0000
0100
1000
1100
0000
,
0200
0000
1000
0000
0000
0000
2300
0000
0001
0000
0000
0000
3200
0000
0010
0000
0000
0000
0320
0000
1000
0000
0000
0000
0031
1000
0001
1000
0020
0000
1000
0000
,
0230
0000
0010
0000
0000
0000
0320
0000
0001
0000
0030
0000
0002
0000
1000
0000
0000
0000
1003
0000
0100
0000
0000
0000
1000
0001
1000
0000
0002
0000
0100
0000
,
2003
0100
0000
3200
0010
0000
0310
0100
0000
1000
0010
0000
0010
1000
1001
0000
,
0020
0000
0001
0000
0000
0000
0032
0000
1000
0000
0000
0000
0023
0000
0100
0000
0000
0000
0230
0000
0001
0000
0000
0000
1300
0001
1000
0001
0200
0000
0001
0000
,
1300
0000
0100
0000
0000
0000
1000
0000
0100
0000
0000
0000
0001
0000
0010
0000
0000
0000
0001
0000
0010
0000
0000
0000
0001
1000
0001
0000
1000
0000
0000
0000
,
0001
0100
0000
0100
0110
0000
0010
1000
0000
1000
0001
0000
1001
0000
0110
0000
,
0010
0000
0000
0000
0000
0000
0000
0000
0000
0000
0000
0000
0100
0000
0000
0000
0000
0000
0000
0000
0000
0000
0000
0000
1000
0000
0000
0000
0000
0000
0000
0000
0000
0000
0000
0000
0000
0000
0000
0000
0000
0000
0000
0000
0000
0000
0000
0000
0011
0000
0000
0000
0000
0000
0000
0000
0000
0000
0000
0000
0000
0000
0000
0000
0000
0000
0000
0000
0000
0000
0000
0000
1000
0000
0000
0000
0000
0000
0000
0000
0100
0000
0000
0000
0000
0000
0000
0000
0010
0000
0000
0000
0000
0000
0000
0000
0001
0000
0000
0000
0000
0000
0000
0000
0000
0000
0000
0000
0000
0000
0000
0000
0000
0000
0000
0000
0000
0000
0000
0000
1010
0000
0000
0000
0000
0000
0000
0000
0000
0000
0000
0000
0000
0000
0000
0000
0000
0000
0000
0000
0000
0000
0000
0000
0010
0000
0000
0000
0000
0000
0100
0000
0000
0000
0000
0000
0010
0000
0000
0000
0000
0000
0100
0000
0000
0000
0000
0000
0010
0000
0000
0000
0000
0000
0000
0000
0000
0000
0000
0000
0000
0000
0000
0000
0000
0000
0000
0000
0000
0000
0000
0000
,
0002
0000
0000
0100
0000
0000
0000
0000
0000
0103
0000
0000
0101
0000
0000
0000
0000
0000
0200
0000
0000
0010
0000
0000
0000
0000
0000
0310
0000
0000
1020
0000
0000
0000
0000
0000
1030
0000
0001
0000
0010
0000
0001
0000
0000
0000
0000
0000
,
0001
0000
0000
0010
0000
0000
0001
0000
0000
0000
0000
0000
1001
0000
0000
0000
0000
0000
0100
0000
0000
0010
0000
0000
0001
0000
0000
0000
0000
0000
1010
0000
0000
0000
0000
0000
0100
0000
1000
0000
0001
0000
0010
0000
0000
0000
0000
0000
,
2000
0010
0000
3010
1002
0000
0023
0100
0000
0130
1001
0000
0110
0000
1100
0000
,
0001
0000
0100
0000
1000
0000
0000
0000
0101
0000
0000
0000
0010
0000
0100
0000
0001
0000
0000
0000
0101
0000
0000
0000
1000
0001
1000
0001
1000
0000
0000
0000
,
0002
2000
0000
3103
0010
0000
0002
0100
0000
0013
0001
0000
0001
0010
1000
0000
,
0001
0000
0000
0000
0000
0000
0000
0000
0000
0000
0000
0000
1000
0000
0000
0000
0000
0000
0000
0000
0000
0000
0000
0000
0010
0000
0000
0000
0000
0000
0000
0000
0000
0000
0000
0000
0000
0000
0000
0000
0000
0000
0000
0000
0000
0000
0000
0000
0101
0000
0000
0000
0000
0000
0000
0000
0000
0000
0000
0000
0000
0000
0000
0000
0000
0000
0000
0000
0000
0000
0000
0000
0010
0000
0000
0000
0000
0000
0000
0000
1000
0000
0000
0000
0000
0000
0000
0000
0001
0000
0000
0000
0000
0000
0000
0000
0100
0000
0000
0000
0000
0000
0000
0000
0000
0000
0000
0000
0000
0000
0000
0000
0000
0000
0000
0000
0000
0000
0000
0000
0011
0000
0000
0000
0000
0000
0000
0000
0000
0000
0000
0000
0000
0000
0000
0000
0000
0000
0000
0000
0000
0000
0000
0000
0001
0000
0000
0000
0000
0000
1000
0000
0000
0000
0000
0000
0001
0000
0000
0000
0000
0000
1000
0000
0000
0000
0000
0000
0001
0000
0000
0000
0000
0000
0000
0000
0000
0000
0000
0000
0000
0000
0000
0000
0000
0000
0000
0000
0000
0000
0000
0000
,
0200
0000
0000
1000
0000
0000
0000
0000
0000
1300
0000
0000
1100
0000
0000
0000
0000
0000
2000
0000
0000
0001
0000
0000
0000
0000
0000
3001
0000
0000
0012
0000
0000
0000
0000
0000
1003
0000
0010
0000
0100
0000
0001
0000
0000
0000
0000
0000
,
0100
0000
0000
0001
0000
0000
0100
0000
0000
0000
0000
0000
0110
0000
0000
0000
0000
0000
1000
0000
0000
0001
0000
0000
0100
0000
0000
0000
0000
0000
0011
0000
0000
0000
0000
0000
1000
0000
0001
0000
0100
0000
0001
0000
0000
0000
0000
0000
,
0020
0001
0000
0031
0210
0000
0302
1000
0000
1003
0110
0000
1001
0000
1010
0000
,
0100
0000
1000
0000
0010
0000
0000
0000
1100
0000
0000
0000
0001
0000
1000
0000
0100
0000
0000
0000
1100
0000
0000
0000
0010
0100
0010
0100
0010
0000
0000
0000
,
0200
0002
0000
2303
0002
0000
3203
1000
0000
0302
0100
0000
0203
0302
0020
0030
,
0103
0001
0011
0000
1001
0000
0020
0230
0320
0001
2031
0000
3010
0001
0011
0000
,
2001
0001
0000
3102
0100
0000
0213
0010
0000
1320
1000
0000
1030
0001
1000
0000
,
0100
0000
0000
0010
0000
0000
0100
0000
0000
0000
0000
0000
0001
0000
1000
0000
0001
0000
0100
0000
0000
0010
0000
0000
0100
0000
0000
0001
0000
0000
1000
0000
0000
0010
0000
0000
0100
0000
0000
0001
0000
0000
0100
0000
0000
0010
0000
0000
,
1000
0100
1000
0100
1000
0000
0010
0000
1000
0000
0100
0000
0010
0000
1000
0000
0010
0000
0100
0000
0001
0000
1000
0000
2002
0000
0000
0000
0110
0000
0000
0000
,
3003
0000
0101
0000
0000
0000
0001
0000
1000
0000
0000
0000
1001
0000
0000
0000
0010
0100
0010
0000
0000
0000
0100
0000
0110
0000
0000
0000
0101
0000
0000
0000
,
1000
0000
0100
0000
0000
0000
0100
0000
1001
0000
0000
0000
0101
0000
0000
0000
0010
1000
0010
1000
0010
0000
0000
0000
0010
0100
0010
0100
0010
0000
0000
0000
,
0000
0110
0000
0010
1010
0000
0101
0000
0001
1001
0000
1000
0100
0000
1010
0000
,
0100
0000
1000
0000
0000
0000
0001
0000
0010
0000
0000
0000
0110
0000
0000
0000
0001
1000
0001
1000
0001
0000
0000
0000
0001
0100
0001
0100
0001
0000
0000
0000
,
0000
0000
1100
0000
0000
0000
0100
0000
0010
0000
0000
0000
0110
0000
0000
0000
0001
1000
0001
0000
0000
0000
1000
0000
1001
0000
0000
0000
1100
0000
0000
0000
,
0010
0000
1000
0000
0000
0000
1000
0000
0110
0000
0000
0000
1100
0000
0000
0000
0001
0010
0001
0010
0001
0000
0000
0000
0001
1000
0001
1000
0001
0000
0000
0000
,
0000
1001
0000
0001
0011
0000
1100
0000
0100
0110
0000
0010
1000
0000
0011
0000
,
1000
0000
0010
0000
0000
0000
0100
0000
0001
0000
0000
0000
1001
0000
0000
0000
0100
0010
0100
0010
0100
0000
0000
0000
0100
1000
0100
1000
0100
0000
0000
0000
,
0000
0000
0011
0000
0000
0000
0010
0000
0100
0000
0000
0000
0110
0000
0000
0000
1000
0001
1000
0000
0000
0000
0001
0000
1001
0000
0000
0000
0011
0000
0000
0000
,
0100
0000
0001
0000
0000
0000
0001
0000
0110
0000
0000
0000
0011
0000
0000
0000
1000
0100
1000
0100
1000
0000
0000
0000
1000
0001
1000
0001
1000
0000
0000
0000
,
0000
1001
0000
1000
1100
0000
0011
0000
0010
0110
0000
0100
0001
0000
1100
0000
,
0001
0000
0100
0000
0000
0000
0010
0000
1000
0000
0000
0000
1001
0000
0000
0000
0010
0100
0010
0100
0010
0000
0000
0000
0010
0001
0010
0001
0010
0000
0001
0000
,
0100
0000
0001
0000
0000
0000
1000
0000
0001
0000
0100
0000
0010
0000
1000
0001
1000
0001
1000
0000
0100
0000
0001
0000
0100
0000
0010
0000
0100
0000
1000
0000
,
0001
0010
0100
0001
0100
0010
0100
0001
1000
0010
0001
0010
1000
0010
0001
0010
,
0001
0010
1000
0100
1000
0100
0010
1000
0100
0001
0100
0001
0100
1000
0010
0100
,
0001
1000
0100
1000
0100
0010
0001
0100
0001
1000
0001
0010
0001
1000
0100
1000
,
2002
0000
0000
3003
;

//---------------dance-double - ----------------
#NOTES:
     dance-double:
     :
     Easy:
     2:
     0.142,0.206,0.183,0.043,0.000,88.000,21.000,5.000,0.000,0.000:






00000000
00000000
00000000
00000000
,
00000000
00000000
00000000
00000000
,
00000000
00000000
00000000
00000000
,
00000000
00000000
00000000
00000000
,
00100000
00000000
00000000
10000000
,
00010000
00000000
00000000
10000000
,
01000000
00000000
00000000
00000000
,
00010000
00000000
00001000
00000010
,
00000001
00000000
00000000
00000100
,
00000001
00000000
00000000
00001000
,
00000010
00000000
00000000
00000000
,
00000000
00000000
00000001
00000010
,
00000100
00000000
00000000
00001000
,
01000000
00000000
10000000
00100000
,
01000000
00000000
00000000
00000000
,
00010000
00000000
10000000
00010000
,
01000000
00000000
00000000
00001000
,
00010000
00000000
00000100
00001000
,
00000001
00000000
00000000
00000000
,
00001000
00000000
00000000
00000010
,
00000100
00000000
00000000
00000010
,
00001000
00000000
00000000
00001000
,
02000000
00000000
00000000
00000000
,
00000000
00000000
03000000
00100000
,
10000000
00000000
00000000
00100000
,
01000000
00000000
00000000
00001000
,
00020000
00000000
00000000
00030000
,
00002000
00000000
00003000
00000000
,
00000011
00000000
00000000
00000000
,
00000101
00000000
00000000
00000000
,
00001010
00000000
00000000
00000000
,
00000001
00000000
00000001
00000000
,
00001100
00000000
00000000
00000000
,
00011000
00000000
00000000
00000000
,
00001000
00000000
00010000
00000000
,
00001000
00000000
01000000
00000000
,
10100000
00000000
00110000
00000000
,
10010000
00000000
00000000
00000000
,
00000011
00000000
00001010
00000000
,
00001001
00000000
00000000
00000000
,
01010000
00000000
11000000
00000000
,
10010000
00000000
00000000
00000000
,
00001100
00000000
00000101
00000000
,
00001001
00000000
00000000
00000000
,
00100000
00100000
10010000
00000000
,
01000000
01000000
10010000
00000000
,
00001000
00000000
00010000
00000000
,
00000010
00000010
00001001
00000000
,
00000001
00000000
00000100
00000000
,
00001000
00000000
00010000
00000000
,
00100000
00000000
10000000
00000000
,
00010000
00000000
10000000
01000000
,
00022000
00000000
00000000
00033000
;

//---------------dance-double - ----------------
#NOTES:
     dance-double:
     :
     Medium:
     6:
     0.289,0.413,0.191,0.070,0.000,203.000,22.000,8.000,0.000,0.000:






00000000
00000000
00000000
00000000
,
00000000
00000000
00000000
00000000
,
00000000
00000000
00000000
00000000
,
00000000
00000000
00000000
00000000
,
00000010
00000001
00000000
00001100
,
00000010
00001000
00000000
00000101
,
00000010
00000001
00000100
00001000
,
00010000
00100000
10000000
01000000
,
00100000
00010000
00000000
11000000
,
00100000
10000000
00000000
01010000
,
00100000
10000000
01000000
00010000
,
00001000
00000010
00000001
00000100
,
00000010
00001000
00000001
00000110
,
00000001
00000010
00000100
00001001
,
00000001
00000100
00001000
00010000
,
00100000
10000000
00100000
10000000
,
00100000
10000000
00010000
01100000
,
10000000
01000000
00100000
10010000
,
10000000
01000000
00010000
00001000
,
00000010
00000000
00000001
00000000
00000001
00000000
00000100
00001000
,
00010000
00000000
00000000
00000000
00000000
00000000
00100000
10000000
,
01000000
00000000
00000000
00000000
00000000
00000000
00010000
00001000
,
00000010
00000001
00001000
00000001
,
00000100
00000000
00000001
00000000
00001000
00000000
00000001
00000100
,
00001000
00000000
00000000
00000000
00000000
00000000
00010000
00100000
,
10000000
00000000
00000000
00000000
00000000
00000000
01000000
00010000
,
00001000
00000000
00000000
00100000
00000000
00000000
01000000
00000000
,
00000000
10000000
00000000
00000000
00010000
00000000
10000000
01000000
,
00010000
00000000
00000000
00000000
00000000
00000000
00001000
00010000
,
00100000
00000000
00000000
01000000
,
00100000
10000000
00010000
01000000
,
00010000
00000000
10000000
00000000
00010000
00000000
10000000
00010000
,
02000000
00000000
00000000
00000000
00000000
00000000
03001000
00010000
,
00002000
00000000
00000000
00000000
00000000
00000000
00003010
00000001
,
00000200
00000000
00000000
00002300
00000000
00000000
00023000
00000000
,
00000000
00230000
00000000
00000000
10300000
00000000
01010000
00000000
,
00100000
10000000
00100000
00000000
10000000
01000000
10000000
00000000
,
01000000
00010000
01000000
00000000
00010000
00001000
00010000
00000000
,
00001000
00000010
00001000
00000000
00000010
00000001
00000010
00000000
,
00000001
00000100
00000001
00000000
00001001
00000000
00001001
00000000
,
00000010
00000001
00000100
00000000
00000001
00000100
00001000
00000000
,
00000100
00001000
00010000
00000000
00001000
00010000
00100000
00000000
,
00010000
00100000
10000000
00000000
00100000
10000000
01000000
00000000
,
10000000
01000000
00010000
00000000
01100000
00000000
00000000
00000000
,
00100000
10000000
01000000
00000000
01000000
00010000
00001000
00000000
,
00001000
00000010
00000001
00000000
00000001
00000100
00001000
00000000
,
00001000
00010000
00100000
00000000
00100000
10000000
01000000
00000000
,
01000000
00010000
00001000
00000000
00001001
00000000
00000000
00000000
,
00000010
00000001
00000100
00000000
00001000
00010000
00100000
00000000
,
10000000
01000000
00010000
00000000
00001000
00000010
00000001
00000000
,
00001100
00000011
00000101
00001010
,
00011000
01010000
11000000
01100000
,
20020000
00000000
00000000
30030000
;

//---------------dance-double - ----------------
#NOTES:
     dance-double:
     :
     Hard:
     9:
     0.489,0.482,0.078,0.017,0.330,383.000,9.000,2.000,0.000,0.000:






00000000
00000000
00000000
00000000
,
00000000
00000000
00000000
00000000
,
00000000
00000000
00000000
00000000
,
00000000
00000000
00000000
00000000
,
00000010
00000100
00001000
00000001
00000100
00001000
00010000
00000100
,
00010000
00100000
10000000
01000000
00100000
00010000
10000000
00100000
,
10000000
01000000
00010000
00001000
01000000
00001000
00000010
00000001
,
00000100
00000010
00001000
00000100
00000010
00000001
00000100
00000010
,
00001000
00000100
00010000
00100000
10000000
01000000
00100000
00010000
,
10000000
01000000
00010000
00001000
00000010
00000001
00000100
00000001
,
00001000
00000100
00010000
00100000
10000000
01000000
00100000
00010000
,
01000000
00001000
00010000
00000100
00000010
00000001
00001000
00000100
,
00000010
00000100
00001000
00000001
00000100
00001000
00010000
00000100
,
00010000
00100000
10000000
01000000
00100000
00010000
10000000
00100000
,
10000000
01000000
00010000
00001000
01000000
00001000
00000010
00000001
,
00000100
00000010
00001000
00000100
00000010
00000001
00000100
00000010
,
00001000
00000100
00010000
00100000
10000000
01000000
00100000
00010000
,
10000000
01000000
00010000
00001000
00000010
00000001
00000100
00000001
,
00001000
00000100
00010000
00100000
10000000
01000000
00100000
00010000
,
01000000
00001000
00010000
00000100
00000010
00000001
00001000
00000100
,
00000010
00000001
00000000
00000000
00000001
00000100
00000000
00000000
00000100
00001000
00000000
00000000
00001000
00010000
00000000
00000000
,
00010000
00100000
00000000
00000000
00100000
10000000
00000000
00000000
10000000
01000000
00000000
00000000
01000000
10000000
00000000
00000000
,
10000000
01000000
00000000
00000000
01000000
00010000
00000000
00000000
00010000
00001000
00000000
00000000
00001000
00000010
00000000
00000000
,
00000010
00000001
00000000
00000000
00000001
00000100
00000000
00000000
00000100
00000010
00000000
00000000
00001000
00000001
00000000
00000000
,
00000010
00000001
00000000
00000000
00000001
00000100
00000000
00000000
00000100
00001000
00000000
00000000
00001000
00010000
00000000
00000000
,
00010000
00100000
00000000
00000000
00100000
10000000
00000000
00000000
10000000
01000000
00000000
00000000
01000000
10000000
00000000
00000000
,
10000000
01000000
00000000
00000000
01000000
00010000
00000000
00000000
00010000
00001000
00000000
00000000
00001000
00000010
00000000
00000000
,
00000010
00000001
00000000
00000000
00000001
00000100
00000000
00000000
00000100
00000010
00000000
00000000
00001000
00000001
00000000
00000000
,
00000010
00000001
00000010
00000000
00000100
00000000
00000000
00000000
00001000
00000100
00001000
00000000
00000010
00000000
00000000
00000000
,
00001000
00000001
00001000
00000000
00000010
00000000
00000000
00000000
00000100
00000001
00001000
00000000
00000100
00000000
00000000
00000000
,
00000010
00000001
00001000
00000100
00000010
00000001
00000100
00001000
,
00010000
00100000
10000000
01000000
00100000
00010000
10000000
01000000
,
00100000
00010000
00100000
00000000
11000000
00000000
00000000
00000000
10000000
01000000
10000000
00000000
01010000
00000000
00000000
00000000
,
00010000
01000000
00010000
00000000
10100000
00000000
00000000
00000000
00100000
10000000
00100000
00000000
01010000
00000000
00000000
00000000
,
00100000
01000000
00010000
10000000
00100000
10000000
01000000
00010000
,
00001000
00000010
00000001
00000100
00000010
00001000
00000001
00000100
,
00000001
00000100
00000000
00000100
00000001
00000000
00000000
00000000
00000010
00001000
00000000
00001000
00000010
00000000
00000000
00000000
,
00010000
00001000
00000000
00001000
00010000
00000000
00000000
00000000
00010000
00001000
00010000
00000000
00011000
00000000
00000000
00000000
,
00100000
10000000
00000000
10000000
00100000
00000000
00000000
00000000
00010000
01000000
00000000
01000000
00010000
00000000
00000000
00000000
,
00001000
00010000
00000000
00010000
00001000
00000000
00000000
00000000
00001000
00010000
00001000
00000000
00011000
00000000
00000000
00000000
,
00100000
10000000
00000000
00000000
01000000
00010000
00000000
00000000
00001000
00000010
00000000
00000000
00000001
00000100
00000000
00000000
,
00001000
00010000
00000000
00000000
00100000
10000000
00000000
00000000
01000000
00010000
00000000
00000000
00001000
00000010
00000000
00000000
,
00000001
00001000
00000010
00000100
00001000
01000000
00100000
10000000
,
00010000
00100000
01000000
00010000
00000100
00000010
00000001
00001000
,
00000001
00000100
00000000
00000010
00000000
00000000
00001000
00000000
00000100
00001000
00000000
00000001
00000010
00000000
00000000
00000000
,
00000001
00001000
00000100
00000010
00000001
00000100
00001000
00100000
,
00010000
01000000
00000000
00100000
00000000
00000000
10000000
00000000
01000000
10000000
00000000
00010000
00100000
00000000
00000000
00000000
,
00010000
01000000
00100000
10000000
01000000
00010000
00001000
00000010
,
00000001
00000100
00000000
00000100
00000001
00000000
00000000
00000000
00001000
00000100
00000000
00000100
00001000
00000000
00000000
00000000
,
00000001
00001000
00000100
00000010
00000001
00000100
00001000
00100000
,
01000000
10000000
00000000
10000000
01000000
00000000
00000000
00000000
00110000
00000000
00000000
00000000
11000000
00000000
00000000
00000000
,
10000000
01000000
00010000
00001000
00000010
00000001
00000100
00001000
,
20020000
00000000
00000000
30030000
;

//---------------dance-single - Standard----------------
#NOTES:
     dance-single:
     Standard:
     Medium:
     5:
     0.355,0.507,0.513,0.313,0.000,191.000,59.000,36.000,0.000,0.000:

0000
0000
0000
0000
,
0000
0000
0000
0000
,
0000
0000
0000
0000
,
0000
0000
0000
0000
,
0000
0001
0001
0000
,
1100
1000
1000
0000
,
0101
0010
0010
0000
,
1001
0010
0001
1000
,
0100
1000
1000
0000
,
0011
0001
0001
0000
,
1010
0100
0100
0000
,
1001
0001
0010
0100
,
1000
0011
1001
0000
,
0101
1010
1001
0000
,
1100
0110
0110
0000
,
1001
0011
1100
1010
,
0101
0110
2002
3003
,
0110
1001
0220
0330
,
1001
1010
0202
0303
,
1001
0110
1001
0110
,
0010
0001
0200
0000
0000
0000
0300
0000
,
0010
1000
0200
0000
0000
0000
0300
0000
,
1000
0001
2002
0000
0000
0000
0000
0000
,
0000
0000
0000
3003
,
0100
1000
0200
0000
0000
0000
0300
0000
,
0010
0001
0200
0000
0000
0000
0300
0000
,
0001
1000
2200
0000
3300
0022
0000
0033
,
0202
0000
0303
2020
0000
3030
1001
0000
,
0100
0001
0020
0000
0000
0000
0030
0000
,
0100
0001
0020
0000
0000
0000
0030
0000
,
0100
0010
0220
0000
0000
0000
0000
0000
,
0000
0000
0000
0330
,
0100
0001
2000
0000
0000
0000
3000
0000
,
0001
0010
0200
0000
0000
0000
0300
0000
,
1000
0001
0022
0000
0033
0202
0000
0303
,
2200
0000
3300
2020
0000
3030
0110
0000
,
1001
0000
0010
0001
0010
0000
0010
1000
,
0010
0000
0010
0100
0010
0000
1001
0000
,
1001
0000
0010
1000
0010
0000
0010
0001
,
0010
0000
0010
0100
0010
0000
1001
0000
,
1001
0000
0100
0001
0100
0000
0100
1000
,
0100
0000
0100
0010
0100
0000
1001
0000
,
1001
0000
0100
1000
0100
0000
0100
0001
,
0100
0000
0100
0010
0100
0000
1001
0000
,
1001
0000
0010
1000
0100
0000
0010
0001
,
0100
0000
0010
1000
0100
0000
0010
0001
,
0100
0000
0100
0001
0010
0000
0100
1000
,
0010
0000
0100
0001
0010
0000
0100
1000
,
0010
0000
0100
0001
1010
0000
1000
0010
,
0101
0000
0010
1000
1100
0000
0010
0001
,
0101
0000
1000
0001
0110
0000
0100
0010
,
1001
0000
0010
1000
0100
0010
0001
0100
,
0010
1000
2002
0000
0000
0000
0000
0000
,
3003
0000
0000
0000
;
