#TITLE:Indulgence;
#SUBTITLE:;
#ARTIST:KaW;
#TITLETRANSLIT:;
#SUBTITLETRANSLIT:;
#ARTISTTRANSLIT:;
#CREDIT:;
#BANNER:Indulgence-bn.png;
#BACKGROUND:Indulgence-bg.png;
#LYRICSPATH:;
#CDTITLE:ducky.png;
#MUSIC:Indulgence.mp3;
#OFFSET:-0.020;
#SAMPLESTART:38.454;
#SAMPLELENGTH:12.000;
#SELECTABLE:YES;
#BPMS:0.000=156.010;
#STOPS:;
#BGCHANGES:;
// cache tags:
#FIRSTBEAT:0.000;
#LASTBEAT:306.000;
#SONGFILENAME:Songs/Fresh Flock of Fantastic Files F4/(Ducky) Indulgence/Indulgence.sm;
#HASMUSIC:1;
#HASBANNER:1;
#MUSICLENGTH:119.907;
// end cache tags

//---------------dance-single - ----------------
#NOTES:
     dance-single:
     :
     Hard:
     12:
     1.000,1.000,1.000,0.017,1.000,957.000,174.000,2.000,0.000,0.000:
1000
0001
0100
0000
0010
1000
0000
0100
0010
0001
0100
0000
1000
0100
0000
0001
,
0010
0100
0010
0000
0001
1000
0010
0100
0010
0100
0001
0000
0100
1000
0100
0000
,
0001
0100
0010
0000
1000
0100
0000
0010
0001
0100
1000
0000
0100
0001
0000
0010
,
0100
1000
0001
0000
0010
0001
0100
0000
1001
1001
0000
0110
0110
0000
1001
0000
,
0110
0000
0101
0000
0100
0010
0000
1000
0001
0000
1100
0000
0010
0001
0000
0100
,
1000
0000
0101
0000
0010
1000
0000
0100
1000
0000
0101
0000
1000
0100
0010
0001
,
1100
0000
0011
0000
0100
1000
0000
0100
0001
0000
0110
0000
0001
1000
0000
0100
,
0010
0000
0101
0000
0010
1000
0000
0100
0010
0000
0001
0100
0000
0010
1000
0000
,
0101
0000
1100
0000
0010
1000
0000
0001
0100
0000
1001
0000
0100
0010
0000
0001
,
0100
0000
1010
0000
0100
0001
0000
0010
1000
0000
0101
0000
1000
0100
0001
0100
,
1100
0000
0101
0000
0100
1000
0000
0010
0100
0000
0011
0000
1000
0100
0000
0010
,
0001
0000
1100
0000
0010
0001
0000
1000
0100
0000
0010
0001
0000
1000
0100
0000
,
0011
1000
0010
0100
0001
0010
1000
0010
0001
0100
0010
1000
0100
1000
0010
0100
,
0001
0010
1000
0010
0001
0100
0010
1000
0100
0010
0100
1000
0010
0100
0001
0010
,
0100
0001
0100
0010
0001
0100
1000
0100
0001
0010
0100
0010
0001
1000
0010
1000
,
0100
0010
1000
0010
0001
0100
0010
1000
0110
0110
0000
1001
1001
0000
0100
0000
,
1000
0100
0001
0000
0010
1000
0000
0100
1000
0001
1000
0000
0001
0100
0000
0010
,
1000
0010
0001
0000
1000
0001
0000
1000
0100
0010
0001
0010
1000
0010
0001
1000
,
0010
0001
0010
0000
0010
1000
0000
0001
1000
0100
0010
0000
0001
0100
0000
0010
,
1000
0100
0001
0000
0100
1000
0000
0010
0100
0001
1000
0010
0000
1100
0001
0000
,
1001
0100
0010
0000
1000
0100
0000
0010
0001
0010
1100
0000
0001
1000
0000
0010
,
1000
0010
0101
0000
0010
1000
0000
0001
1000
0100
0010
0001
0100
1000
0100
0001
,
1000
0100
1001
0000
0010
0001
0000
1000
0010
1000
0101
0000
1000
0100
0000
0001
,
0100
0001
1010
0000
0010
0001
0000
1000
0101
0000
0010
1100
0000
0010
1001
0000
,
0001
1000
0100
1000
0100
0100
0000
0001
1000
0001
0100
0001
0100
0100
0000
0010
,
1000
0100
0010
0100
0010
0010
0000
1000
0110
0110
0000
1001
1001
0000
0001
0000
,
1000
0100
1000
0100
1000
0100
1000
0100
1000
0000
0000
0000
0001
0000
0000
0000
1000
0001
1000
0001
1000
0001
1000
0001
1000
0000
0000
0000
0010
0000
0000
0000
,
0100
0010
0100
0010
0100
0010
0100
0010
0100
0010
0100
0010
0100
0000
1000
0000
0110
0000
0110
0000
0000
0000
1001
0000
1001
0000
0000
0000
0110
0000
0000
0000
,
1100
0000
0010
0001
1100
0000
0010
0000
1100
0000
0010
1000
0101
0000
0010
0000
,
1001
0000
1000
0100
0011
0000
0100
0000
0011
0000
0010
0100
1001
0000
0110
0000
,
1100
0000
0001
1000
0110
0000
0001
0000
1100
0000
0001
0100
1010
0000
0100
0000
,
1001
0000
0100
0001
1010
0000
0001
0000
0110
0000
1000
0000
0101
0100
0100
0100
,
1100
0000
0001
0100
0101
0000
0010
0000
1100
0000
0010
0100
0110
0000
0001
0000
,
1100
0000
0010
0001
0011
0000
0100
0000
0011
0000
1000
0001
1001
0000
1100
0000
,
0011
0000
1000
0010
1010
0000
0001
0000
1100
0000
0001
0100
0101
0000
0010
0000
,
1100
0000
0010
0100
0110
0000
0001
0000
1100
0000
0100
0000
1010
0010
0010
0010
,
0011
0000
1000
0100
0010
0000
1001
0000
0110
0000
1000
0100
0001
0000
1010
0000
,
0101
0000
0001
0010
1000
0000
0110
0000
1001
0000
0010
0100
1001
0000
1100
0000
,
0011
0000
1000
0010
0001
0000
1010
0000
0110
0000
0001
0010
1000
0000
0101
0000
,
1010
0000
0001
0100
0010
0000
1100
0000
0101
0000
1010
0000
0011
0010
0010
0010
,
1100
0000
1000
0001
0100
0000
0011
0000
1010
0000
0100
0001
0010
0000
0101
0000
,
1010
0000
0001
0100
1000
0000
0101
0000
0110
0000
0001
0100
1000
0000
0011
0000
,
1001
1000
0101
1000
0011
1100
0101
1010
,
0110
0000
1000
0000
0011
0000
1100
0000
0011
0000
1001
0000
0101
0100
0100
0100
,
1010
1000
0100
0000
0010
0001
0000
1000
0100
0001
0100
1000
0010
0010
0010
0010
,
0100
1000
0100
0000
0010
1000
0000
0100
0010
0001
1000
0100
0010
0010
0010
0010
,
0001
0100
0001
0100
0001
0100
0001
0100
0001
0000
0000
0000
1000
0000
0000
0000
0110
0000
0110
0000
0000
0000
1001
0000
1001
0000
0000
0000
0100
0000
0000
0000
,
0001
1000
0001
1000
0001
1000
0001
1000
0001
1000
0001
1000
0001
0000
1000
0000
0110
0000
0110
0000
0000
0000
1001
0000
1001
0000
0000
0000
0110
0000
0000
0000
,
1000
0100
0001
0000
0100
1000
0000
0001
1000
0010
0001
0000
1000
0100
0000
0010
,
1000
0100
0001
0000
0100
1000
0000
0010
0001
0010
1000
0100
0001
0100
0010
0001
,
0010
0100
1000
0000
0010
0001
0000
1000
0100
0001
0010
0000
0100
1000
0010
0001
,
0010
1000
0100
0000
0010
0001
0000
1000
0110
0110
0000
1001
1001
0000
0110
0000
,
1000
0010
0100
0000
1000
0100
0000
0001
0010
0100
0001
0000
0100
1000
0000
0010
,
0001
0010
0100
0000
1000
0100
0000
0001
0010
0100
1000
0000
0010
0001
0000
1000
,
0100
0001
0100
0001
0100
0001
0100
0001
0100
0000
0000
0000
0010
0000
0000
0000
1000
0001
1000
0001
1000
0001
1000
0001
1000
0000
0000
0000
0010
0000
0100
0000
,
0001
1000
0001
1000
0001
1000
0001
1000
0001
1000
0001
1000
0001
1000
0001
1000
0100
0010
0100
0010
0100
0010
0100
0010
0100
0010
0100
0010
0100
0010
0100
0010
,
0100
0000
1000
0000
0101
0000
1000
0101
0000
0000
1000
0000
0110
0000
0001
1100
,
0000
0000
0010
0000
0101
0000
0010
1100
0000
0000
0010
0000
1001
0100
0010
0000
,
1100
0000
0010
0000
0101
0000
0010
1001
0000
0000
0100
0000
0011
0000
1000
0101
,
0000
0000
0010
0000
1100
0000
0001
0110
0000
0000
0010
0000
1010
0100
0010
0000
,
0101
0000
0100
0001
0101
0000
0100
1010
0000
0000
0001
1000
1001
0000
0100
1010
,
0000
0000
1000
0100
1100
0000
0100
0011
0000
0000
1000
0100
1001
0010
0001
0000
,
1001
0000
1000
0010
0101
0000
0001
1100
0000
0000
0010
0001
1100
0000
0010
1001
,
0000
0000
0100
1000
0011
0000
1000
0110
0000
1000
0001
0100
0010
1000
0001
0000
,
1001
1000
0100
1000
0100
0100
0000
0010
0001
0100
0010
0100
0010
0010
0000
1000
,
0100
0010
0001
0010
0001
0001
0000
0100
0010
1000
0100
1000
0100
0100
0010
0010
,
0001
0100
1000
0100
0001
0001
0000
1000
0100
0001
0100
1000
0100
0100
0000
0010
,
0001
0100
0010
1000
0100
0100
0000
0010
1001
0000
1000
0101
0000
0001
1100
0000
,
1001
1000
0010
1000
0100
0100
0000
0010
0001
0100
1000
0100
1000
1000
0000
0100
,
0001
0010
1000
0010
1000
1000
0000
0010
0001
0100
0010
0100
0010
0010
1000
1000
,
0100
0001
0100
1000
0010
0010
0000
0100
0001
0010
0100
0010
1000
1000
0000
0010
,
0001
0100
1000
0100
0010
0010
0000
1000
0101
0000
0001
1100
0000
0010
1001
0000
,
0110
1000
0100
1000
0010
0100
1000
0100
0001
0010
1000
0010
0001
0100
0010
1000
,
0100
0010
0100
0001
0100
1000
0010
0100
0010
1000
0100
0010
0001
0100
1000
0100
,
0010
1000
0001
0100
0010
1000
0100
1000
0010
0100
0001
0010
0001
0100
0010
1000
,
0100
0001
0100
0010
0001
0100
1000
0100
0001
1000
0100
0001
0100
1000
0010
0100
,
2002
0000
3003
0000
;
