#TITLE:Pac-Man;
#SUBTITLE:;
#ARTIST:Powerpill;
#TITLETRANSLIT:;
#SUBTITLETRANSLIT:;
#ARTISTTRANSLIT:;
#CREDIT:;
#BANNER:pac-man3d-bn.JPG;
#BACKGROUND:mspac800-bg.jpg;
#LYRICSPATH:;
#CDTITLE:N8 ball.JPG;
#MUSIC:Powerpill-PAC-MAN-[05]-PAC-MAN.mp3;
#OFFSET:-0.407;
#SAMPLESTART:54.690;
#SAMPLELENGTH:15.300;
#SELECTABLE:YES;
#BPMS:0.000=132.800,104.000=511.997,200.000=132.800;
#STOPS:104.000=0.100
,105.000=0.120
,106.000=0.100
,107.000=0.120
,108.000=0.100
,109.000=0.120
,110.000=0.100
,111.000=0.120
,112.000=0.100
,113.000=0.120
,114.000=0.100
,115.000=0.120
,116.000=0.100
,117.000=0.120
,118.000=0.100
,119.000=0.120
,120.000=0.100
,121.000=0.120
,122.000=0.100
,123.000=0.120
,124.000=0.100
,125.000=0.120
,126.000=0.100
,127.000=0.120
,128.000=0.100
,129.000=0.120
,130.000=0.100
,131.000=0.120
,132.000=0.100
,133.000=0.120
,134.000=0.100
,135.000=0.120
,136.000=0.100
,137.000=0.120
,138.000=0.100
,139.000=0.120
,140.000=0.100
,141.000=0.100
,142.000=0.100
,143.000=0.120
,144.000=0.100
,145.000=0.120
,146.000=0.100
,147.000=0.120
,148.000=0.100
,149.000=0.120
,150.000=0.100
,151.000=0.120
,152.000=0.100
,153.000=0.120
,154.000=0.100
,155.000=0.120
,156.000=0.100
,157.000=0.120
,158.000=0.100
,159.000=0.120
,160.000=0.100
,161.000=0.120
,162.000=0.100
,163.000=0.120
,164.000=0.100
,165.000=0.100
,166.000=0.100
,167.000=0.100
,168.000=0.100
,169.000=0.100
,170.000=0.100
,171.000=0.120
,172.000=0.100
,173.000=0.120
,174.000=0.100
,175.000=0.120
,176.000=0.100
,177.000=0.120
,178.000=0.100
,179.000=0.120
,180.000=0.100
,181.000=0.120
,182.000=0.100
,183.000=0.120
,184.000=0.100
,185.000=0.120
,186.000=0.100
,187.000=0.120
,188.000=0.100
,189.000=0.120
,190.000=0.100
,191.000=0.120
,192.000=0.100
,193.000=0.120
,194.000=0.100
,195.000=0.120
,196.000=0.100
,197.000=0.120
,198.000=0.100
,199.000=0.120
,440.750=0.040
,478.000=1.720
;
#BGCHANGES:;
// cache tags:
#FIRSTBEAT:4.250;
#LASTBEAT:585.000;
#SONGFILENAME:Songs/Tales of Genji/Pac Man/pac-man.sm.sm;
#HASMUSIC:1;
#HASBANNER:1;
#MUSICLENGTH:243.481;
// end cache tags

//---------------dance-single - N8----------------
#NOTES:
     dance-single:
     N8:
     Hard:
     13:
     1.000,1.000,1.000,0.485,1.000,1670.000,248.000,118.000,227.000,28.000:
0000
0000
0000
0000
,
0000
0000
1000
0100
0000
0000
0000
0000
1000
0000
0000
0000
0000
0000
0000
0000
0000
0000
0000
0000
0000
0000
0000
0000
0000
0000
0000
0000
0000
0000
0000
0000
,
1000
0000
0100
0000
0010
0000
0001
0000
1000
0100
0010
0000
0011
0000
0000
0000
0001
0000
0010
0000
0100
0000
1000
0000
0001
0010
0100
0000
1100
0000
0000
0000
,
0100
0000
0010
0000
0100
0000
0010
0000
0100
0010
0100
0000
0110
0000
0000
0000
0001
1000
0000
0000
0100
0010
0000
0000
1000
0100
0000
0000
0100
0010
0000
0000
,
0100
0000
1000
0000
0100
0000
1000
0000
0100
1000
0100
0000
1100
0000
0000
0000
0010
0000
0001
0000
0010
0000
0001
0000
0010
0001
0010
0000
0011
0000
0000
0000
,
0100
0000
0010
0000
0001
0000
0100
0000
1000
0001
0100
0000
0110
0000
0000
0000
1000
0010
0000
0000
1000
0010
0000
0000
1000
0010
0000
0000
1000
0010
0000
0000
,
0001
0000
0010
0000
0001
0000
0100
0000
0001
0010
0100
0000
1100
0000
0000
0000
1000
0000
0100
0000
1000
0000
0010
0000
1000
0100
0010
0000
0011
0000
0000
0000
,
0001
0000
1000
0000
0001
0000
1000
0000
0001
1000
0001
0000
0110
0000
0000
0000
0001
0100
0000
0000
0001
0100
0000
0000
0001
0100
0000
0000
0001
0100
0000
0000
,
1000
0000
0010
0000
1000
0000
0010
0000
0100
0001
0100
0000
0110
0000
0000
0000
1000
0000
0001
0000
1000
0000
0001
0000
1000
0100
0010
0000
0110
0000
0000
0000
,
1000
0000
0100
0000
1000
0000
0100
0000
0001
0010
1000
0000
0110
0000
0000
0000
1000
0100
0000
0000
0100
0010
0000
0000
0001
0010
0000
0000
0010
0100
0000
0000
,
0001
0000
0100
0000
0001
0000
0100
0000
0001
0010
0100
0000
0011
0000
0000
0000
0001
0000
1000
0000
0001
0000
1000
0000
0001
0100
0010
0000
1100
0000
0000
0000
,
0001
0000
0010
0000
0001
0000
0010
0000
0001
1000
0100
0000
0011
0000
0000
0000
0001
0010
0000
0000
1000
0010
0000
0000
0100
0010
0000
0000
0001
0010
0000
0000
,
0010
0000
0100
0000
0010
0000
1000
0000
0100
0001
0010
0000
0101
0000
0000
0000
0010
0000
1000
0000
0010
0000
0001
0000
0100
0010
0001
0000
1100
0000
0000
0000
,
0010
0000
1000
0000
0010
0000
0100
0000
0001
0010
1000
0000
0101
0000
0000
0000
0001
1000
0000
0000
0010
1000
0000
0000
0100
0001
0000
0000
1000
0001
0000
0000
,
0100
0000
1000
0000
0100
0000
0010
0000
0100
0010
0001
0000
0110
0000
0000
0000
0010
0000
0001
0000
0010
0000
1000
0000
0010
0100
0010
0000
0110
0000
0000
0000
,
0010
0000
0100
0000
0010
0000
0001
0000
0010
0100
1000
0000
0110
0000
0000
0000
0001
0010
0000
0000
0001
0100
0000
0000
1000
0100
0000
0000
1000
0010
0000
0000
,
1000
0000
0100
0000
0010
0000
0001
0000
1000
0100
0010
0000
0011
0000
0000
0000
0001
0000
0010
0000
0100
0000
1000
0000
1000
0100
0010
0000
0011
0000
0000
0000
,
0010
0000
0100
0000
0001
0000
1000
0000
0100
0010
0001
0000
1100
0000
0000
0000
0100
1000
0000
0000
0010
0001
0000
0000
0100
1000
0000
0000
0010
0001
0000
0000
,
0100
0000
0010
0000
0001
0000
0010
0000
0100
0010
1000
0000
0101
0000
0000
0000
0010
0000
0100
0000
1000
0000
0100
0000
0010
0001
0010
0000
1010
0000
0000
0000
,
0001
0000
0010
0000
0100
0000
0010
0000
0001
0010
0100
0000
0011
0000
0000
0000
0010
0100
0000
0000
0010
1000
0000
0000
0010
0001
0000
0000
0010
0100
0000
0000
,
0001
0000
1000
0000
0010
0000
0001
0000
0100
0001
0010
0000
1100
0000
0000
0000
1000
0000
0001
0000
0100
0000
1000
0000
0010
0100
0001
0000
1010
0000
0000
0000
,
0010
0000
0001
0000
0100
0000
0010
0000
1000
0100
0010
0000
1100
0000
0000
0000
0001
1000
0000
0000
0010
0100
0000
0000
0100
0010
0000
0000
1000
0001
0000
0000
,
1000
0000
1000
0000
1000
0000
1000
0000
1000
0100
0000
0000
1000
0000
0000
0000
,
1000
0000
1000
0000
1000
0000
1000
0000
1000
0100
0000
0000
1000
0000
0000
0000
,
1000
0000
1000
0000
1000
0000
1000
0000
1000
0100
0000
0000
1000
0000
0000
0000
,
1000
0100
0010
0000
0001
0010
0100
0000
1000
0100
0010
0000
1001
0000
0000
0000
,
1M1M
1MM1
1M1M
11MM
,
1MM1
MM11
11MM
M11M
,
M11M
11MM
MM11
1M1M
,
M1M1
11MM
11MM
1M1M
,
1M1M
MM11
MM11
M1M1
,
M1M1
1MM1
1MM1
M1M1
,
1M1M
1M1M
MM11
1M1M
,
M11M
1MM1
M1M1
1M1M
,
1MM1
11MM
1MM1
MM11
,
11MM
1M1M
M1M1
11MM
,
1M1M
1M1M
11MM
MM11
,
M1M1
MM11
M1M1
1MM1
,
M11M
1MM1
M11M
11MM
,
MM11
11MM
MM11
1M1M
,
1M1M
M11M
MM11
1MM1
,
M1MM
1MM1
MM1M
M1M1
,
1200
0312
2013
3201
,
1320
0132
1203
1302
,
2013
3201
1320
0132
,
1203
1302
0213
0321
,
1230
2310
3002
0203
,
1302
2013
3120
1032
,
0213
2301
3210
1320
,
1032
0213
2301
3010
,
1100
1001
1100
1001
0011
1100
1100
1001
,
0101
1001
0110
1100
0011
1100
0011
0101
,
1100
1100
0011
0011
0110
0110
1100
1100
,
0110
0110
0011
0011
0110
0110
1100
0110
,
1000
0100
1000
0010
1000
0001
0100
0010
0100
0001
1010
0001
0100
0010
0100
0001
,
0100
0010
0100
0001
0100
1000
0100
0010
0100
0001
0110
1000
0100
0010
0001
1000
,
0100
0010
0001
0010
0100
1000
0100
1000
0100
1000
1100
0001
1100
0001
0010
0100
,
0010
0001
0010
0100
0010
0001
0010
0100
0010
0001
1100
0001
1100
0001
0010
0100
,
1000
0001
0100
1000
0010
0001
0100
1000
0010
0100
0001
1000
0010
0001
0100
0010
,
1000
0100
0010
0001
1000
0100
0010
0001
1000
0100
0010
0001
1000
0100
0010
0001
1000
0100
0010
0001
1000
0100
0010
0000
1000
0000
0100
0000
0001
0000
0010
0000
,
1000
0000
0000
0000
0100
0000
0000
0000
0001
0000
0000
0000
0010
0000
0000
0000
0100
0000
0000
0000
0010
0000
0000
0000
0001
0000
0000
0000
0010
0000
0000
0000
0100
0000
0000
0000
1000
0000
0000
0000
0100
0000
0000
0000
0010
0000
0000
0000
MM01
MM00
MM00
MM00
MM10
MM00
MM00
MM00
MM01
MM00
MM00
MM00
MM10
MM00
MM00
MM00
,
1100
MM00
MM00
MM00
MM00
MM00
MM00
MM00
MM00
MM00
MM00
MM00
MM00
0000
0000
0000
0000
0000
0000
0000
0000
0000
0000
0000
0000
0000
0000
0000
0000
0000
0000
0000
0000
0000
0000
0000
0000
0000
0000
0000
0000
0000
0000
0000
0000
0000
0000
0000
0000
0000
0000
0000
0000
0000
0000
0000
0000
0000
0000
0000
0000
0000
0000
0000
,
0000
0000
0000
0000
0000
0000
0000
0000
1000
0000
0100
0000
1000
0000
0100
0000
0010
0001
0010
0000
0110
0000
0000
0000
0100
0000
0010
0000
0100
0000
0001
0000
,
0100
0001
0100
0000
0110
0000
0000
0000
0001
0000
0010
0000
0001
0000
1000
0000
0001
1000
0001
0000
1001
0000
0000
0000
1000
0100
0000
0000
0100
0010
0000
0000
,
0001
0010
0000
0000
0100
1000
0000
0000
1000
0000
0001
0000
1000
0000
0001
0000
0010
0100
0010
0000
1100
0000
0000
0000
0001
0000
1000
0000
0001
0000
0100
0000
,
0010
0100
1000
0000
0101
0000
0000
0000
0001
0000
0100
0000
1000
0000
0100
0000
0001
0010
0100
0000
1100
0000
0000
0000
0001
0010
0000
0000
0010
0100
0000
0000
,
0100
1000
0000
0000
1000
0100
0000
0000
0100
0000
0001
0000
0100
0000
1000
0000
0100
0001
0100
0000
1001
0000
0000
0000
0001
0000
0010
0000
0100
0000
1000
0000
,
0001
0010
0100
0000
1100
0000
0000
0000
0001
0000
0010
0000
1100
0000
0010
0000
1100
0010
0001
0000
0011
0000
0000
0000
1000
0100
0000
0000
0100
0010
0000
0000
,
0001
1000
0000
0000
1000
0001
0000
0000
0100
0000
0010
0000
0100
0000
0010
0000
0100
1000
0100
0000
0101
0000
0000
0000
0010
0000
0100
0000
0010
0000
0100
0000
,
0010
0001
0010
0000
1010
0000
0000
0000
1000
0000
0001
0000
1001
0000
0001
0000
1001
0001
1000
0000
1001
0000
0000
0000
0001
1000
0000
0000
1000
0001
0000
0000
,
0001
1000
0000
0000
1000
0001
0000
0000
0100
0000
1000
0000
0100
0000
1000
0000
0110
0001
0010
0000
1010
0000
0000
0000
0010
0000
0001
0000
0010
0000
0001
0000
,
0010
1000
0010
0000
0101
0000
0000
0000
0001
0000
0010
0000
1100
0000
0001
0000
0110
1000
0100
0000
0110
0000
0000
0000
1000
0100
0000
0000
1000
0001
0000
0000
,
1000
0010
0000
0000
1000
0100
0000
0000
0010
0000
1000
0000
0100
0000
0010
0000
0001
0010
1000
0000
0011
0000
0000
0000
0001
0000
0100
0000
1000
0000
0010
0000
,
1000
0100
0001
0000
0011
0000
0000
0000
0001
0000
1000
0000
0011
0000
1000
0000
0011
0100
1000
0000
0011
0000
0000
0000
0100
0010
0000
0000
0100
1000
0000
0000
,
0100
0010
0000
0000
0100
0001
0000
0000
0100
0000
0000
0000
0100
0000
0000
0000
0100
0000
0000
0000
1000
0000
0100
0000
0010
0000
0001
0000
0000
0000
0011
0000
,
0000
0001
0010
0100
1000
0000
1000
0000
1000
0000
1000
0100
0010
0001
0000
1100
,
0000
0100
0010
0100
0001
0000
0001
0000
0001
0000
0001
0010
0100
1000
0000
1010
,
0000
0000
0000
0110
0000
0000
0000
0000
0101
0000
0000
0000
1010
0000
0000
0000
1010
0000
0000
0000
0110
0000
0000
0000
0101
0000
0000
0000
0000
0000
0100
0000
,
0010
0000
0000
0001
0100
1000
0100
0010
0100
1000
0100
0010
0100
0001
0100
0010
,
0100
0001
0100
0010
1000
0100
1000
0010
1000
0001
1000
0100
1000
0010
1000
0001
,
1000
0100
1000
0001
0010
0100
0010
1000
0010
0001
0010
0100
0010
1000
0010
0001
,
0010
0100
0010
1000
0001
0010
0001
0100
0001
1000
0001
0010
0001
0100
0001
1000
,
0001
0010
0001
0100
0002
0010
0100
0010
0203
1000
0010
1000
0320
0100
0001
0100
,
0032
0010
1000
0010
2003
0001
0100
0001
3200
1000
0001
1000
0302
0100
1000
0100
,
2003
0001
0010
0001
3020
0100
1000
0001
0230
0010
0001
0010
0302
1000
0100
0010
,
2003
0001
0010
0100
3002
0010
0100
1000
0203
0010
0001
0010
0320
0100
1000
0100
,
2030
0100
0010
0100
3002
0010
0100
1000
0023
0100
1000
0001
0230
1000
0010
0001
,
2300
0100
0010
0001
3200
0001
1000
0001
0320
0100
1000
0100
0032
0010
0100
1000
,
0203
0010
0001
1000
0320
1000
0100
1000
0032
0100
1000
0100
2003
0010
0001
0010
,
3200
0001
1000
0001
0320
1000
0100
0001
2030
0010
0100
0010
3200
0001
1000
0010
,
0302
0010
0100
1003
0100
0000
0100
0000
0100
0000
0100
0000
0100
0010
0000
0000
,
0110
0000
0000
0000
0010
0000
0010
0000
0010
0000
0010
0000
0010
0001
0000
0000
,
0011
0000
0000
0000
0100
0000
0100
0000
0100
0000
0100
0000
0100
0010
0000
0000
,
0110
0000
0000
0000
0001
0010
0100
0000
0001
0010
1000
0000
0010
0001
1000
0000
,
0110
0000
0000
0000
0100
0000
1000
0000
0010
0000
0100
0000
0001
0100
0000
0000
,
0011
0000
0000
0000
1000
0000
0100
0000
0010
0000
0001
0000
1000
0100
0000
0000
,
0110
0000
0000
0000
1000
0000
0010
0000
0001
0000
0010
0000
1000
0010
0000
0000
,
0001
0000
0000
0000
1000
0100
0010
0000
0100
0010
0001
0000
0010
0001
1000
0000
,
0110
0000
0000
0000
0001
0000
0010
0000
0100
0000
0010
0000
0001
0100
0000
0000
,
0011
0000
0000
0000
0100
0000
1000
0000
0100
0000
0010
0000
0100
1000
0000
0000
,
0011
0000
0000
0000
0100
0000
0001
0000
1000
0000
0100
0000
0001
0010
0000
0000
,
0110
0000
0000
0000
0001
0010
0100
0000
0010
0100
1000
0000
0100
1000
0001
0000
,
1100
0000
0000
0000
1000
0000
0001
0000
1000
0000
0010
0000
1000
0100
0000
0000
,
1100
0000
0000
0000
0002
0000
1000
0000
0100
0000
0010
0000
1000
0010
0000
0000
,
0010
0000
0000
0000
0010
0000
0100
0000
1000
0000
0010
0000
0100
1000
0000
0000
,
0100
0000
0000
0000
1000
0100
0010
0000
0010
0100
1000
0000
1000
0100
0010
0000
,
1000
0000
0000
0000
0100
0000
1000
0000
0010
0000
1000
0000
0100
0010
0000
0000
,
1000
0000
0000
0000
0100
0000
1000
0000
0010
0000
0100
0000
1000
0010
0000
0000
,
0100
0000
0000
0000
0100
0000
1000
0000
0100
0000
0010
0000
0100
1000
0000
0000
,
0100
0000
0000
0000
1000
0010
0100
0000
0010
1000
0100
0000
1000
0010
0100
0000
,
1003
000M
000M
000M
000M
000M
000M
000M
000M
000M
000M
000M
0001
000M
000M
000M
000M
000M
000M
000M
000M
000M
000M
0000
0000
0000
0000
0000
0000
0000
0000
0000
0000
0000
0000
0000
0000
0000
0000
0000
0000
0000
0000
0000
0000
0000
0000
0000
0000
0000
0000
0000
0000
0000
0000
0000
0000
0000
0000
0000
0000
0000
0000
0000
,
0000
0000
0000
0000
0002
0100
1000
0100
,
0010
0100
0000
0000
1000
0000
0000
0000
1000
0000
0100
0000
0010
0000
0100
0000
,
1000
0100
0000
0000
0010
0000
0000
0000
0100
0000
1000
0000
0100
0000
0010
0000
,
0100
1000
0000
0000
0103
0000
0000
0000
0000
0010
0100
0010
0100
0010
1000
0100
,
0010
0001
0010
0001
0010
0100
0010
0100
1000
0100
0010
0001
0010
0100
2000
0100
,
3020
0100
0032
0100
2003
0100
3020
0001
2030
0001
3020
0100
2030
0010
3200
0001
,
0320
1000
0230
0001
0320
1000
0230
0001
0320
1000
0230
0001
0320
1000
0230
0010
,
0302
1000
0023
0100
0032
1000
0023
0100
0032
1000
0023
0100
0032
1000
0023
0100
,
2030
0100
3002
0100
0023
1000
0230
0010
1300
0000
0000
0000
1000
0100
1000
0100
,
1000
0001
1000
0000
0110
0000
0000
0000
0001
0000
0010
0000
0001
0000
0010
0000
0001
1000
0001
0000
0110
0000
0000
0000
1000
0000
0001
0000
0100
0000
1000
0000
,
0001
0100
1000
0000
0010
0000
0000
0000
1000
0010
0000
0000
1000
0100
0000
0000
0001
0100
0000
0000
0001
0010
0000
0000
0001
0000
0100
0000
1000
0000
0001
0000
,
0100
0010
0100
0000
0011
0000
0000
0000
0001
0000
1000
0000
0100
0000
0010
0000
1000
0100
0010
0000
0011
0000
0000
0000
0001
0000
0010
0000
1000
0000
0100
0000
,
0001
1000
0010
0000
0011
0000
0000
0000
1000
0001
0000
0000
1000
0001
0000
0000
1000
0001
0000
0000
1000
0001
0000
0000
0010
0000
0100
0000
1000
0000
0010
0000
,
0100
0010
0001
0000
1100
0000
0000
0000
1000
0000
0001
0000
0100
0000
0010
0000
1000
0100
0010
0000
0011
0000
0000
0000
0010
0000
0001
0000
1000
0000
0010
0000
,
0100
0001
0010
0000
1100
0000
0000
0000
0001
1000
0000
0000
0001
1000
0000
0000
0001
1000
0000
0000
0001
1000
0000
0000
0001
0000
0010
0000
0100
0000
1000
0000
,
0100
0010
0100
0000
0011
0000
0000
0000
1000
0000
0001
0000
0010
0000
1000
0000
0100
1000
0001
0000
0110
0000
0000
0000
0001
0000
0010
0000
0100
0000
0010
0000
,
1000
0100
0010
0000
0011
0000
0000
0000
0100
0010
0000
0000
0100
0010
0000
0000
0100
0010
0000
0000
0100
0010
0000
0000
0001
0000
1000
0000
0100
0000
0010
0000
,
0001
1000
0001
0000
1100
0000
0000
0000
1000
0000
0001
0000
0010
0000
0100
0000
1000
0001
1000
0000
0011
0000
0000
0000
0001
0000
1000
0000
0011
0000
0100
0000
,
0011
1000
0100
0000
0001
0000
0000
0000
0001
0010
0000
0000
0010
0100
0000
0000
0100
1000
0000
0000
0100
0001
0000
0000
1100
0000
0010
0000
1100
0000
0010
0000
,
0100
1000
0001
0000
0010
0000
0000
0000
1000
0000
0001
0000
0100
0000
0001
0000
0010
0001
1000
0000
0100
0000
0000
0000
1000
0000
0010
0000
0101
0000
0010
0000
,
1100
0001
0100
0000
0010
0000
0000
0000
0100
0010
0000
0000
0001
0010
0000
0000
1000
0010
0000
0000
0100
0010
0000
0000
1000
0000
0001
0000
0100
0000
0010
0000
,
0001
0100
0010
0000
1000
0000
0000
0000
0001
0000
1000
0000
0001
0000
0100
0000
0001
0010
0100
0000
0001
0000
0000
0000
1000
0000
0100
0000
0011
0000
0100
0000
,
1010
0001
0100
0000
0001
0000
0000
0000
0010
0100
0000
0000
1000
0100
0000
0000
0001
0100
0000
0000
1000
0100
0000
0000
1000
0000
0100
0000
0010
0000
0100
0000
,
1000
0001
1000
0000
0001
0000
0000
0000
1000
0000
0100
0000
0010
0000
0100
0000
0001
1000
0100
0000
0010
0000
0000
0000
0011
0000
1000
0000
0011
0000
1000
0000
,
0011
0100
1000
0000
0011
0000
0000
0000
1100
0010
0000
0000
0011
0100
0000
0000
1100
0010
0000
0000
0011
0100
0000
0000
0101
0000
0010
0000
1000
0000
0100
0000
,
0010
1000
0100
0000
0011
0000
0000
0000
1010
0000
0100
0000
0010
0000
0001
0000
1000
0100
0010
0000
1100
0000
0000
0000
1000
0000
0100
0000
0011
0000
1000
0000
,
0011
1000
0100
0000
0010
0000
0000
0000
0101
0010
0000
0000
1010
0100
0000
0000
0101
0010
0000
0000
1010
0100
0000
0000
0002
0000
1000
0000
0100
0000
1000
0000
,
0023
0100
1000
0000
1000
0000
0000
0000
0230
0000
1000
0000
0010
0000
0001
0000
2300
0010
0001
0000
0010
0000
0000
0000
3200
0000
0001
0000
1000
0000
0001
0000
,
0320
1000
0100
0000
0001
0000
0000
0000
0230
1000
0000
0000
0010
0001
0000
0000
2300
0010
0000
0000
0010
0001
0000
0000
3200
0000
0010
0000
0001
0000
1000
0000
,
0320
1000
0001
0000
0100
0000
0000
0000
0032
0000
0100
0000
1000
0000
0100
0000
0023
1000
0100
0000
1000
0000
0000
0000
0230
0000
0010
0000
0001
0000
1000
0000
,
0320
1000
0100
0000
0001
0000
0000
0000
0032
0100
0000
0000
1000
0100
0000
0000
0023
0100
0000
0000
1000
0100
0000
0000
0230
0000
0001
0000
1000
0000
0001
0000
,
0320
1000
0001
0000
0100
0000
0000
0000
0032
0000
1000
0000
0100
0000
1000
0000
0023
0100
1000
0000
0100
0000
0000
0000
0230
0000
0010
0000
1000
0000
0001
0000
,
0320
1000
0100
0000
0001
0000
0000
0000
2030
0100
0000
0000
0010
0001
0000
0000
3200
0010
0000
0000
0001
1000
0000
0000
0300
0000
0000
0000
0000
0000
0000
0000
,
M00M
MM0M
M0MM
M00M
,
0000
0MM0
M00M
0MM0
,
M00M
0MM0
0000
0000
;
