#TITLE:ARIA;
#SUBTITLE:Kara no Kyoukai 4th chapter Theme;
#ARTIST:Kalafina;
#TITLETRANSLIT:;
#SUBTITLETRANSLIT:;
#ARTISTTRANSLIT:;
#CREDIT:ALICE_;
#BANNER:ARIA.png;
#BACKGROUND:ARIA.jpg;
#LYRICSPATH:;
#CDTITLE:cdtitle.png;
#MUSIC:ARIA.mp3;
#OFFSET:-0.380;
#SAMPLESTART:101.360;
#SAMPLELENGTH:21.220;
#SELECTABLE:YES;
#BPMS:0.000=124.000;
#STOPS:;
#BGCHANGES:;
// cache tags:
#FIRSTBEAT:0.000;
#LASTBEAT:640.000;
#SONGFILENAME:Songs/alice 4th complete step/ARIA/ARIA.sm;
#HASMUSIC:1;
#HASBANNER:1;
#MUSICLENGTH:324.318;
// end cache tags

//---------------dance-single - ----------------
#NOTES:
     dance-single:
     :
     Hard:
     6:
     0.373,0.461,0.086,0.102,0.005,786.000,28.000,33.000,0.000,0.000:
0000
0000
0000
0000
,
0000
0000
0000
0000
,
0000
0000
0000
0000
,
1000
0100
0010
0001
0001
0100
0010
0000
,
0010
1000
0100
0010
0100
0000
1000
0001
,
0100
0010
0100
0000
2002
0000
0000
0000
,
0000
0000
0000
0000
,
3003
0000
0000
0000
,
0000
0000
0000
0000
,
1000
0010
0100
0001
0001
0010
0100
0000
,
0100
1000
0010
0100
0010
0000
1000
0001
,
0010
0000
0000
0001
0000
0000
0200
0000
0000
0000
0000
0000
0000
0000
0000
0000
,
0000
0000
0000
0000
,
0000
0000
0000
0000
0000
0000
0000
0300
,
0000
0000
0000
0000
,
1000
0001
0100
0001
0010
0000
0000
0000
,
0000
0000
0001
0000
1000
0100
0001
0000
,
0100
0000
1000
0010
,
0001
1000
0100
1000
0010
0000
0000
0000
,
0000
0000
0100
0000
0001
0010
1000
0000
,
0010
0000
0001
1000
,
0010
0100
0001
1000
0000
0000
0000
0000
,
0000
0000
0000
0000
0100
0010
1000
0001
,
0000
0000
0000
0000
,
1000
0100
0010
0001
0001
0100
0010
0000
,
0010
1000
0100
1000
0001
0000
1000
0001
,
0100
0000
0000
0010
0000
0000
2000
0000
0000
0000
0000
0000
0000
0000
0000
0000
,
3001
0000
0100
0001
,
0000
0000
0000
0000
1000
0100
0010
0001
,
0000
0000
0100
1000
,
1100
0000
1000
0001
,
0000
0000
0000
0000
0001
0010
0100
1000
,
0000
0000
0001
0010
,
1001
0000
0100
0010
,
0000
0000
0000
0000
1000
0001
0100
0001
,
0000
0000
0010
1000
,
0101
0010
0100
0010
1000
0000
0001
0000
,
0100
0010
2000
0000
,
0000
3000
0000
0100
,
1001
0010
0100
1000
0100
0000
1000
0010
,
0100
0001
0100
0000
0001
0100
1000
0100
,
0001
0010
0100
0000
1000
0001
0100
0000
,
1000
0010
0100
0001
0010
0000
0001
0010
,
0100
1000
0010
0000
1000
0100
0001
0100
,
1000
0010
0200
0000
0302
0000
2003
3000
,
0001
0010
0001
0100
0001
0000
1000
0100
,
1000
0010
0100
0000
0001
0100
1000
0010
,
0001
0100
0010
0000
0010
1000
0001
0100
,
0010
1000
0001
0200
,
0300
0000
0100
0000
0001
1000
0010
1000
,
0100
1000
0010
0100
0001
1000
0100
1000
,
0010
0100
0001
2000
,
0000
3000
0100
0000
1001
0000
0100
0010
,
0001
0010
0100
1000
0001
1000
0100
0000
,
1001
0000
1000
0010
0100
0010
1000
0001
,
0100
0001
0010
0000
1100
0000
0001
0100
,
0001
1000
0010
0100
0001
1000
1000
0000
,
0101
0000
1000
0100
0000
1000
0010
0100
,
0001
1000
0100
0000
1010
0000
0100
0001
,
0000
1000
0100
1000
0010
0100
0001
0000
,
0101
0000
0010
1000
0000
0100
1000
0001
,
0100
0001
0010
0000
1100
0000
1000
0001
,
0000
0000
0101
0000
0001
1000
0010
0000
,
1000
0100
1000
0001
1000
0010
0100
0001
,
1000
0001
0010
0000
0100
0000
0000
0100
,
1000
0001
0010
0000
0001
0000
1000
0000
,
0101
0000
0000
0010
1000
0001
0100
0000
,
0001
1000
0020
0000
,
0000
0000
0000
0000
,
0000
0000
0000
0000
,
0000
0000
0000
0000
,
0000
0000
0000
0000
0000
0000
0000
0030
,
0000
0000
0000
0000
,
0000
0000
0000
0000
1000
0100
0010
0001
,
1000
0100
1000
0000
0010
0100
0001
0000
,
0001
0010
0100
1000
0001
0010
0001
0000
,
0100
0010
1000
0000
0001
0100
0001
1000
,
0010
0100
0001
0000
1000
0100
0010
0000
,
1000
0100
1000
0001
0010
0100
1000
0000
,
0001
0100
0010
0000
1001
0100
0010
1000
,
0001
0100
0001
0000
1000
0000
0001
0000
,
1001
0100
0010
0001
1000
0100
1000
0000
,
0001
0000
0010
0000
1000
0100
0010
0001
,
0001
0100
0010
0000
0010
1000
0100
1000
,
0001
0000
0100
0010
1000
0001
0100
0000
,
2002
0000
0000
3003
0001
0100
0010
1000
,
0001
0100
0001
0000
0100
0010
1000
0000
,
1000
0100
0010
0001
1000
0100
1000
0000
,
0010
0100
0001
0000
1000
0100
1000
0001
,
0100
0010
1000
0000
0001
1000
0100
0000
,
0001
0010
0001
1000
0100
0010
0001
0000
,
1000
0010
0100
0000
1001
0100
0010
1000
,
0001
1000
0100
0000
1000
0000
0001
0000
,
1001
0010
0100
1000
0001
0100
0010
0000
,
1000
0000
0010
0100
0001
0000
1000
0000
,
0100
1000
0001
0100
,
0010
1000
0001
0100
0001
0010
0100
0000
,
0100
1000
0001
0100
0110
1000
0001
1000
,
0001
1000
0100
0010
0001
1000
0001
1000
,
0010
0100
0001
1000
0001
1000
0100
0010
,
0001
1000
0001
1000
0010
0100
0001
1000
,
0001
1000
0100
0010
0001
1000
0001
1000
,
0010
0100
0001
1000
0001
1000
0100
0010
,
0001
1000
0001
1000
0010
0100
0001
0100
,
0010
1000
0100
0010
0001
0010
0100
1000
,
0001
0010
0001
0100
0001
1000
0010
1000
,
0100
1000
0001
0100
0001
0010
0001
0010
,
0001
0000
1000
0100
1000
0100
1000
0000
,
0010
1000
0010
1000
0010
0000
0100
0001
,
0100
0001
0100
0000
0010
1000
0010
0100
,
0010
1000
0100
0010
0001
1000
0100
1000
,
0001
0100
0020
0000
0100
0000
1030
0000
,
0002
0000
0103
0000
0001
0010
0001
0100
,
0001
0010
0100
1000
0001
0100
0010
1000
,
0100
0001
0100
1000
0010
0100
0020
0000
,
1000
0000
0130
0000
1001
0000
0010
0001
,
0100
0010
1000
0001
0100
1000
0100
0001
,
0010
1000
0200
0000
0000
0000
0000
0000
,
0000
0000
0000
0300
2000
0000
0000
0000
,
3000
0002
0000
0003
,
0020
0000
0000
0000
,
0000
0000
0000
0000
,
0000
0000
0030
0000
,
0000
0000
0000
0000
,
0000
0000
1000
0000
,
0000
0002
0000
0003
,
0101
0001
1000
0100
1000
0001
1000
0100
,
0010
0001
0100
0010
1000
0100
1000
0001
,
0100
0001
0020
0000
0100
0000
0031
0000
,
1000
0100
1000
0010
0100
0001
1000
0000
,
0001
0010
0100
0000
1000
0001
0010
0001
,
0100
0010
2000
0000
0100
0000
3010
0000
,
1100
1000
0001
0010
0001
1000
0001
0010
,
0100
1000
0010
0100
0001
0010
0001
1000
,
0100
1000
0020
0000
0100
0000
1030
0000
,
0001
0100
0001
0010
0100
1000
0001
0000
,
1000
0010
0100
0000
0001
1000
0100
1000
,
0010
0100
0002
0000
0010
0000
1003
0001
,
0200
0010
0301
0002
,
0100
1003
2000
0100
,
3010
0000
0010
0100
0001
1000
0010
0100
,
0002
1000
0013
0020
,
0100
0031
0002
0100
,
1003
0000
1000
0001
0100
0010
1000
0001
,
0100
0000
0010
1000
0100
1000
0010
0000
,
0100
0001
0010
0001
0100
0000
0001
1000
,
0100
0010
0001
0000
1000
0001
0100
0000
,
1001
0000
0100
1000
0010
0100
0001
0000
,
0010
0001
0100
0000
1001
0000
0010
0001
,
0100
0010
1000
0000
0001
1000
0100
1000
,
0110
0010
1000
0001
0010
0100
1000
0001
,
0100
0010
0100
0001
1001
0001
0100
0001
,
0010
0001
0100
0010
1000
0001
0100
0001
,
1000
0100
0010
0001
0001
0100
0010
0000
,
0010
1000
0100
0010
0100
0000
1000
0001
,
0100
0000
0000
0010
0000
0000
2002
0000
0000
0000
0000
0000
0000
0000
0000
0000
,
0000
0000
0000
0000
,
0000
0000
3003
0000
;

//---------------dance-single - ----------------
#NOTES:
     dance-single:
     :
     Challenge:
     14:
     0.820,1.000,1.000,0.416,0.661,1399.000,328.000,135.000,0.000,28.000:
2002
0000
0000
0000
,
0000
0000
0000
0000
,
0000
0000
3223
0000
0000
0000
0000
0330
,
2000
3200
2300
3002
0023
0032
0203
0000
,
0320
0032
0203
2300
3200
0000
0320
0032
,
0203
2300
3200
0000
2302
0000
0000
0000
,
0000
0000
0000
0000
,
0000
0000
0000
0000
0000
3003
0000
0000
,
0000
0000
0000
0000
,
2000
3200
2300
3002
0023
0032
0203
0000
,
0320
0032
0203
2300
3200
0000
2300
3200
,
0320
0000
0030
0002
0000
0000
0223
0000
0000
0000
0000
0000
0000
0000
0000
0000
,
0000
0000
0000
0000
,
0000
0000
0330
0000
,
0000
0000
0000
0000
,
1000
0100
0010
0001
0000
0000
0000
0000
,
0000
0000
0010
0000
0100
0001
0010
0000
,
0100
0000
0010
0001
,
1000
0100
0010
0001
0000
0000
0000
0000
,
0000
0000
0100
0000
1000
0100
0010
0000
,
0100
0000
0010
0100
,
1001
0100
0010
0001
0000
0000
0000
0000
,
0000
0000
0000
0000
1001
0010
0100
1000
,
0000
0000
0000
0000
,
1010
0100
1000
0001
0000
0000
0000
0000
,
0000
0000
0010
0000
0101
0010
1000
0000
,
0100
0000
1000
0001
,
1001
0100
0010
0001
1100
0000
1001
0000
,
0000
0000
0000
0000
1001
0010
0100
0001
,
0000
0000
0100
1000
,
1001
0100
0010
0001
1100
0000
1001
0000
,
0000
0000
0000
0000
0101
0010
1000
0100
,
0000
0010
1000
0001
,
0101
1000
0100
0010
1100
0000
1001
0000
,
0000
0000
0000
0000
0010
0001
1000
0100
,
0000
0000
0001
0010
,
0101
1000
0100
0010
1000
0000
1001
0000
,
0200
0000
0312
0000
1013
0100
0001
0100
,
1000
0000
0020
0230
,
1301
0100
1000
0010
0001
0010
0101
1000
,
0010
0100
0001
0010
1001
0100
1000
0010
,
1100
0000
0101
0010
1001
0100
0010
1000
,
0101
1000
0010
0000
0110
0000
1001
0100
,
0001
0000
1000
0000
0110
1000
0001
1000
,
0010
0101
0000
0010
,
1100
0001
1000
0100
1010
0000
0101
1000
,
0010
0100
0010
0000
1001
0010
0001
0100
,
0010
1000
0011
0100
0001
0010
0100
1000
,
0102
0010
1000
0010
0103
0000
1010
0001
,
0100
0001
0010
0100
1001
0100
0001
1000
,
0010
1000
0101
1000
0010
0100
0001
1000
,
0011
0100
1001
0010
1100
0010
2002
0000
,
0000
0000
3113
0000
1001
0100
0001
1010
,
1001
0100
0011
0101
1001
0101
0011
0000
,
1001
0001
1000
0101
1001
0010
1100
1010
,
1001
1010
1100
0000
1001
0100
0010
1001
,
0110
1000
0101
1001
0011
1001
0101
0000
,
1001
0010
0100
0110
1001
0010
1100
1010
,
1001
1010
1100
0000
0110
1000
0011
1100
,
1001
0010
1100
1001
1010
1001
1100
0000
,
1001
0010
1100
0011
1001
0100
0011
1001
,
0101
1001
0011
0000
0101
0010
1001
0101
,
1010
0100
1010
1001
1100
1001
1010
0000
,
0110
0001
1001
1100
0101
0010
0101
1001
,
0011
1001
0101
0000
2010
0000
0010
0100
,
0011
3100
1002
0100
0010
0100
1003
0000
,
0120
0000
1000
0101
1001
0130
1001
0010
,
0101
1000
0110
0000
2010
3200
2300
3102
,
0023
0032
1203
0000
0320
0032
0203
2300
,
3201
0000
0000
0000
0320
0000
1032
0000
0203
0000
0300
2000
0000
0000
3120
0000
,
0000
0000
0000
0000
1000
0001
0100
0001
,
1000
0100
0001
1000
0100
1000
0001
0130
,
1000
0001
0100
0010
0001
1000
0100
0010
,
0001
0000
1000
0000
0010
0000
0100
0000
1001
0000
0100
0001
0010
0001
0100
0001
,
1000
0010
0100
0001
1010
0000
0000
0000
0110
0000
1000
0000
0011
0000
0100
0000
,
1001
0000
0010
1000
0100
1000
0010
1000
0001
0100
0010
1000
0101
0000
0000
0000
,
0110
0000
0001
0000
1100
0000
0010
0000
1001
0000
0100
1000
0010
0001
0010
1000
,
0100
0001
1000
0010
0101
0000
0000
0000
1010
0000
0100
0000
0011
0000
0100
0000
,
1001
0000
0010
0001
0100
1000
0100
0001
0010
1000
0001
0100
1010
0000
0000
0000
,
0101
0000
0010
0000
1100
0000
0010
0000
1001
0000
0100
0001
1000
0001
0010
0001
,
0100
0001
1000
0010
0101
0000
0000
0000
1100
0000
0001
0000
0110
0000
0001
0000
,
1001
0000
0010
1000
0001
1000
0100
1000
0010
1000
0001
0100
1010
0000
0000
0000
,
0110
0000
1000
0000
0011
0000
0100
0000
2001
3000
0200
0310
2000
3001
0200
0310
,
2000
3001
0200
0310
2001
0000
0000
3000
0210
0000
0301
0000
2100
0000
3010
0000
,
1002
0000
0023
0130
0002
1003
0020
0130
0002
1003
0020
0130
2002
0000
3003
0000
,
0110
0000
0001
0000
1100
0000
0010
0000
1001
0000
0100
0001
1010
0001
0100
0010
,
1000
0001
0100
0010
1100
0000
0000
0000
0110
0000
1000
0100
0011
0000
0100
0000
,
1001
0000
0010
1000
0101
1000
0010
0100
0001
1000
0010
0100
0011
0000
0000
0000
,
0110
0000
0001
0010
1100
0000
0010
0000
1001
0000
0100
1000
0011
1000
0100
0010
,
1000
0001
0100
0010
1001
0100
1000
0000
0011
0000
0100
0100
1010
0000
0100
0000
,
1001
0000
0010
0001
1100
0001
0010
0100
0001
1000
0010
0100
1001
0010
0001
0000
,
1100
0000
0010
0010
0101
0000
0010
0000
1001
0000
0100
0010
1001
0010
0100
0001
,
1010
0100
0001
1000
0110
0001
0010
0000
1001
0000
0100
0010
1001
0000
0100
0000
,
0011
0000
0100
0010
1001
0100
0010
1000
0101
0010
1000
0001
0110
1000
0100
0000
,
1001
0000
0010
0100
1001
0000
0100
0000
0011
0000
1000
0001
0110
0001
1000
0010
,
0101
0010
1000
0001
0110
0001
0010
0000
1001
0000
0100
1000
0011
0000
0100
0000
,
1100
0000
0001
1000
0110
1000
0001
0100
1010
0100
0001
1000
0110
1000
0100
0000
,
1001
0000
0010
0001
1100
0000
0010
0000
1001
0100
1000
0010
0001
0100
0001
0010
,
1000
0000
0000
0100
0000
0000
0001
0000
0000
0100
0000
0000
1001
0000
0000
0000
0000
0000
0100
0000
0001
0000
0010
0000
0002
0000
0000
0003
0000
0000
0200
0000
0000
0300
0000
0000
0021
0000
0000
0030
0000
0000
2000
0000
0000
3000
0000
0000
,
0101
0000
0000
0010
0000
0000
0100
0000
0000
0010
0000
0000
1000
0000
0000
0001
0000
0000
0100
0000
0000
0001
0000
0000
0010
0000
0000
0001
0000
0000
1000
0000
0000
0100
0000
0000
1002
0000
0000
0003
0000
0000
0010
0000
0001
0000
0100
0000
,
0020
0030
2000
3000
0102
0003
0020
0030
1001
0100
0010
0001
0100
0010
0100
0010
,
1000
0001
0100
0010
2100
3000
0002
0003
0020
0030
0200
0300
2000
3000
0002
0003
,
1010
0000
0100
0001
0010
0001
1000
0010
0101
1000
0010
0100
0001
1000
0100
1000
,
0010
1000
0100
1000
0001
0100
0010
1000
0101
0000
1000
0001
0100
0010
1000
0010
,
0100
0001
0010
0001
0100
1000
0100
0001
0010
0100
0010
0001
1000
0010
0100
0001
,
1010
0000
0000
0000
0000
0000
0100
0000
0001
0000
1000
0000
0020
0000
0000
0030
0000
0000
0200
0000
0000
0300
0000
0000
0002
0000
0000
0003
0000
0000
2000
0000
0000
3000
0000
0000
0021
0000
0000
0000
0000
0000
0000
0000
0000
0030
0000
0000
,
0100
0000
0000
0000
0000
0000
0000
0000
0000
0000
0000
0000
0010
0000
0000
0000
0000
0000
0000
0000
0000
0000
0000
0000
0001
0000
0000
0000
0000
0000
0000
0000
0000
0000
0000
0000
0010
0000
0000
0000
0000
0000
0000
0000
0000
0000
0000
0000
1000
0000
0000
0000
0000
0000
0000
0000
0100
0000
0000
0000
0000
0000
0000
0000
1000
0000
0000
0000
0000
0000
0000
0000
0010
0000
0000
0000
0000
0000
0000
0000
0000
0000
0000
0000
0000
0000
0000
0000
0000
0000
0000
0000
0000
0000
0000
0000
1000
0000
0000
0000
0000
0000
0001
0000
0000
0000
0000
0000
0100
0000
0000
0000
0000
0000
0010
0000
0000
0000
0000
0000
1000
0000
0000
0000
0000
0000
0001
0000
0000
0000
0000
0000
0100
0000
0000
0000
0000
0000
0010
0000
0000
0000
0000
0000
1000
0000
0000
0000
0000
0000
0001
0000
0000
0000
0000
0000
0100
0000
0000
0000
0000
0000
0010
0000
0000
0000
0000
0000
1000
0000
0000
0000
0000
0000
0001
0000
0000
0000
0000
0000
0100
0000
0000
0000
0000
0000
0010
0000
0000
0000
0000
0000
,
1000
0100
0010
0001
0010
0000
0000
0000
0001
1000
0010
0100
0001
1000
0010
0100
0001
1000
0010
0100
0001
1000
0010
0100
0001
0010
0100
1000
0100
0000
0000
0000
,
1000
0000
0000
0000
0000
0000
0010
0000
0000
0000
0000
0000
0100
0000
0000
0000
0000
0000
0001
0000
0000
0000
0000
0000
1000
0000
0000
0000
0000
0000
0010
0000
0000
0000
0000
0000
0100
0000
0000
0000
0000
0000
0001
0000
0000
0000
0000
0000
1000
0000
0000
0000
0000
0000
0010
0000
0000
0000
0000
0000
0100
0000
0000
0000
0000
0000
0001
0000
0000
0000
0000
0000
1000
0000
0000
0000
0000
0000
0010
0000
0000
0000
0000
0000
0100
0000
0000
0000
0000
0000
0001
0000
0000
0000
0000
0000
1000
0000
0000
0000
0000
0000
0010
0000
0000
0000
0000
0000
0100
0000
0000
0000
0000
0000
0001
0000
0000
0000
0000
0000
1000
0000
0000
0000
0000
0000
0010
0000
0000
0000
0000
0000
0100
0000
0000
0000
0000
0000
0001
0000
0000
0000
0000
0000
1000
0000
0000
0000
0000
0000
0000
0000
0100
0000
0000
0000
0000
0000
0000
0000
0010
0000
0000
0000
0000
0000
0000
0000
0100
0000
0000
0000
0000
0000
0000
0000
0010
0000
0000
0000
0000
0000
0000
0000
0001
0000
0000
0000
0000
0000
0000
0000
,
1000
0000
0100
0000
0010
0000
0001
0000
1000
0000
0010
0000
0200
0000
0000
0000
0000
0000
0000
0000
0300
0000
0000
0000
1001
0000
0000
0100
0000
0000
0001
0000
0000
1000
0000
0000
0010
0000
0000
0100
0000
0000
0001
0000
0000
0010
0000
0000
,
1000
0100
0010
0001
0100
0010
1000
0100
1000
0010
0100
0001
0010
0100
1000
0010
,
0101
0010
1000
0001
0100
0010
1000
0100
0001
0010
0100
1000
0010
0100
0001
0010
,
0001
0100
0010
1000
0100
0010
0001
0100
1010
0001
0100
0010
1000
0100
0010
0001
,
0100
1000
0100
0010
1000
0001
0100
0001
0010
0100
0001
0010
1000
0001
1000
0001
,
0110
1000
0010
0100
0001
0010
0001
1000
0010
0100
0001
1000
0100
0001
0010
0001
,
1000
0001
0010
0001
0100
0010
0100
0010
1001
0010
1000
0001
0100
0010
1000
0001
,
0010
0100
1000
0001
0100
0010
0100
1000
0010
0100
0010
0001
1000
0001
0100
0010
,
1001
0100
1000
0001
0010
0001
0100
0010
1000
0100
0010
0001
0100
1000
0100
0010
,
1000
0100
1000
0001
0100
0010
1000
0001
0220
0000
0000
0000
0000
0000
0000
0000
,
0000
0000
0000
0000
,
0000
0000
0000
0000
,
0000
0000
0000
0330
1000
0100
0010
0001
,
0000
0000
0000
0100
,
0010
1000
0001
0000
0010
0000
0000
0000
,
0100
0000
0010
0000
1001
0100
0010
0001
,
0000
0000
0200
0000
0000
0000
0301
1000
,
0001
0010
0100
1000
0001
0010
0100
1000
0001
0010
0100
1000
0001
0010
0100
1000
0001
0010
0100
1000
0001
0010
0100
1000
0011
0000
0000
0000
0100
0000
0010
0000
,
1001
0010
0100
0010
0001
1000
0100
0010
1001
0000
0101
1000
0011
1000
0101
1000
,
0011
0100
0001
1000
0110
0000
0001
0100
1000
0000
0011
0000
1100
0001
0110
0000
,
1001
0000
1100
0001
1010
0001
1100
0001
1010
0100
0001
1000
0110
0000
1000
0001
,
1100
0000
1001
0100
0011
0000
0100
0000
1001
0000
0100
0010
0101
0010
1100
0010
,
0101
1000
0010
0100
1001
0000
0001
0010
1100
0000
1010
0000
0101
1000
0100
0010
,
1001
0000
0101
1000
0011
0100
0011
1000
0110
0001
1000
0010
0101
0000
1010
0000
,
1001
0100
0010
0000
1100
0001
0110
0000
1001
0000
1010
0001
1100
0010
1100
0001
,
0110
1000
0001
0100
1010
0000
0110
0000
1001
0010
0100
1000
0011
0100
0001
0000
,
1001
0000
1100
0001
1010
0001
1100
0010
1000
0001
0110
1000
0011
0000
0100
1000
,
1010
0000
0100
0001
1001
0000
0110
0000
1001
0000
0011
1000
0101
1000
0011
0100
,
0001
1000
0110
0001
1100
0000
0010
0100
1001
0010
0100
0001
1010
0100
0011
0000
,
1100
0000
0010
0100
0001
0010
0100
1000
0100
0010
1000
0010
0101
0000
0011
0000
,
1000
0100
1000
0010
0001
0100
0010
0000
1001
0000
0100
0010
1000
0100
0010
0001
,
0100
1000
0010
0001
0110
0000
1100
0000
0010
0001
1000
0000
0100
0010
1000
0100
,
1001
0000
0100
0010
1000
0010
0001
0010
0100
1000
0100
0010
1001
0000
1100
0000
,
0010
1001
0100
0000
1001
0100
0010
0000
1001
0000
0100
1000
0100
0010
1000
0001
,
0100
0010
1000
0100
0011
0000
1100
0000
0010
0001
0100
1000
0001
0010
0100
1000
,
0011
0000
0101
1000
0100
0010
1000
0100
0010
0100
1000
0010
0100
0000
1001
0000
,
0010
0001
0100
0010
1000
0001
0100
0000
1100
0000
1010
0001
0010
0100
0001
0010
,
0100
0010
0001
0100
0010
0000
1001
0000
0100
1000
0010
0100
0001
1000
0010
0000
,
0101
0000
1000
0010
0100
0001
0100
0010
1000
0010
0100
0001
1010
0000
1100
0000
,
0001
0010
0100
0000
1001
0010
0100
0000
1001
0000
0001
0100
0010
1000
0010
0100
,
0001
0100
0010
1000
0101
0000
1010
0000
0110
0001
1000
0100
1000
0001
0110
0000
,
1002
0000
0100
0010
1000
0000
0100
0010
0100
1000
0010
0103
2010
0000
0100
0000
,
0001
0010
0001
0000
0100
0010
3100
0000
1020
0000
0100
0001
1000
0100
0001
0100
,
1000
0001
0100
1030
0201
0000
0010
0000
1000
0010
0301
0000
1100
0010
0100
0001
,
2020
0230
0320
0032
0203
0320
0230
0300
,
0200
0302
0023
0230
0320
0030
0020
0230
,
0320
0000
0030
0002
0000
0000
0200
0000
0000
0000
0000
0000
0000
0000
0000
0000
,
0000
0000
0000
0000
,
0000
0000
0000
0000
0000
0000
3303
0000
2000
0000
3200
0000
0000
0000
0000
0320
,
0000
0000
0000
0032
0000
0000
0000
0000
,
0000
0000
0000
0000
,
0003
0000
0000
0000
;
