#TITLE:Moonlight;
#SUBTITLE:;
#ARTIST:Banya;
#TITLETRANSLIT:;
#SUBTITLETRANSLIT:;
#ARTISTTRANSLIT:;
#CREDIT:;
#BANNER:Moonlight-banner.png;
#BACKGROUND:Moonlight-bg.png;
#LYRICSPATH:;
#CDTITLE:!kommi-cdtitle.png;
#MUSIC:Moonlight.mp3;
#OFFSET:-2.860;
#SAMPLESTART:22.811;
#SAMPLELENGTH:12.000;
#SELECTABLE:YES;
#BPMS:0.000=180.020;
#STOPS:;
#BGCHANGES:;
// cache tags:
#FIRSTBEAT:0.000;
#LASTBEAT:292.000;
#SONGFILENAME:Songs/KBU/Moonlight (Kommisar)/blank.sm;
#HASMUSIC:1;
#HASBANNER:1;
#MUSICLENGTH:102.354;
// end cache tags

//---------------dance-single - ----------------
#NOTES:
     dance-single:
     :
     Hard:
     13:
     1.000,1.000,1.000,0.918,1.000,770.000,221.000,94.000,0.000,10.000:
0001
1100
0001
1100
,
0001
0000
1100
0000
1100
0000
1100
0000
1100
0000
1100
0000
1100
0000
1100
0001
,
1000
0100
0010
0001
1000
0100
0010
0001
1000
0100
0010
0001
1000
0100
0010
0001
1000
0000
0010
0000
0100
0000
0001
0000
0100
0000
0001
0000
1000
0000
0010
0000
,
1000
0100
0010
0100
1001
0010
0100
0010
0001
0100
0010
0001
1100
0010
0001
0010
,
0100
0010
0100
1000
0101
0010
0100
1000
0001
0000
0110
0000
0110
0000
0000
0000
,
0001
0010
0100
0010
1001
0010
0100
1000
0010
0100
0010
0100
1001
0100
0010
0100
,
1000
0100
0010
0100
1010
0001
0010
0100
1000
0000
0110
0000
0110
0000
0000
0000
,
0100
0010
0100
1000
0110
1000
0100
0010
0001
0010
0001
1000
0110
1000
0010
1000
,
0100
0001
0010
0100
0011
0100
1000
0010
0100
0000
1001
0000
1001
0000
0000
0000
,
1000
0100
0010
0001
1010
0100
0010
1000
0010
1000
0110
0000
0110
0000
0110
0000
,
0001
0010
0100
0010
0101
1000
0100
0010
0001
0001
0001
0001
1100
0000
1100
0000
,
0010
1100
0001
0110
1000
0101
0010
1100
,
0010
0000
1100
0000
0010
0000
0101
0000
0010
0000
0101
0001
0100
0000
1010
0000
,
0100
0000
1001
1000
0100
0000
0011
0000
1000
0000
0011
0000
1000
0000
0101
0000
,
1000
0000
0110
0000
0001
0000
1010
0000
0100
0000
1001
1000
0011
0000
1100
0000
,
0001
0010
1100
0010
0001
0010
1100
0010
0001
0010
1100
0010
0001
0010
1100
0010
,
1001
1001
1001
1001
2002
0000
3003
0000
,
1000
0000
0001
0000
1000
0000
0001
0000
1000
0000
0001
0000
1000
0000
0001
0000
1000
0100
0010
0001
1000
0100
0010
0001
1000
0100
0010
0001
1000
0100
0010
0001
,
1000
0000
0021
0030
0000
0000
1000
0000
0120
0030
0000
0000
1000
0000
0012
0003
,
0000
0000
1100
0000
1100
0000
1001
0010
1001
0000
0000
0000
1001
0000
0000
0000
,
0001
0000
0210
0300
0000
0000
0001
0000
2100
3000
0000
0000
0001
0000
1020
0030
,
0000
0000
1001
0000
1001
0000
0011
0100
0011
0000
0000
0000
0011
0000
0000
0000
,
0100
0000
1002
0003
0000
0000
0100
0000
2001
3000
0000
0000
0010
0000
2100
3000
,
0000
0000
0110
0000
0110
0000
1001
0001
0010
0100
1000
0100
0010
0000
0001
0000
,
1001
0000
1000
0100
1010
0000
0001
0010
1100
0000
0010
0100
2002
3003
0110
0000
,
0110
0000
0100
0010
0001
0000
0100
0010
1001
0010
0100
0000
1010
0000
0100
0000
,
0110
0000
0100
0010
0101
0000
0010
0100
1010
0001
0100
0010
2002
3003
0100
0000
,
0110
0000
0001
0100
0011
0000
0010
1000
0101
0000
0010
0100
1010
0010
0010
0010
,
0002
0000
0000
0000
,
1003
0000
0001
0000
1000
0000
0001
0000
1000
0000
0001
0000
1000
0000
0001
0000
1000
0100
0010
0001
1000
0100
0010
0001
1000
0100
0010
0001
1000
0100
0010
0001
,
1000
0000
0011
0000
0100
0000
0000
0000
1020
0030
0010
0000
0000
0000
0001
0000
,
0000
0000
0011
0000
0100
0000
0010
0000
1200
0300
0010
0000
2001
3001
0100
0000
,
0001
0000
1100
0000
0010
0000
0000
0000
0102
0003
1000
0000
0000
0000
0010
0000
,
0000
0000
1010
0000
0100
0000
0000
0000
1200
0300
0100
0000
0120
0130
0010
0000
,
0002
0000
1100
0000
0010
0003
0100
0000
0021
0030
0100
0000
0000
0000
0100
0000
,
0000
0000
0000
0000
0000
0000
1001
0000
0000
0000
0000
0000
1000
0000
0000
0000
0000
0000
0000
0000
0000
0000
0000
0000
0021
0000
0030
2000
0000
3000
0200
0000
0300
0020
0000
0030
2100
0000
3000
0001
0000
0000
0110
0000
0000
0001
0000
0000
,
2200
0000
0000
0000
0000
0000
3300
0000
0000
0000
0000
0000
0000
0000
0000
0000
0000
0000
0000
0000
0000
0000
0000
0000
0110
0000
0000
0000
0000
0000
0000
0000
0000
0000
0000
0000
0000
0000
0000
0000
0000
0000
0000
0000
0000
0000
0000
0000
0100
0000
0000
0000
0000
0000
0000
0000
0000
0000
0000
0000
0000
0000
0000
0000
0000
0000
0000
0000
0000
0000
0000
0000
0001
0000
0000
0000
0000
0000
0000
0000
0000
0000
0000
0000
0000
0000
0000
0000
0000
0000
0000
0000
0000
0000
0000
0000
1010
0000
0000
0000
0000
0000
0000
0000
0000
0000
0000
0000
0000
0000
0000
0000
0000
0000
0000
0000
0000
0000
0000
0000
0100
0000
0000
0000
0000
0000
0000
0000
0000
0000
0000
0000
0000
0000
0000
0000
0000
0000
0000
0000
0000
0000
0000
0000
0200
0000
0000
0000
0000
0000
0000
0000
0300
0000
0000
0000
0020
0000
0000
0000
0000
0000
0000
0000
0030
0000
0000
0000
2000
0000
0000
0000
0000
0000
0000
0000
3000
0000
0000
0000
0200
0000
0000
0000
0000
0000
0000
0000
0300
0000
0000
0000
,
0020
0030
1100
0000
1000
0000
0010
0000
0110
0000
0001
0000
1100
0010
1000
0001
,
1020
0030
0100
0000
0000
0000
0001
0000
2010
3000
0100
0000
0000
0000
0100
0000
,
0020
0030
1100
0000
0002
0003
0000
0000
1020
0030
0100
0000
0011
0010
1000
0000
,
0200
0000
1010
0000
0000
0000
0001
0000
0011
0000
0010
0000
2300
3000
0010
0000
,
0020
0000
1001
0000
0001
0000
0100
0000
1100
0000
0031
0000
0011
0100
1000
0000
,
2100
0000
0010
0000
0000
0000
0010
3000
0012
0000
0100
0000
0000
0000
0010
0003
,
2100
0000
0110
0000
0010
0000
0000
3000
0102
0000
0010
0000
1000
0100
0013
0000
,
0002
0023
0230
2300
3200
0320
2030
3200
0320
0032
0023
0032
0023
0230
0320
0230
,
2300
3200
2300
3020
0230
0302
0023
0230
0302
0023
0230
2300
3002
0023
0230
2300
,
3210
0300
0011
0000
0000
0000
0010
0000
1100
0000
0010
0000
0000
0000
1000
0000
,
0102
0003
0110
0000
1000
0000
0010
0000
0110
0000
0110
0000
0110
0000
0010
0000
,
2200
0000
3300
0010
0000
0000
0001
0000
0000
0010
0000
0000
1100
0000
0000
0010
0000
0000
0001
0000
0000
0010
0000
0000
0100
0000
0000
1000
0000
0000
0100
0000
0000
0010
0000
0000
0101
0000
0000
1000
0000
0000
0100
0000
0000
0010
0000
0000
,
1000
0000
0001
0000
1000
0000
0001
0000
1000
0000
0001
0000
1000
0000
0001
0000
1000
0100
0010
0001
1000
0100
0010
0001
1000
0100
0010
0001
1000
0100
0010
0001
,
1000
0100
0010
0100
1001
0000
0001
0000
0010
0100
0010
0001
1010
0000
0100
0000
,
0001
0010
0100
1000
0101
0010
0001
1000
0010
0000
1001
0000
1001
0000
0000
0000
,
0010
0100
0010
0001
0110
0000
1000
0000
0100
1000
0100
0010
1001
0000
0100
0000
,
0010
0100
1000
0100
1010
0001
0010
0100
0010
0000
1100
0000
1100
0000
0000
0000
,
0001
0010
0100
1000
0101
0010
0100
0010
0100
1000
0100
0010
1100
0010
1000
0100
,
0010
0001
1000
0001
1100
0010
0100
1000
0100
0000
0011
0000
0011
0000
0000
0000
,
1000
0100
0010
0100
1010
0001
0010
0100
1000
0100
1001
0000
1001
0000
1001
0000
,
0100
0010
0001
0010
0101
1000
0100
0010
0001
0001
0001
0001
0110
0000
0110
0000
,
1000
0110
0001
1010
0100
0011
0100
1010
,
0100
0000
0011
0000
0100
0000
1010
0000
0001
0000
0110
0100
0001
0000
1100
0000
,
0001
0110
1000
0101
0010
1100
0010
1001
,
0010
0000
0101
0000
1000
0000
0110
0000
0001
0000
1010
0010
0100
0000
0011
0000
,
1000
0110
0001
1010
0100
0011
1000
0110
,
0001
0000
1010
0000
0100
0000
1001
0000
0010
0000
1100
1000
0001
0000
0110
0000
,
0001
1100
0010
1001
0100
0011
1000
0101
,
0010
0000
1100
0000
0010
0000
0101
0000
0010
0000
1001
0001
0100
0000
0011
0000
,
1000
0000
0110
0001
1000
0000
0110
0001
1000
0000
0110
0001
1000
0000
0110
0001
,
0100
0000
0011
1100
0100
0000
0011
1100
0100
0000
0011
1100
0001
0001
0001
0001
,
1000
0000
0011
0110
1000
0000
0011
0110
1000
0000
0011
1100
0010
0010
0010
0010
,
0100
0000
1001
0011
0100
0000
1001
0011
0100
0100
0100
0100
0100
0100
0100
0100
,
0011
1000
0100
0010
0100
1000
0100
0010
0001
0010
0100
0010
0001
0010
0100
1000
,
0222
0333
0000
0000
0000
0000
0000
0000
0000
0000
0000
0000
0000
0000
0000
0000
2202
3303
0000
0000
0000
0000
0000
0000
0000
0000
0000
0000
0000
0000
0000
0000
,
2222
0000
0000
0000
,
3333
0000
0000
0000
;
