#TITLE:Grand Theft Autum;
#SUBTITLE:;
#ARTIST:Fall Out Boy;
#TITLETRANSLIT:;
#SUBTITLETRANSLIT:;
#ARTISTTRANSLIT:;
#CREDIT:;
#BANNER:bn.png;
#BACKGROUND:bg.png;
#LYRICSPATH:;
#CDTITLE:bvcdtitle.png;
#MUSIC:Fall Out Boy - Grand Theft Autumn.mp3;
#OFFSET:0.000;
#SAMPLESTART:40.420;
#SAMPLELENGTH:13.000;
#SELECTABLE:YES;
#BPMS:0.000=136.000,245.000=68.000,252.875=272.000,381.250=136.000;
#STOPS:0.000=16.000
,84.000=1.000
,381.250=6.000
;
#BGCHANGES:;
// cache tags:
#FIRSTBEAT:7.000;
#LASTBEAT:433.000;
#SONGFILENAME:Songs/toune/Grand Theft Autumn/Grand Theft Autumn.sm;
#HASMUSIC:1;
#HASBANNER:1;
#MUSICLENGTH:191.509;
// end cache tags

//---------------dance-single - ----------------
#NOTES:
     dance-single:
     :
     Hard:
     8:
     0.501,0.678,0.277,0.089,0.392,601.000,53.000,17.000,0.000,0.000:  // measure 1
0000
0000
0000
0000
,  // measure 2
0000
0000
0000
0000
0000
0000
1000
0010
,  // measure 3
0000
0100
0100
1000
0000
0100
0000
0010
,  // measure 4
0000
0001
1000
0000
0000
0100
0000
0010
,  // measure 5
0000
0100
1000
0100
0000
0010
0000
0100
,  // measure 6
0000
1000
1000
0100
0000
0010
0000
0100
,  // measure 7
1000
0010
0000
0010
0000
0000
0000
0000
,  // measure 8
1000
1000
0100
1000
0100
0000
0010
0000
,  // measure 9
0110
0000
1000
0000
1010
0000
0000
0100
,  // measure 10
0000
0100
0000
0010
0000
0001
0000
1000
,  // measure 11
0000
0100
1000
0100
0000
0100
0000
0010
,  // measure 12
0000
0001
0010
0100
0000
1000
0010
1000
,  // measure 13
0100
0010
0100
1000
0010
1000
0010
0100
,  // measure 14
0010
0100
0010
0001
0010
0100
1000
0100
,  // measure 15
1000
0100
0010
0100
0010
0001
0010
0100
,  // measure 16
0010
0100
0010
0001
0010
0100
1000
0100
,  // measure 17
1000
0100
0010
0100
1000
0010
1000
0010
,  // measure 18
0100
0010
0000
0001
0000
0001
1000
0100
,  // measure 19
0000
1100
0000
0010
0100
0000
0010
0001
,  // measure 20
0010
0100
0000
1000
0000
1000
0100
1000
,  // measure 21
0100
0010
0100
0010
0100
0010
0001
0020
,  // measure 22
0030
1000
0100
0010
0000
0001
0000
1000
,  // measure 23
0000
1000
0100
0000
0010
0001
0000
1000
,  // measure 24
0000
1100
0000
1000
1010
0000
0110
0000
,  // measure 25
0000
0001
0000
0000
0001
1000
0010
0100
,  // measure 26
1100
0000
1000
0010
0100
0000
1000
0110
,  // measure 27
0000
0000
1000
0000
0100
0010
0001
0000
,  // measure 28
0010
0000
0100
0000
0100
1000
0100
1000
,  // measure 29
0100
0010
0100
0010
0100
0010
0001
0010
,  // measure 30
0000
0001
0001
1000
0000
0001
0000
1000
,  // measure 31
1000
0010
1000
0010
0100
1010
0000
0100
,  // measure 32
1000
1100
1010
1100
0010
0010
0110
0001
,  // measure 33
0011
0011
0100
0110
1000
1010
0100
1000
,  // measure 34
0010
0100
0000
1000
0000
1000
0000
0100
,  // measure 35
0010
0100
0010
0001
0010
0100
0000
0100
,  // measure 36
0000
1000
0100
1000
0100
0010
0000
0100
,  // measure 37
0000
0010
0100
1000
0000
0100
0010
0100
,  // measure 38
0000
0001
0010
0100
0010
0100
1000
0100
,  // measure 39
1000
0010
1000
0010
0100
1000
0100
1000
,  // measure 40
0010
0001
0010
0100
0010
0100
0010
0001
,  // measure 41
0010
0011
0000
0100
1000
1100
0010
0100
,  // measure 42
0100
0010
0100
1000
0100
1000
0100
0010
,  // measure 43
0100
0010
0001
0001
1000
0001
1000
0100
,  // measure 44
1000
0100
1000
0010
0100
1000
0010
0100
,  // measure 45
1000
0000
1000
0100
0010
0100
0000
0010
,  // measure 46
0000
0110
1000
2020
0000
0030
3001
0000
,  // measure 47
0110
0000
1000
1000
0100
1000
0000
1000
,  // measure 48
0000
1100
0000
0100
0010
0100
0010
0001
,  // measure 49
0010
0011
0000
0010
0000
1000
0000
0100
,  // measure 50
0000
1100
0000
0010
0000
0100
0000
1000
,  // measure 51
0000
1100
0000
0010
0100
0000
0001
0000
,  // measure 52
0010
0000
0010
0100
1000
0100
1000
0100
,  // measure 53
0000
1100
0000
0000
0010
0100
1000
0100
,  // measure 54
1100
0000
0100
0010
0011
0000
0010
0200
,  // measure 55
0000
0000
1000
0000
0300
0010
0010
0100
,  // measure 56
1000
0100
1000
0100
0010
0000
0110
0001
,  // measure 57
0010
0100
1000
1000
0100
1000
0100
1000
,  // measure 58
0100
1000
0000
1000
0100
0010
0100
1000
,  // measure 59
0100
0000
0000
0100
0000
1000
0100
1000
,  // measure 60
0100
1100
0000
0100
0100
1000
1000
0100
,  // measure 61
1000
0000
1100
1100
0010
0100
0010
0001
,  // measure 62
0010
0000
0000
0000
0000
0000
0000
0000
0100
0000
0001
0000
0000
0010
0000
0100
0000
1000
0000
0100
0000
1000
0000
0000
0000
0000
0000
1100
0000
0010
0000
0100
,  // measure 63
0000
0110
0000
1000
0000
0010
0000
0100
0000
0000
0000
2000
0000
0100
0000
0010
0000
0100
3000
0010
0000
0001
0000
0010
0000
0010
0000
0100
0000
1000
0000
0100
,  // measure 64
0000
1000
0100
1000
0000
0000
0000
1100
0000
0000
0000
0000
0000
0000
0000
0000
0000
0000
0001
0000
0000
0000
0000
0000
0010
0000
0000
0000
0000
0000
0000
0000
,  // measure 65
0000
0100
0000
0000
0000
0000
0000
0000
0000
1000
0000
0000
0000
0000
0000
0000
0000
1000
0000
0000
0000
0000
0000
0000
0000
0100
0000
0000
0000
0000
0000
0000
,  // measure 66
0010
0000
0000
0000
0000
0000
0000
0000
0000
0100
0000
0000
0000
0000
0000
1000
0000
0000
0000
0000
0000
0000
0000
0000
0010
0000
0000
0000
0000
0000
0000
0000
,  // measure 67
1000
0000
0000
0000
0000
0000
0000
0000
0010
0000
0000
0000
0000
0000
0000
0000
0000
0100
0000
0000
0000
0000
0000
0000
0000
1000
0000
0000
0000
0000
0000
0000
,  // measure 68
0000
0100
0000
0000
0000
0000
0000
0000
1000
0000
0000
0000
0000
0000
0000
0000
0000
0100
0000
0000
0000
0000
0000
0000
0000
0010
0000
0000
0000
0000
0000
0000
,  // measure 69
0000
0100
0000
0000
0000
0000
0000
0000
0000
0010
0000
0000
0000
0000
0000
0000
0010
0000
0000
0000
0000
0000
0000
0000
0000
0001
0000
0000
0000
0000
0000
0000
,  // measure 70
0000
0010
0000
0000
0000
0000
0000
0000
0000
0100
0000
0000
0000
0000
0000
0000
1000
0000
0000
0000
0000
0000
0000
0100
0000
0000
0000
0000
0000
0000
0000
0000
,  // measure 71
1000
0000
0000
0000
0000
0000
0000
0000
0000
1100
0000
0000
0000
0000
0000
0000
0010
0000
0000
0000
0000
0000
0000
0000
1000
0000
0000
0000
0000
0000
0000
0000
,  // measure 72
0000
0010
0000
0000
0000
0000
0000
0000
0000
1010
0000
0000
0000
0000
0000
0000
0000
0010
0000
0000
0000
0000
0000
0000
0100
0000
0000
0000
0000
0000
0000
0000
,  // measure 73
0010
0000
0000
0000
0000
0000
0000
0000
0000
0000
0000
0011
0000
0000
0000
0000
0000
0010
0000
0000
0000
0000
0000
0000
0000
0000
0100
0000
0000
0000
0000
0000
,  // measure 74
1000
0000
0000
0000
0000
0000
0000
0000
0000
1000
0100
0000
0000
0000
0000
0000
0000
0100
0000
0000
0000
0000
0000
0000
0000
0000
0010
0000
0000
0000
0000
0000
,  // measure 75
0000
0100
0000
0000
0000
0000
0000
0000
0010
0000
0000
0000
0000
0000
0000
0000
0010
0000
0000
0000
0000
0000
0000
0000
0000
0000
0100
0000
0000
0000
0000
0000
,  // measure 76
0000
1000
0000
0000
0000
0100
0000
0000
0000
1000
0000
0000
0000
0100
0000
0000
,  // measure 77
0000
0000
0010
0000
0000
0000
0000
0000
0000
0000
0001
0000
0000
0000
0000
0000
0000
0000
0010
0000
0000
0000
0000
0000
0000
0000
0000
0100
0000
0000
0000
0000
,  // measure 78
0000
0000
1000
0000
0000
0000
0000
0000
0000
0100
0000
0000
0000
0000
0000
0000
0000
1000
0000
0000
0000
0000
0000
0000
0000
0100
0000
0000
0000
0000
0000
0000
,  // measure 79
0000
1000
0000
0000
0000
0000
0000
0000
0100
0000
0000
0000
0000
0000
0000
0000
0000
1000
0000
0000
0000
0000
0000
0000
0100
0000
0000
0000
0000
0000
0000
0000
,  // measure 80
1000
0000
0000
0000
0000
0000
0000
0000
0000
2200
0000
0000
0000
0000
0000
0000
0000
0000
0000
0000
0000
0000
0000
0000
0300
0000
0000
0000
0000
0000
0000
0000
,  // measure 81
0000
0000
0000
0010
0000
0000
0000
0000
0000
0000
0000
0010
0000
0000
0000
0000
0000
0000
0000
0000
0001
0000
0000
0000
0000
0000
0000
0010
0000
0000
0000
0000
,  // measure 82
0000
0000
0000
0100
0000
0000
0000
0000
0000
0000
0000
0001
0000
0000
0000
0000
0000
0000
0000
0001
0000
0000
0000
0000
0000
0000
0000
0100
0000
0000
0000
0000
,  // measure 83
0000
0000
0000
0001
0000
0000
0000
0000
0000
0000
0000
0000
0000
0010
0000
0000
0000
0000
0000
0000
0100
0000
0000
0000
0000
0000
0000
0010
0000
0000
0000
0000
,  // measure 84
0000
0000
0000
0001
0000
0000
0000
0000
0000
0000
0000
0010
0000
0000
0000
0000
0000
0000
0000
0100
0000
0000
0000
0000
0000
0000
0000
0001
0000
0000
0000
0000
,  // measure 85
0000
0000
0100
0000
0000
0000
0000
0000
0000
0000
0001
0000
0000
0000
0000
0000
0000
0000
0000
0000
0000
0000
0000
0000
0000
0010
0000
0000
0000
0000
0000
0000
,  // measure 86
0000
0100
0000
0000
0000
0000
0000
0000
0000
0000
0010
0000
0000
0000
0000
0000
0000
0000
0000
0100
0000
0000
0000
0000
0000
0000
0000
0000
0100
0000
0000
0000
,  // measure 87
0000
0000
0000
0000
0000
0001
0000
0000
0000
0000
0000
0000
0000
0000
0010
0000
0000
0000
0000
0000
0000
0100
0000
0000
0000
0000
0000
0000
0001
0000
0000
0000
,  // measure 88
0000
0000
0000
0000
3000
0000
0000
0000
0000
0000
1001
0000
0000
0000
0000
0000
0000
0000
0000
0000
0000
0000
0000
0001
0000
0000
0000
0000
0000
0000
0000
0000
,  // measure 89
1000
0000
0000
0000
0000
0000
0000
0000
0000
0100
0000
0000
0000
0000
0000
0000
0000
1000
0000
0000
0000
0000
0000
0000
0000
0000
0010
0000
0000
0000
0000
0000
,  // measure 90
0000
0000
0100
0000
0000
0000
0000
0000
0000
0000
1000
0000
0000
0000
0000
0000
0000
0000
1000
0000
0000
0000
0000
0000
0000
0000
0000
0100
0000
0000
0000
0000
,  // measure 91
0000
0000
1000
0000
0000
0000
0000
0000
0000
0100
0000
0000
0000
0000
0000
0000
0000
1000
0000
0000
0000
0000
0000
0000
0000
0000
0010
0000
0000
0000
0000
0000
,  // measure 92
0000
0100
0000
0000
0000
0000
0000
0000
1000
0000
0000
0000
0000
0000
0000
0000
0000
0010
0000
0000
0000
0000
0000
0000
0000
0100
0000
0000
0000
0000
0000
0000
,  // measure 93
0000
0000
0010
0000
0000
0000
0000
0000
0000
0000
0000
0100
0000
0000
0000
0000
0000
0000
0000
1000
0000
0000
0000
0000
0000
0000
0100
0000
0000
0000
0000
0000
,  // measure 94
0000
0000
1000
0000
0000
0000
0000
0000
0000
0000
0000
0100
0000
0000
0000
0000
0000
0000
0010
0000
0000
0000
0000
0000
0000
0000
0000
0100
0000
0000
0000
0000
,  // measure 95
0000
0000
0000
0010
0000
0000
0000
0000
0000
0000
0001
0000
0000
0000
0000
0000
0000
0000
0010
0000
0000
0000
0000
0000
0000
0000
0100
0000
0000
0000
0000
0000
,  // measure 96
1000
0000
0000
0000
0000
0000
0000
0000
0000
0000
1001
0000
0000
0000
0000
0000
0000
0010
0000
0000
1000
0000
0000
0200
0000
0000
0000
1000
0000
0000
0000
0000
,  // measure 97
0000
0000
0000
1000
0000
0300
0000
0100
0000
0000
0000
2000
0000
0000
0000
0000
0000
0000
0010
0000
0000
0000
0200
0000
0000
0000
0000
0000
0000
0000
0000
0000
,  // measure 98
0000
0000
0300
0002
0000
0000
0000
0000
0000
0000
0000
3003
0000
0000
1002
0000
0000
0000
0000
0010
0000
0000
0100
0000
0000
0000
0000
1000
0000
0000
0000
0000
,  // measure 99
0000
0000
0000
2000
0000
0000
0000
0000
0000
0000
3000
0200
0000
0000
0000
0000
0000
0000
0000
0000
0000
0300
1000
0000
0000
0000
0200
0000
0000
0000
0000
0000
,  // measure 100
0303
0000
1000
0000
0020
0000
0000
0000
0000
0000
2000
0000
0000
0000
0000
0000
0000
0000
3000
0000
0000
0000
0000
1000
0000
0000
0000
1000
0030
0000
0000
0100
,  // measure 101
0000
0000
0000
1000
0000
0000
0000
1100
0000
0000
0000
0000
0001
0000
0000
0000
0010
0000
0000
0000
0100
0000
0000
0000
1000
0000
0000
0000
0100
0000
0000
0000
,  // measure 102
1000
0100
1000
0100
0010
0100
0010
1000
,  // measure 103
0010
0100
0010
0001
0010
0100
0010
0100
,  // measure 104
1100
1010
1010
0010
0100
0010
0011
0000
,  // measure 105
0100
0001
1000
0001
1000
0100
1000
0010
,  // measure 106
1000
0100
1000
0010
0100
0010
0100
0010
,  // measure 107
0110
1000
1010
0100
1000
1100
0010
0001
,  // measure 108
0010
0101
0010
0100
0000
0000
0010
0010
,  // measure 109
1100
0001
0000
0000
;
