#TITLE:They Call Me Sonic;
#SUBTITLE:;
#ARTIST:Arcade;
#TITLETRANSLIT:;
#SUBTITLETRANSLIT:;
#ARTISTTRANSLIT:;
#CREDIT:owenviau1;
#BANNER:../owenviau1 Simfiles 5-bn.png;
#BACKGROUND:../owenviau1 Simfiles 5-bg.png;
#LYRICSPATH:;
#CDTITLE:../ov1_title.png;
#MUSIC:They Call Me Sonic.mp3;
#OFFSET:-0.487;
#SAMPLESTART:80.999;
#SAMPLELENGTH:29.999;
#SELECTABLE:YES;
#DISPLAYBPM:166.910;
#BPMS:0.000=166.908,4.000=166.919,5.000=166.908,11.000=166.919,12.000=166.908,18.000=166.919,19.000=166.908,25.000=166.919,26.000=166.908,31.000=166.919,32.000=166.908,39.000=166.919,40.000=166.908,47.000=166.919,48.000=166.908,55.000=166.919,56.000=166.908,63.000=166.919,64.000=166.908,71.000=166.919,72.000=166.908,79.000=166.919,80.000=166.908,87.000=166.919,88.000=166.908,95.000=166.919,96.000=166.908,103.000=166.919,104.000=166.908,111.000=166.919,112.000=166.908,119.000=166.919,120.000=166.908,127.000=166.919,128.000=166.908,133.000=166.919,134.000=166.908,137.000=166.919,138.000=166.908,141.000=166.919,142.000=166.908,145.000=166.919,146.000=166.908,149.000=166.919,150.000=166.908,153.000=166.919,154.000=166.908,157.000=166.919,158.000=166.908,161.000=166.919,162.000=166.908,165.000=166.919,166.000=166.908,169.000=166.919,170.000=166.908,173.000=166.919,174.000=166.908,177.000=166.919,178.000=166.908,181.000=166.919,182.000=166.908,185.000=166.919,186.000=166.908,189.000=166.919,190.000=166.908,193.000=166.919,194.000=166.908,197.000=166.919,198.000=166.908,201.000=166.919,202.000=166.908,205.000=166.919,206.000=166.908,209.000=166.919,210.000=166.908,213.000=166.919,214.000=166.908,217.000=166.919,218.000=166.908,221.000=166.919,222.000=166.908,225.000=166.919,226.000=166.908,229.000=166.919,230.000=166.908,233.000=166.919,234.000=166.908,237.000=166.919,238.000=166.908,241.000=166.919,242.000=166.908,245.000=166.919,246.000=166.908,249.000=166.919,250.000=166.908,253.000=166.919,254.000=166.908,257.000=166.919,258.000=166.908,261.000=166.919,264.000=166.930,265.000=166.919,275.000=166.930,276.000=166.919,285.000=166.930,286.000=166.919,296.000=166.930,297.000=166.919,306.000=166.930,307.000=166.919,317.000=166.930,318.000=166.919,327.000=166.930,328.000=166.919,338.000=166.930,339.000=166.919,349.000=166.930,350.000=166.919,359.000=166.930,360.000=166.919,370.000=166.930,371.000=166.919,380.000=166.930,381.000=166.919,391.000=166.930,392.000=166.919,402.000=166.930,403.000=166.919,412.000=166.930,413.000=166.919,423.000=166.930,424.000=166.919,433.000=166.930,434.000=166.919,444.000=166.930,445.000=166.919,454.000=166.930,455.000=166.919,465.000=166.930,466.000=166.919,475.000=166.930,476.000=166.919,486.000=166.930,487.000=166.919,496.000=166.930,497.000=166.919,506.000=166.930,507.000=166.919,517.000=166.930,518.000=166.919,526.000=166.930,527.000=166.919,542.000=166.930,543.000=166.919,547.000=166.930,548.000=166.919,563.000=166.930,564.000=166.919,568.000=166.930,569.000=166.919,584.000=166.930,585.000=166.919,589.000=166.930,590.000=166.919,605.000=166.930,606.000=166.919,610.000=166.930,611.000=166.919,626.000=166.930,627.000=166.919,631.000=166.930,632.000=166.919,647.000=166.930,648.000=166.919,652.000=166.930,653.000=166.919,668.000=166.930,669.000=166.919,673.000=166.930,674.000=166.919,689.000=166.930,690.000=166.919,694.000=166.930,695.000=166.919,710.000=166.930,711.000=166.919,715.000=166.930,716.000=166.919,730.000=166.930,731.000=166.919,736.000=166.930,737.000=166.919,751.000=166.930,752.000=166.919,757.000=166.930,758.000=166.919,772.000=166.930,773.000=166.919,778.000=166.930,779.000=166.919,791.000=166.930,792.000=166.919,801.000=166.930,802.000=166.919,812.000=166.930,813.000=166.919,822.000=166.930,823.000=166.919,833.000=166.930,834.000=166.919;
#STOPS:;
#BGCHANGES:;
// cache tags:
#FIRSTBEAT:32.000;
#LASTBEAT:838.000;
#SONGFILENAME:Songs/owenviau1 Simfiles 5/They Call Me Sonic - [owenviau1] v1.4/They Call Me Sonic.sm;
#HASMUSIC:1;
#HASBANNER:1;
#MUSICLENGTH:303.516;
// end cache tags

//---------------dance-single - ----------------
#NOTES:
     dance-single:
     :
     Hard:
     9:
     0.780,0.794,0.158,0.438,0.040,1477.000,48.000,133.000,4.000,5.000:
0000
0000
0000
0000
,
0000
0000
0000
0000
,
0000
0000
0000
0000
,
0000
0000
0000
0000
,
0000
0000
0000
0000
,
0000
0000
0000
0000
,
0000
0000
0000
0000
,
0000
0000
0000
0000
,
1000
0001
0000
0001
0000
0001
0000
0001
,
1000
0010
0000
0010
0000
0010
0000
0010
,
1000
0001
0000
0001
0000
0001
0000
0001
,
1000
0001
0100
0010
0000
0010
0000
0010
,
1000
0100
0000
0100
0000
0100
0000
0100
,
0001
0010
0000
0010
0000
0010
0000
0010
,
0100
1000
0000
1000
0000
1000
0000
1000
,
1001
0000
0000
0000
0110
0000
0000
1000
0100
0000
0010
0000
0001
0000
1000
0000
,
1001
0001
0010
0100
1000
0001
0100
0010
,
1000
0100
0010
0001
0100
0010
1000
0100
,
1000
0010
0100
0001
1000
0001
0010
0001
,
0100
0010
1000
0001
0100
0010
1000
0100
,
0010
0001
0010
0100
0001
0010
0100
1000
,
0001
0100
0010
1000
0100
0010
0001
1000
,
0010
0100
0001
0010
0100
1000
0010
0100
,
0001
1000
0001
0010
0001
1000
0100
0010
,
2001
0000
0000
0000
3000
0000
0000
0000
2000
0000
0000
0000
0000
0000
3000
0000
0000
M000
0000
0000
2000
0000
0000
0000
3000
0000
0000
0000
2000
0000
0000
0000
,
3000
2000
3000
2000
3200
0320
0032
0203
,
0320
0000
0000
0000
0030
0000
0000
0000
0020
0000
0000
0000
0000
0000
0030
0000
0000
00M0
0000
0000
0020
0000
0000
0000
0030
0000
0000
0000
0020
0000
0000
0000
,
0030
0020
0030
0020
2031
3200
0320
0032
,
1103
0001
0100
0001
0010
0100
1000
0010
,
1000
0001
0100
0010
1000
0001
1000
0001
,
0010
0001
1000
0010
0100
0001
0010
0100
,
1000
0010
0100
0001
0010
0001
1000
0010
,
0101
0001
1000
0010
0100
0001
0010
0001
,
0100
0010
1000
0001
0100
0001
1000
0100
,
1000
0001
0100
0010
1000
0100
0010
0001
,
0010
0100
1000
0010
0100
0001
0010
0001
,
1000
0010
0100
0001
0010
0100
1000
0001
,
1000
0010
1000
0001
1000
0001
0010
0001
,
0100
0010
1000
0100
1000
0001
0100
0010
,
1000
0000
0100
0000
0010
0000
0001
1000
0001
0000
0100
0000
0010
0000
1000
0000
,
1001
0010
0001
1000
0010
0100
0001
0010
,
0100
1000
0010
1000
0001
1000
0010
0100
,
0010
1000
0001
0100
0010
0100
0001
0010
,
0100
1000
0010
1000
0001
0100
0001
0010
,
0001
0100
0010
1000
0100
0010
0001
0100
,
0010
1000
0001
1000
0100
1000
0010
0100
,
0001
0010
0100
1000
0001
0100
0010
1000
,
0001
0000
0010
0000
0001
0000
1000
0010
1000
0000
0010
0000
0001
0000
0010
0000
,
2010
0000
3200
0300
0020
0030
0002
0003
,
0200
0320
0030
0000
0000
0020
0032
0000
,
0023
0230
2300
3002
0003
0200
0320
2030
,
3200
0320
0032
0203
0000
0300
0000
0000
,
0001
1000
0100
1000
0010
0100
0001
0010
,
0001
1000
0100
0010
0001
0100
0010
1000
,
0100
1000
0001
0100
0010
1000
0001
0100
,
1100
0110
0101
1001
,
1100
0001
0100
0001
0010
0100
1000
0010
,
1000
0001
0100
0010
1000
0001
1000
0001
,
0010
0001
1000
0010
0100
0001
0010
0100
,
1000
0010
0100
0001
0010
0001
1000
0010
,
0100
0001
1000
0010
0100
0001
0010
0001
,
0100
0010
1000
0001
0100
0001
1000
0100
,
1000
0001
0100
0010
1000
0100
0010
0001
,
0010
0000
0100
0000
1000
0000
0001
0010
0001
0000
1000
0000
0010
0000
0100
0000
,
1001
0001
0100
0001
0010
0100
1000
0001
,
0100
0010
1000
0001
0100
0001
0010
0001
,
0100
0010
1000
0100
1000
0001
0100
0010
,
1000
0100
0001
1000
0001
0100
0010
1000
,
1001
0010
0001
1000
0010
0100
0001
0010
,
0100
1000
0010
1000
0001
1000
0010
0100
,
0010
1000
0001
0100
0010
0100
0001
0010
,
0100
1000
0010
1000
0001
0100
0001
0010
,
2001
0000
0000
0000
3000
0000
0000
0000
2000
0000
0000
0000
0000
0000
3000
0000
0000
M000
0000
0000
2000
0000
0000
0000
3000
0000
0000
0000
2000
0000
0000
0000
,
3000
2000
3000
2000
3200
0320
0032
0203
,
0320
0000
0000
0000
0030
0000
0000
0000
0020
0000
0000
0000
0000
0000
0030
0000
0000
00M0
0000
0000
0020
0000
0000
0000
0030
0000
0000
0000
0020
0000
0000
0000
,
0030
0020
0030
0020
2031
3200
0320
0032
,
0113
1000
0100
0001
0010
0100
1000
0010
,
1000
0001
0100
0010
0100
0001
1000
0001
,
0010
0001
1000
0010
0100
0001
0010
0100
,
1000
0010
0100
0001
0010
0001
0010
0100
,
1100
0001
1000
0010
0100
0001
0010
0001
,
0100
0010
1000
0001
0100
0001
1000
0100
,
1000
0001
0100
0010
1000
0100
0010
0001
,
0010
0100
1000
0010
0100
0001
0010
0001
,
1000
0010
0100
0001
0010
0100
1000
0010
,
0100
0001
1000
0010
1000
0001
0010
0001
,
0100
0010
1000
0100
1000
0001
0100
0010
,
1000
0000
0100
0000
0010
0000
0001
1000
0001
0000
0100
0000
0010
0000
1000
0000
,
1001
0010
0001
1000
0010
0100
0001
0010
,
0100
1000
0010
1000
0001
1000
0010
0100
,
0010
1000
0001
0100
0010
0100
0001
0010
,
0100
1000
0010
1000
0001
0100
0001
0010
,
0001
0100
0010
1000
0100
0010
0001
0100
,
0010
1000
0001
1000
0100
1000
0010
0100
,
0001
0010
0100
1000
0001
0100
0010
1000
,
0001
0000
0010
0000
0001
0000
0100
0001
0100
0000
0010
0000
1000
0000
0100
0000
,
2001
0000
3200
0300
0020
0030
0002
0003
,
0200
0320
0030
0000
0000
0020
0032
0000
,
0023
0230
2300
3002
0003
0200
0320
2030
,
3200
0320
0032
0203
0000
0300
0000
0000
,
0001
1000
0100
1000
0010
0100
0001
0010
,
0001
1000
0100
0010
0001
0100
0010
1000
,
0100
1000
0001
0100
0010
1000
0001
0100
,
0110
0011
1010
0101
,
0110
0001
1000
0001
0010
0100
1000
0001
,
1000
0010
0100
0001
0100
0010
1000
0001
,
0010
0001
1000
0010
0100
0001
0010
0100
,
1000
0010
0100
0001
0010
0001
1000
0010
,
0100
0001
1000
0010
0100
0001
0010
0001
,
0100
0010
1000
0001
0100
0001
1000
0100
,
1000
0001
0100
0010
1000
0100
0010
0001
,
0010
0000
0100
0000
1000
0000
0001
0010
0001
0000
1000
0000
0010
0000
0100
0000
,
1001
0001
0100
0001
0010
0100
1000
0001
,
0100
0010
1000
0001
0100
0001
0010
0001
,
0100
0010
1000
0100
1000
0001
0100
0010
,
1000
0100
0001
1000
0001
0100
0010
1000
,
1001
0010
0001
1000
0010
0100
0001
0010
,
0100
1000
0010
1000
0001
1000
0010
0100
,
0010
1000
0001
0100
0010
0100
0001
0010
,
0100
1000
0010
1000
0001
0100
0001
0010
,
1001
0100
0010
0001
1000
0010
0100
0001
,
0010
0001
1000
0001
0100
0010
1000
0100
,
0010
0001
0100
0010
1000
0001
0010
0100
,
1000
0010
0100
0001
0010
0001
1000
0001
,
0110
0100
1000
0010
0100
0001
0010
0001
,
1000
0001
0100
0010
1000
0100
0010
0001
,
0100
0010
1000
0010
0100
0001
0010
0100
,
1000
0001
0010
0001
1000
0001
0100
0010
,
1001
0100
0010
0001
1000
0001
0100
0001
,
0010
0100
1000
0010
0100
0001
1000
0001
,
0010
0001
1000
0010
0100
0001
0010
0100
,
1000
0010
0100
0001
1000
0001
0010
0001
,
0100
0010
1000
0100
1000
0010
0100
0001
,
1000
0001
0010
0001
1000
0010
0100
0001
,
0010
0100
1000
0010
0100
0001
1000
0001
,
0010
0001
1000
0010
0100
0001
1000
0100
,
0110
1000
0001
1000
0010
0100
0001
0010
,
0100
1000
0010
1000
0001
1000
0100
1000
,
0010
0100
0001
1000
0010
0001
0100
0010
,
0100
0001
1000
0010
0100
0010
1000
0100
,
0010
0001
0100
0010
1000
0100
1000
0010
,
0100
0001
0010
0100
1000
0010
0100
0001
,
1000
0001
0010
0001
1000
0010
0100
0001
,
1100
0110
0011
1001
,
0101
0001
0010
0100
1000
0010
0100
0001
,
1000
0001
0010
0001
0100
0010
1000
0100
,
1000
0001
0100
0010
1000
0100
0010
0001
,
1000
0010
0100
0001
0010
0100
1000
0010
,
0100
0001
0010
0001
0100
0010
1000
0001
,
0010
0100
1000
0010
0100
0001
1000
0001
,
0010
0001
0100
0010
1000
0100
1000
0010
,
0100
0001
1000
0001
0010
0001
0100
0010
,
0110
1000
0010
0100
0001
1000
0010
1000
,
0100
1000
0001
0100
0010
1000
0100
0010
,
0001
1000
0010
0100
0001
0010
0100
1000
,
0010
0100
0001
1000
0001
0010
0001
0100
,
0010
1000
0001
1000
0010
0100
0010
1000
,
0100
1000
0010
0100
0001
0010
0001
1000
,
0010
0100
0001
0010
0100
1000
0010
0100
,
0001
1000
0001
0010
0001
0100
0010
1000
,
1002
0000
0020
0030
0200
0300
0020
0030
,
2003
0000
0200
0000
0300
0000
0100
0000
0100
0000
0000
0100
0000
0000
0100
0000
,
3200
0000
0000
0010
0000
0000
0010
0000
0010
0000
0000
0010
0000
0000
0010
0000
,
0302
0000
0000
0010
0000
0000
0010
0000
2003
0000
0000
0100
0000
0000
0100
0000
,
3002
0000
0200
0300
0020
0030
2000
3000
,
0023
0000
0200
0000
0300
0000
1000
0000
1000
0000
0000
1000
0000
0000
1000
0000
,
2030
0000
0000
0100
0000
0000
0100
0000
0100
0000
0000
0100
0000
0000
0100
0000
,
3020
0000
0000
1000
0000
0000
1000
0000
0230
0000
0000
1000
0000
0000
1000
0000
,
1301
0001
0100
0010
1000
0100
0010
0001
,
0100
0010
1000
0001
0010
0001
1000
0001
,
0100
0010
1000
0100
0010
0001
0100
0010
,
1000
0010
0100
0001
0010
0100
1000
0010
,
0100
0001
1000
0100
0010
0001
1000
0100
,
1000
0010
0100
0001
0010
0001
1000
0001
,
0100
0010
1000
0100
0010
0001
1000
0010
,
1100
0000
0000
0000
1001
0000
0000
1000
0100
0000
0010
0000
0001
0000
0010
0000
,
1001
0001
0100
0001
0010
0100
1000
0010
,
1000
0001
0100
0010
0100
0001
1000
0001
,
0010
0001
1000
0010
0100
0001
0010
0100
,
1000
0010
0100
0001
0010
0001
1000
0010
,
0100
0001
1000
0010
0100
0001
0010
0001
,
0100
0010
1000
0001
0100
0001
1000
0100
,
1000
0001
0100
0010
1000
0100
0010
0001
,
0010
0000
0100
0000
1000
0000
0001
0010
0001
0000
1000
0000
0010
0000
0100
0000
,
1001
0001
0100
0001
0010
0100
1000
0001
,
0100
0010
1000
0001
0100
0001
0010
0001
,
0100
0010
1000
0100
1000
0001
0100
0010
,
1000
0100
0001
1000
0001
0100
0010
1000
,
1001
0010
0001
1000
0010
0100
0001
0010
,
0100
1000
0010
1000
0001
1000
0010
0100
,
0010
1000
0001
0100
0010
0100
0001
0010
,
0100
1000
0010
1000
0001
0100
0001
0010
,
0110
0001
1000
0001
0010
0100
1000
0010
,
1000
0001
0100
0001
1000
0010
1000
0001
,
0010
0001
1000
0010
0100
0001
0010
0100
,
1000
0010
0100
0001
0010
0001
1000
0010
,
0100
0001
1000
0010
0100
0001
0010
0001
,
0100
0010
1000
0001
0100
0001
1000
0100
,
1000
0001
0100
0010
1000
0100
0010
0001
,
0010
0000
0100
0000
1000
0000
0001
0100
0001
0000
1000
0000
0010
0000
0100
0000
,
2001
0000
3200
0300
0020
0030
0002
0003
,
0200
0320
0030
0000
0000
0020
0032
0000
,
0023
0230
2300
3002
0003
0200
0320
2030
,
3200
0320
0032
0203
0000
0000
0000
0000
,
0320
0000
2030
3000
0200
0300
0020
0030
,
0002
0203
0300
0000
0000
0000
0020
2030
,
3002
0023
0230
2300
3000
0000
0000
0000
,
0020
2030
3020
0230
0302
0000
0000
0000
,
2000
0000
0000
0000
,
0000
0000
3003
0000
,
0000
0000
0000
0000
;

//---------------dance-single - ----------------
#NOTES:
     dance-single:
     :
     Challenge:
     13:
     1.000,1.000,1.000,0.438,0.713,1886.000,455.000,133.000,4.000,5.000:
0000
0000
0000
0000
,
0000
0000
0000
0000
,
0000
0000
0000
0000
,
0000
0000
0000
0000
,
0000
0000
0000
0000
,
0000
0000
0000
0000
,
0000
0000
0000
0000
,
0000
0000
0000
0000
,
1000
0001
0000
0001
0000
0001
0000
0001
,
1000
0010
0000
0010
0000
0010
0000
0010
,
1000
0001
0000
0001
0000
0001
0000
0001
,
1000
0001
0100
0010
0000
0010
0000
0010
,
1000
0100
0000
0100
0000
0100
0000
0100
,
0001
0010
0000
0010
0000
0010
0000
0010
,
0100
1000
0000
1000
0000
1000
0000
1000
,
1001
0000
0000
0000
0110
0000
0000
1000
1100
0000
0110
0000
0011
0000
1001
0000
,
0110
0001
1100
1000
0011
0001
0110
0100
,
1001
0100
1010
0001
1100
1000
0011
1000
,
0110
1000
0101
0010
1001
0010
1100
0001
,
0110
1000
0011
0001
1100
1000
0011
1000
,
0101
0100
1010
0100
1001
0001
0110
1000
,
0011
0001
1100
0001
0110
0100
1001
0010
,
1100
0001
0110
1000
0011
1000
0110
0001
,
1000
0100
0010
0001
1000
0010
1000
0001
0100
0010
1000
0100
0010
0001
0100
0010
,
2001
0000
0000
0000
3000
0000
0000
0000
2000
0000
0000
0000
0000
0000
3000
0000
0000
M000
0000
0000
2000
0000
0000
0000
3000
0000
0000
0000
2000
0000
0000
0000
,
3000
2000
3000
2000
3200
0320
0032
0203
,
0320
0000
0000
0000
0030
0000
0000
0000
0020
0000
0000
0000
0000
0000
0030
0000
0000
00M0
0000
0000
0020
0000
0000
0000
0030
0000
0000
0000
0020
0000
0000
0000
,
0030
0020
0030
0020
2031
3200
0320
0032
,
1103
0010
0011
0100
1001
0001
0110
1000
,
0101
0100
1001
0100
1010
0001
0110
1000
,
0011
0001
1100
0001
0110
0100
1001
0100
,
0011
0001
1100
0001
1010
0010
0101
0010
,
1001
0010
1100
0001
0110
1000
0011
0001
,
1100
1000
0011
1000
0110
0100
1001
0100
,
1010
0001
1100
0010
1001
1000
0110
1000
,
0101
1000
0011
0001
1100
0010
1001
1000
,
0110
1000
0101
0010
1001
0001
0110
0001
,
1100
0010
1001
1000
0110
1000
0101
0010
,
1100
0001
0110
1000
0011
0001
1100
0001
,
0110
0000
0100
0000
1001
0000
0010
0000
1000
0100
0010
0000
0101
0000
0010
0000
,
1001
0100
1000
0010
0100
0001
1000
0100
0010
0001
0010
0100
1000
0001
0100
0010
,
0100
0001
1000
0010
0100
0010
1000
0100
0010
0001
1000
0100
0010
0001
1000
0100
,
1000
0010
0100
0001
0010
0001
0100
0010
1000
0001
0010
0100
1000
0010
1000
0100
,
0010
0001
0100
0001
1000
0100
0010
0001
1000
0001
0010
0100
1000
0010
0100
0001
,
0010
0001
0100
0010
1000
0100
1000
0001
0010
0100
1000
0001
0100
0010
1000
0100
,
0010
0001
1000
0010
1000
0001
0100
0001
1000
0010
0100
0010
1000
0001
0100
0010
,
0100
0001
1000
0100
0010
0001
0010
0100
1000
0010
0100
0001
0010
0001
0100
0010
,
1000
0100
1000
0001
0010
0100
1000
0001
0010
0001
0100
0010
1000
0001
0010
0100
,
2001
0000
3200
0300
0020
0030
0002
0003
,
0200
0320
0030
0000
0000
0020
0032
0000
,
0023
0230
2300
3002
0003
0200
0320
2030
,
3200
0320
0032
0203
0000
0300
0000
0000
,
0001
0010
0100
1000
0010
0100
0001
0010
0100
1000
0100
0010
0001
1000
0010
0100
,
0010
1000
0001
0100
0010
0100
0001
1000
0100
0010
0001
0010
0100
1000
0001
0010
,
0001
0100
0010
1000
0010
0100
0001
1000
0100
1000
0010
0100
0001
1000
0100
0010
,
1001
1100
0110
0011
,
1010
1000
0011
0001
1100
0001
0110
0100
,
1001
0100
0011
1000
0101
0001
1010
0010
,
0101
1000
0011
0001
1100
0001
0110
0100
,
1001
0100
0011
0010
1001
0100
0011
0001
,
1100
0001
0110
0100
1001
0100
0110
1000
,
0101
0001
1010
0001
1100
0100
0011
0100
,
1001
0001
0110
1000
0101
0001
1010
0001
,
1100
0001
0110
0010
1001
0010
0101
1000
,
0110
0001
1100
0001
0110
1000
0101
0100
,
1010
0100
0011
0001
1100
0010
1001
1000
,
0110
0010
0101
1000
0110
0001
1001
0100
,
0110
1000
0011
0001
1100
0010
0101
0100
,
1010
0100
1001
0001
0110
0001
1100
0010
,
0101
1000
0110
0001
1010
0100
1001
0010
,
0110
1000
0011
0001
1100
0001
0110
0100
,
1001
0010
0100
0001
1000
0100
0010
0001
0100
0001
1000
0010
1000
0001
0100
0010
,
0201
0000
0000
0000
0300
0000
0000
0000
0200
0000
0000
0000
0000
0000
0300
0000
0000
0M00
0000
0000
0200
0000
0000
0000
0300
0000
0000
0000
0200
0000
0000
0000
,
0300
0200
0300
0200
0320
0032
2003
3002
,
0023
0000
0000
0000
0030
0000
0000
0000
0020
0000
0000
0000
0000
0000
0030
0000
0000
00M0
0000
0000
0020
0000
0000
0000
0030
0000
0000
0000
0020
0000
0000
0000
,
0030
0020
0030
0020
0132
2003
3200
0320
,
1031
0010
0011
0100
1001
0001
0110
1000
,
0101
0100
1001
0100
1010
0001
0110
1000
,
0011
0001
1100
0001
0110
0100
1001
0100
,
0011
0001
1100
0001
1010
0010
0101
0010
,
1001
0010
1100
0001
0110
1000
0011
0001
,
1100
1000
0011
1000
0110
0100
1001
0100
,
1010
0001
1100
0010
1001
1000
0110
1000
,
0101
1000
0011
0001
1100
0010
1001
1000
,
0110
1000
0101
0010
1001
0001
0110
0001
,
1100
0010
1001
1000
0110
1000
0101
0010
,
1100
0001
0110
1000
0011
0001
1100
0001
,
0110
0000
0100
0000
1001
0000
0010
0000
1000
0100
0010
0000
0101
0000
0010
0000
,
1001
0100
1000
0010
0100
0001
1000
0100
0010
0001
0010
0100
1000
0001
0100
0010
,
0100
0001
1000
0010
0100
0010
1000
0100
0010
0001
1000
0100
0010
0001
1000
0100
,
1000
0010
0100
0001
0010
0001
0100
0010
1000
0001
0010
0100
1000
0010
1000
0100
,
0010
0001
0100
0001
1000
0100
0010
0001
1000
0001
0010
0100
1000
0010
0100
0001
,
0010
0001
0100
0010
1000
0100
1000
0001
0010
0100
1000
0001
0100
0010
1000
0100
,
0010
0001
1000
0010
1000
0001
0100
0001
1000
0010
0100
0010
1000
0001
0100
0010
,
0100
0001
1000
0100
0010
0001
0010
0100
1000
0010
0100
0001
0010
0001
0100
0010
,
1000
0100
1000
0001
0010
0100
1000
0001
0010
0001
0100
0010
1000
0001
0010
0100
,
2001
0000
3200
0300
0020
0030
0002
0003
,
0200
0320
0030
0000
0000
0020
0032
0000
,
0023
0230
2300
3002
0003
0200
0320
2030
,
3200
0320
0032
0203
0000
0300
0000
0000
,
0001
0010
0100
1000
0010
0100
0001
0010
0100
1000
0100
0010
0001
1000
0010
0100
,
0010
1000
0001
0100
0010
0100
0001
1000
0100
0010
0001
0010
0100
1000
0001
0010
,
0001
0100
0010
1000
0010
0100
0001
1000
0100
1000
0010
0100
0001
1000
0100
0010
,
1001
0110
0101
1001
,
1010
1000
0011
0001
1100
0001
0110
0100
,
1001
0100
0011
1000
0101
0001
1010
0010
,
0101
1000
0011
0001
1100
0001
0110
0100
,
1001
0100
0011
0010
1001
0100
0011
0001
,
1100
0001
0110
0100
1001
0100
0110
1000
,
0101
0001
1010
0001
1100
0100
0011
0100
,
1001
0001
0110
1000
0101
0001
1010
0001
,
1100
0001
0110
0010
1001
0010
0101
1000
,
0110
0001
1100
0001
0110
1000
0101
0100
,
1010
0100
0011
0001
1100
0010
1001
1000
,
0110
0010
0101
1000
0110
0001
1001
0100
,
0110
1000
0011
0001
1100
0010
0101
0100
,
1010
0100
1001
0001
0110
0001
1100
0010
,
0101
1000
0110
0001
1010
0100
1001
0010
,
0110
1000
0011
0001
1100
0001
0110
0100
,
1001
0010
0100
0001
1000
0100
0010
0001
0100
0001
1000
0010
1000
0001
0100
0010
,
1001
1000
0110
0001
1100
0010
1001
0100
,
0011
1000
0110
0010
1001
0001
0110
1000
,
0101
1000
0110
0001
1100
0001
0110
0100
,
1001
0100
1010
0001
1100
0001
0110
1000
,
0101
1000
0011
0001
1100
0001
0110
1000
,
0101
0010
1001
0001
0110
0001
1100
0010
,
0101
0010
1001
0100
0011
1000
0110
0001
,
1100
0001
1000
0010
0100
0001
0010
0100
1000
0010
1000
0100
0010
0001
1000
0010
,
1001
0010
1000
0001
0110
0001
1100
0100
,
0011
1000
0110
0001
1010
0100
1001
0010
,
0101
0010
1001
1000
0110
1000
0101
0001
,
1010
0001
1100
0001
1010
1000
0101
0010
,
1100
0001
0110
1000
0101
1000
0011
1000
,
0110
0010
1001
0010
1100
0010
1001
1000
,
0110
1000
0011
0001
1100
0001
0110
0010
,
1001
0000
0000
0000
0101
0000
0000
0010
1010
0000
0100
0000
1001
0000
0001
0000
,
1010
0001
1000
0100
0010
0001
0010
0100
1000
0010
0100
0001
1000
0100
0010
0001
,
1000
0010
0100
0010
1000
0001
0100
0010
0100
0001
1000
0100
0010
0001
0100
0001
,
0010
0100
1000
0001
0010
0001
0100
0010
1000
0100
1000
0010
0100
0001
1000
0001
,
0010
0100
1000
0100
0010
0001
0100
0010
1000
0010
0100
0001
1000
0100
0010
0001
,
1000
0100
0010
0001
1000
0001
0010
0100
1000
0010
0100
0001
1000
0100
0010
0001
,
0100
0001
1000
0010
0100
0001
0010
0100
1000
0010
0100
0010
1000
0001
0010
0100
,
0010
1000
0100
0010
0001
0010
0100
1000
0010
0100
0001
0010
0100
1000
0001
1000
,
0110
0000
1100
0000
0101
1000
1010
0100
,
1001
1000
0110
1000
0011
1000
0110
0100
,
1001
0010
1100
0001
0011
1000
0101
0001
,
1010
0001
0110
0010
1001
0010
1100
1000
,
0011
1000
0110
0001
1010
0100
1001
0001
,
0110
1000
0011
0100
1001
0001
0110
0001
,
1010
0001
0110
1000
0101
1000
0011
0001
,
1100
0001
0110
1000
0101
1000
0110
0001
,
1010
0000
0100
0010
0001
1000
0001
0100
0010
1000
0100
0010
0001
0100
0010
1000
,
1001
0001
1000
0100
0010
0001
0010
0100
1000
0010
0100
0001
1000
0100
0010
0001
,
1000
0010
0100
0010
1000
0001
0100
0010
0100
0001
1000
0100
0010
0001
0100
0001
,
0010
0100
1000
0001
0010
0001
0100
0010
1000
0100
1000
0010
0100
0001
1000
0001
,
0010
0100
1000
0100
0010
0001
0100
0010
1000
0010
0100
0001
1000
0100
0010
0001
,
1000
0100
0010
0001
1000
0001
0010
0100
1000
0010
0100
0001
1000
0100
0010
0001
,
0100
0001
1000
0010
0100
0001
0010
0100
1000
0010
0100
0010
1000
0001
0010
0100
,
0010
1000
0100
0010
0001
0010
0100
1000
0010
0100
0001
0010
0100
1000
0001
1000
,
0100
0010
0001
0100
0001
0010
0100
1000
0001
0100
0010
1000
0100
0010
0001
0100
,
1002
0000
0020
0030
0200
0300
0020
0030
,
2003
0000
0200
0000
0300
0000
0100
0000
0100
0000
0000
0100
0000
0000
0100
0000
,
3200
0000
0000
0010
0000
0000
0001
0000
0010
0000
0000
0001
0000
0000
0010
0000
,
0302
0000
0000
0010
0000
0000
0100
0000
2003
0000
0000
0010
0000
0000
0100
0000
,
3002
0000
0200
0300
0020
0030
2000
3000
,
0023
0000
0200
0000
0300
0000
1000
0000
1000
0000
0000
1000
0000
0000
1000
0000
,
2030
0000
0000
0100
0000
0000
0010
0000
0001
0000
0000
0010
0000
0000
0100
0000
,
3020
0000
0000
0001
0000
0000
1000
0000
0230
0000
0000
1000
0000
0000
1000
0000
,
1301
0010
0001
0100
0010
1000
0100
1000
0010
0100
0001
0010
0001
1000
0100
0010
,
0001
1000
0010
0100
0010
1000
0001
0100
0010
0100
0001
1000
0100
0010
0001
0100
,
0010
1000
0010
0100
0001
1000
0100
0010
0001
0010
0100
1000
0010
0100
0001
1000
,
0100
0010
0001
1000
0010
0100
0010
1000
0001
0010
0100
0010
1000
0001
0100
0001
,
1000
0010
0100
0001
0010
0100
1000
0010
0100
0001
1000
0100
0010
0001
0010
0100
,
1000
0010
1000
0001
0100
0001
1000
0100
0010
0001
1000
0100
0010
0001
1000
0010
,
0100
0001
1000
0010
1000
0100
0010
0001
0100
0001
0010
0100
1000
0001
0100
0010
,
1001
0000
0000
0000
0110
0000
0000
1000
1100
0000
0110
0000
0011
0000
0101
0000
,
1001
0010
0101
0010
1100
0001
0110
1000
,
0101
0010
1001
0010
1100
0001
0110
1000
,
0011
0100
1001
1000
0110
1000
0011
0001
,
1100
0010
0101
0100
1010
0100
1001
1000
,
0110
0010
0101
0001
1100
0010
1001
0100
,
0011
0100
1001
0001
0110
0010
1001
0100
,
1100
0001
0110
1000
0011
0100
1001
0001
,
0110
0000
1000
0100
0010
0001
0100
0010
1000
0010
0100
0001
0010
0100
1000
0010
,
1001
0010
1100
1000
0011
1000
0110
0001
,
1010
0100
1001
0100
0011
1000
0110
0010
,
1001
0010
1100
0100
0011
0100
1001
0001
,
0110
1000
0101
0001
1010
0001
1100
0010
,
1001
0100
0110
1000
0101
1000
0011
0001
,
1100
0001
0110
0100
1001
0100
1010
0010
,
0101
1000
0110
0001
1100
0010
1001
0100
,
0010
1000
0100
0010
0001
0100
0001
1000
0010
0100
0010
1000
0001
0100
0010
0100
,
1001
1000
0110
1000
0011
0100
1001
0010
,
1100
0001
0110
0100
1001
0100
0011
0100
,
1001
0001
0110
0100
1001
0001
0110
0001
,
1010
0010
0101
1000
0110
0001
1100
1000
,
0011
0001
1100
0001
0110
1000
0101
1000
,
0011
0001
1100
0001
1010
1000
0101
1000
,
0110
0010
1001
0010
1100
0001
0110
1000
,
0001
0010
0100
1000
0001
0100
0010
1000
0010
0100
0001
0100
0010
1000
0100
0010
,
2001
0000
3200
0300
0020
0030
0002
0003
,
0200
0320
0030
0000
0000
0020
0032
0000
,
0023
0230
2300
3002
0003
0200
0320
2030
,
3200
0320
0032
0203
0000
0000
0000
0000
,
0320
0000
2030
3000
0200
0300
0020
0030
,
0002
0203
0300
0000
0000
0000
0020
2030
,
3002
0023
0230
2300
3000
0000
0000
0000
,
0020
2030
3020
0230
0302
0000
0000
0000
,
2000
0000
0000
0000
,
0000
0000
3003
0000
,
0000
0000
0000
0000
;
