#TITLE:End of the Moonlight;
#SUBTITLE:DJmax JP;
#ARTIST:Forte Escape;
#TITLETRANSLIT:;
#SUBTITLETRANSLIT:;
#ARTISTTRANSLIT:;
#CREDIT:;
#BANNER:End of the Moonlight-bn.png;
#BACKGROUND:End of the Moonlight SC.jpg;
#LYRICSPATH:;
#CDTITLE:FreaK.bmp;
#MUSIC:[002] End of the Moonlight.mp3;
#OFFSET:-0.400;
#SAMPLESTART:38.709;
#SAMPLELENGTH:11.980;
#SELECTABLE:YES;
#BPMS:0.000=155.000;
#STOPS:;
#BGCHANGES:;
// cache tags:
#FIRSTBEAT:0.000;
#LASTBEAT:272.000;
#SONGFILENAME:Songs/dragon force/End of the Moonlight/End of the moonlight.sm;
#HASMUSIC:1;
#HASBANNER:1;
#MUSICLENGTH:111.211;
// end cache tags

//---------------dance-single - ----------------
#NOTES:
     dance-single:
     :
     Hard:
     10:
     1.000,1.000,1.000,0.557,0.949,671.000,140.000,62.000,0.000,0.000:
1010
0100
0010
0001
0010
0100
1010
0100
0010
0100
1000
0100
0010
0001
1010
0100
,
0010
0001
1000
0010
0100
0001
1010
0100
1000
0100
1000
0001
0010
0001
0010
0100
,
1001
0100
0010
0001
0010
0100
0011
1000
0001
0010
0001
1000
0100
1000
0101
0010
,
0100
1000
0100
0010
0100
0001
1010
0100
1000
0010
0100
0001
1000
0010
0100
1000
,
0101
0010
0100
0010
0001
0010
0101
1000
0010
0001
0010
1000
0100
0010
1001
0100
,
1000
0100
0001
0010
0100
0010
0101
1000
0100
0010
0100
1000
0100
0010
0001
0010
,
0101
1000
0100
1000
0010
0001
1010
0001
0100
1000
0100
0010
0001
0010
0101
1000
,
0100
0010
0001
0010
0100
0010
1001
0010
0100
1000
0100
0010
0100
1000
0100
0010
,
2002
0000
0000
0000
0000
0000
0000
3003
,
0010
0000
0000
0000
0010
0000
0000
0010
0000
0010
0000
0010
0010
0000
0000
0000
,
1000
0100
1000
0100
1001
0000
0010
0100
0110
0000
0010
0000
1010
0000
0010
0000
,
1001
0010
0001
0010
0001
0000
0001
0010
0100
0000
0100
0000
0100
0000
0100
0001
,
0100
0010
0100
0010
0100
0000
1100
0010
0001
0000
1001
0000
0101
0000
0011
0000
,
0001
0100
0001
0100
0001
0000
0001
0010
1000
0000
1000
0000
1000
0000
1000
0100
,
1000
0010
1000
0010
1000
0000
1100
0001
0010
0000
1010
0000
0110
0000
0011
0000
,
0100
0001
1100
0001
0100
0000
1100
0001
0010
0000
1010
0000
0110
0000
1010
0000
,
0010
0001
0010
0001
0010
0000
0110
0100
1100
0000
1010
0000
1001
0000
1100
0000
,
2002
3003
0000
0000
,
0001
0010
1100
0001
0100
0010
0110
0001
,
0100
1000
0101
1000
0010
0001
0101
0001
,
0010
0100
1100
0100
0010
1000
1001
0010
,
0100
0001
0101
0010
0100
1000
1001
0101
,
0011
0100
0101
1000
0100
0010
1010
0010
,
0001
0100
1100
1000
0100
0010
0011
0010
,
1000
0001
0110
1000
0010
0001
0101
0010
,
1000
0000
0100
0000
0010
0000
0001
0000
1000
0010
0100
0001
0010
0000
0100
0010
,
0100
0001
0000
0001
0100
0000
1000
0100
1000
0000
1000
0000
1000
0000
1000
0000
,
0010
0100
0000
0100
0010
0000
0001
1000
0001
0000
0001
0000
0001
0000
0001
0000
,
0001
0100
0000
0100
0001
0000
0100
1000
0100
0000
0100
0000
0100
0000
0100
0000
,
0001
0010
0000
0100
1000
0000
0001
0010
0001
0000
0001
0000
0001
0000
0001
0000
,
1000
0100
0000
0010
0001
0000
0010
0100
0010
0000
0010
0000
0010
0000
0010
0000
,
0010
0100
0000
0001
1000
0000
0010
0100
0010
0000
0010
0000
0010
0000
0010
0000
,
0001
0100
0000
0010
1000
0000
0100
0010
0100
0000
0100
0000
0100
0000
0100
0000
,
0100
0010
0000
0010
0100
0000
0010
0100
0010
0000
0010
0000
0010
0000
0010
0000
,
0000
0000
1001
0000
1001
0000
1001
1001
1001
0000
1001
0000
0000
0000
1001
0000
,
2200
3300
0010
0001
0010
0000
0011
0000
1000
0000
0011
0000
1000
0000
0011
0000
,
1000
0000
0010
0010
0010
0000
1000
0000
0011
0000
0011
0000
0011
0000
0000
0000
,
1001
0010
0100
1000
0100
0010
1001
0010
0001
0010
0001
0010
0100
1000
0101
1000
,
0100
0010
0001
0010
0100
0010
1001
0010
0100
1000
0100
0010
0100
1000
0100
0010
,
0022
0033
0100
1000
0100
0000
0011
0000
0100
0000
0101
0000
0100
0000
1001
0000
,
0100
0000
0010
0010
0010
0000
0010
0000
1100
0000
1100
0000
1100
0000
0000
0000
,
0001
0010
0100
0000
1000
0000
0001
0010
0000
0001
0010
0000
0100
0000
1000
0000
,
0001
0010
0100
0000
0100
0000
0001
0010
0000
1000
0001
0010
0100
1000
0100
0010
,
1001
0000
0100
0010
0100
0000
1010
0000
0100
0000
1010
0000
0100
0000
0101
0000
,
0010
0000
0100
0100
0100
0000
0100
0000
0011
0000
0011
0000
0011
0000
0000
0000
,
0000
1100
1100
1020
0130
1100
0010
0012
,
1003
0120
1030
0021
0031
1200
1300
0101
,
2002
3003
0001
0010
0100
0000
1100
0000
1000
0000
0110
0000
0010
0000
0011
0000
,
0001
0000
0010
0010
0010
0000
0010
0000
1100
0000
0110
0000
0011
0000
0000
0000
,
1000
0000
0100
0000
0010
0000
0001
0010
0000
0100
1000
0000
0100
0000
0010
0000
,
0001
0010
0100
1000
0100
0010
0001
0010
0100
1000
0100
0010
0001
0010
0100
1000
,
1001
1001
0000
0110
0110
0000
0011
0011
0000
1100
1100
0000
1010
0000
0101
0000
,
1000
0100
0010
0001
1000
0000
1000
0000
0010
0000
0000
0000
0000
0000
1000
0100
,
0010
0000
0000
0000
0000
0000
1000
0100
0010
0000
0000
0000
0100
0000
0000
0000
,
0001
0010
0100
1000
1000
0000
1000
0000
0010
0000
0000
0000
0000
0000
0000
0000
,
0000
1000
1000
0000
0010
0000
0000
0000
,
1001
0010
0100
1000
0000
0000
0000
0000
0000
0000
1000
0100
0010
0000
0001
0010
,
0100
0000
0000
0000
0000
0000
0000
0000
0110
0000
0000
0000
0001
0000
1000
0010
,
0100
0000
0000
0000
0000
0000
0100
0010
0001
0000
0000
0000
0000
0000
1000
0100
,
0010
1000
1000
0000
0010
0000
0000
0000
,
2200
3300
0000
0220
0000
0330
0220
0330
1000
0001
1000
0100
1000
0100
0022
0000
,
0000
0033
2200
0000
0000
3300
0220
0330
1000
0001
1000
0100
0010
0001
1000
0000
,
2200
0000
3300
2002
0000
3003
0022
0033
0100
1000
0001
0010
0100
0010
0022
0033
,
0220
0000
0330
2002
0000
3003
2200
3300
0010
0001
1000
0100
0010
0100
1000
0000
,
2200
3300
0220
0000
0330
2200
0000
3300
0001
0100
0010
1000
0100
0010
0202
0000
,
0000
0303
2020
0000
3030
0202
0000
0303
1000
0010
0001
0010
0100
0010
0001
0000
,
2200
0000
3300
0220
0000
0330
0022
0033
1000
0100
0010
0001
0010
0100
1000
0000
,
2002
0000
0000
0000
0000
0000
0000
0000
0000
0000
0000
0003
0002
0000
0000
0000
0000
0000
0000
0000
0000
0000
0000
3000
1003
0000
0000
0000
0100
0000
0000
0000
0010
0000
0000
0000
0100
0000
0000
0000
1000
0000
0000
0000
0001
0000
0000
0000
0010
0000
0000
0000
0100
0000
0000
0000
0010
0000
0000
0000
0100
0000
0000
0000
,
1001
0000
0000
0000
;
