#TITLE:Hardcore Raver;
#SUBTITLE:;
#ARTIST:DJ Stormtrooper feat MC Knight;
#TITLETRANSLIT:;
#SUBTITLETRANSLIT:;
#ARTISTTRANSLIT:;
#CREDIT:;
#BANNER:hardcorerave.banner.jpg;
#BACKGROUND:hardcoretave.bg.jpg;
#LYRICSPATH:;
#CDTITLE:CDTITLE.jpg;
#MUSIC:(05) [] DJ Stormtrooper feat MC Knight - Hardcore Raver.mp3;
#OFFSET:0.120;
#SAMPLESTART:100.000;
#SAMPLELENGTH:12.000;
#SELECTABLE:YES;
#BPMS:0.000=179.980;
#STOPS:;
#BGCHANGES:;
// cache tags:
#FIRSTBEAT:0.500;
#LASTBEAT:415.500;
#SONGFILENAME:Songs/Definitive Keyboard Megapack/Hardcore Raver-  DJ Stormtrooper feat MC Knight(Leone510)/(05) [] DJ Stormtrooper feat MC Knight - Hardcore Raver.sm;
#HASMUSIC:1;
#HASBANNER:1;
#MUSICLENGTH:159.895;
// end cache tags

//---------------dance-single - ----------------
#NOTES:
     dance-single:
     :
     Hard:
     11:
     0.818,1.000,1.000,0.457,0.203,625.000,217.000,73.000,0.000,31.000:
0000
0000
0000
0000
,
0000
0000
0000
0000
,
0000
0000
0000
0000
,
0000
0000
0000
0000
,
0000
0000
0110
0000
0000
1000
0000
0010
0000
0000
0110
0000
0000
0000
0010
0000
,
0001
0000
1100
0000
0000
0010
0000
0100
0000
0000
0101
0000
0000
0000
1100
0000
,
0000
0000
0011
0000
0000
0010
0000
1000
0000
0000
0101
0000
0000
0000
0100
0000
,
0001
0000
0110
0000
0000
1000
0000
0001
0000
0000
1100
0000
0000
0110
0000
0000
,
0101
0000
1100
0000
0000
0101
0000
1000
0000
0000
0110
0000
0000
0000
0100
0000
,
1000
0000
0101
0000
0000
0110
0000
0001
0000
0000
1010
0000
0000
0000
0110
0000
,
0000
0000
0011
0000
0000
0101
0000
1000
0000
0000
0101
0000
0000
0000
0110
0000
,
1000
0000
0011
0000
0000
1100
0000
0001
0000
0000
0110
0000
0000
0101
0000
0000
,
1010
0000
0110
0000
0000
0101
0000
1000
0000
0000
0110
0000
0000
0000
0100
0000
,
1000
0000
0101
0000
0000
0110
0000
0001
0000
0000
1010
0000
0000
0000
0110
0000
,
0000
0000
0011
0000
0000
0011
0000
1000
0000
0000
0101
0000
0000
0000
0110
0000
,
1000
0000
0000
0000
0022
0000
0000
0000
0000
0000
2033
0000
0000
0000
0000
0000
0000
0000
0000
0000
3020
0000
0000
0000
0000
0000
0000
0000
0000
2032
0000
0000
,
0000
0000
3113
0000
0000
0002
0000
1013
0000
0000
0110
0000
0000
0000
1100
0000
,
0001
0000
1100
0000
0000
0021
0000
0100
0000
0000
1130
0000
0000
0000
0101
0000
,
0000
0000
1001
0000
0000
0200
0000
1310
0000
0000
1010
0000
0000
0000
0011
0000
,
1000
0000
0011
0000
0000
1020
0000
0001
0000
0000
1130
0000
0000
0101
0000
0000
,
1100
0000
0101
0000
0000
0200
0000
1310
0000
0000
0011
0000
0000
0000
1010
0000
,
0100
0000
0101
0000
0000
0210
0000
1000
0000
0000
1301
0000
0000
0000
0101
0000
,
0000
0000
0110
0000
0000
0002
0000
1013
0000
0000
0110
0000
0000
0000
1100
0000
,
0001
0000
0000
0000
1100
0000
0000
0000
0000
0000
0021
0000
0000
0000
0100
0000
0000
0000
0000
0000
1130
0000
0000
0000
0000
0000
0001
0010
0100
1000
0010
0100
,
0001
0000
1100
0000
0010
0100
0010
0000
0100
0000
1100
0000
0100
0000
0101
0000
,
0100
0110
0010
1010
1000
1001
0001
0011
,
0010
0000
1010
0000
0010
0001
0010
0000
0100
0000
1100
0000
0100
0000
0101
0000
,
0100
0110
0010
1010
1000
1001
0001
0011
,
0010
0000
1010
0000
0010
0001
0010
0000
0100
0000
1000
0000
0010
0000
0100
0000
,
0001
1010
0001
0101
1000
0101
0010
1001
,
1000
0000
0110
0000
0001
0010
0100
0000
1000
0000
0110
0000
0001
0000
1010
0000
,
0100
0101
0000
0000
0000
0000
0000
0000
,
0000
0020
0000
0000
0000
0000
0000
0000
,
0000
2030
0000
0000
0000
0000
0000
0000
,
0000
3002
0000
0000
0000
0000
0000
0000
,
0000
0000
0000
0000
,
0000
2003
0000
0000
0000
0000
0000
0000
,
0000
3020
0000
0000
0000
0000
0000
0000
,
0000
0230
0000
0000
0000
0000
0000
0000
,
0000
0000
0000
0000
,
0000
0302
0000
0000
0000
0000
0000
0000
,
0000
2003
0000
0000
0000
0000
0000
0000
,
0000
3020
0000
0000
0000
0000
0000
0000
,
0000
0000
0000
0000
0000
2000
0000
3002
,
0000
0233
0000
0000
0000
0000
0000
0000
,
0000
0320
0000
0000
0000
0000
0000
0000
,
0000
2030
0000
0000
0000
0000
0000
0000
,
0000
0000
0000
0000
0000
0000
0000
3000
,
0000
1000
0100
0010
0001
0010
0100
1000
,
0100
0001
0100
1000
0100
0002
0000
1103
,
0000
0001
0010
0100
1000
0100
0010
0001
,
0010
1000
0010
0001
0010
2000
0000
3011
,
0001
1000
0100
0010
0001
0010
0100
1000
,
0100
0001
0100
1000
0100
0002
0000
1103
,
0000
0001
0010
0100
1000
0100
0010
0001
,
0010
1000
0010
0001
0010
2000
0000
3011
,
0001
0110
0100
0100
0010
0010
1000
1000
,
0100
0100
0010
0010
0001
0002
0000
1103
,
0000
0100
0100
0010
0010
1000
1000
0001
,
0001
0100
0100
0010
0010
0200
0000
1310
,
0001
0110
0100
0100
0010
0010
1000
1000
,
0100
0100
0010
0010
0001
0002
0000
1103
,
0000
0100
0100
0010
0010
1000
1000
0001
,
0001
0100
0100
0010
0010
0200
0000
1310
,
0001
1010
0010
0100
0020
0000
0130
0000
,
0100
1010
0001
0001
2000
0000
3101
0000
,
0010
0101
1000
1000
0020
0000
0131
0000
,
0001
1010
0100
0100
0020
0000
0130
0000
,
1000
0101
0000
0010
2000
3010
0000
0001
,
0020
1130
0000
1000
0020
0130
0000
0100
,
0020
1130
0002
1003
2000
3101
0200
0310
,
0002
0000
1013
0000
0200
1000
0310
0000
0002
0000
2003
0010
3001
0100
0010
0000
,
0110
0110
0100
1010
0100
0011
0100
1010
,
0010
0110
1000
0101
0010
1100
0001
1010
,
0100
0011
0100
1010
0001
1100
0010
0110
,
1000
0101
0010
0011
1000
0101
0010
1100
,
0100
1001
0100
1010
0100
0011
0100
1010
,
0010
0110
1000
0101
0010
1100
0001
1010
,
0100
0011
0100
1010
0001
1100
0010
0110
,
1000
0101
0010
0011
1000
0101
0010
1000
,
0010
0110
0100
1010
0100
0011
0100
1010
,
0010
0110
1000
0101
0010
1100
0001
1010
,
0100
0011
0100
1010
0001
1100
0010
0110
,
1000
0101
0010
0011
1000
0101
0010
1100
,
0100
1001
0100
1010
0100
0011
0100
1010
,
0010
0110
1000
0101
0010
1100
0001
1010
,
0100
0011
0100
1010
0001
1100
0010
0110
,
1000
0101
0010
0001
1000
0002
0000
1103
,
0110
0000
0101
0000
1000
0010
1000
0000
0100
0000
1001
0000
0100
0000
1100
0000
,
0010
1100
0001
1010
0100
1001
0010
0101
,
0001
0000
1100
0000
0010
0100
0001
0000
0100
0000
1010
0000
0001
0000
1100
0000
,
0010
1001
0010
0011
0100
1010
0001
1100
,
0001
0000
1000
0000
0001
0010
1000
0000
0100
0000
0011
0000
0100
0000
1001
0000
,
0010
1100
0001
1010
0100
0110
1000
0101
,
0010
0000
0110
0000
0001
1000
0001
0000
0100
0000
1010
0000
0001
0000
1100
0000
,
0001
0110
1000
0011
0100
1010
0100
1001
,
0000
0000
1001
0000
0010
0100
0010
0000
0100
0000
0110
0000
0200
0000
0310
0000
,
0002
0013
0200
1300
0020
0130
2000
3100
,
0020
0000
1031
0000
0010
0100
0010
0000
0100
0000
0110
0000
0200
0000
0310
0000
,
0002
1000
0013
0000
0200
0000
1300
0000
0020
0001
0130
0000
2000
0000
3100
0000
,
0020
0000
1031
0000
0010
0100
0010
0000
0100
0000
0010
0000
0200
0000
0310
0000
,
0002
0013
0200
1300
0020
0130
2000
3101
,
0110
0000
1001
0000
0010
0001
0100
0000
1000
0000
0011
0000
0100
0000
1010
0000
,
0001
1100
0200
0320
0032
2003
0000
3000
;

//---------------dance-single - Copied from----------------
#NOTES:
     dance-single:
     Copied from:
     Challenge:
     12:
     0.952,1.000,0.982,0.450,0.719,837.000,157.000,72.000,0.000,30.000:
0000
0000
0010
0100
0010
1000
0010
0001
0010
0100
0010
0100
1000
0010
0100
0010
,
0001
0010
0100
0010
0001
1000
0100
0010
0100
1000
0010
0100
0010
1000
0010
0001
,
0010
0100
0010
0100
1000
0010
0100
0010
0001
0010
0100
0010
0001
1000
0100
0010
,
0100
1000
0010
0100
0010
1000
0010
0001
0010
0100
0010
0100
1000
0010
0100
0010
,
0001
0010
0100
0010
0001
1000
0100
0010
0100
1000
0010
0100
0010
1000
0010
0001
,
0010
0100
0010
0100
1000
0010
0100
0010
0001
0010
0100
0010
0001
1000
0100
0010
,
0100
1000
0010
0100
1000
0010
0100
0010
0001
0010
0100
0010
0001
1000
0100
0010
,
0100
0000
0011
0000
0000
1100
0000
0001
0000
0000
1010
0000
0000
0110
0000
0000
,
0101
0000
1100
0000
0000
0101
0000
1000
0000
0000
0110
0000
0000
0000
0100
0000
,
1000
0000
0101
0000
0000
0110
0000
0001
0000
0000
1010
0000
0000
0000
0110
0000
,
0000
0000
0011
0000
0000
0101
0000
1000
0000
0000
0101
0000
0000
0000
0110
0000
,
1000
0000
0011
0000
0000
1100
0000
0001
0000
0000
0110
0000
0000
0101
0000
0000
,
1010
0000
0110
0000
0000
0101
0000
1000
0000
0000
0110
0000
0000
0000
0100
0000
,
1000
0000
0101
0000
0000
0110
0000
0001
0000
0000
1010
0000
0000
0000
0110
0000
,
0000
0000
0011
0000
0000
0011
0000
1000
0000
0000
0101
0000
0000
0000
0110
0000
,
1000
0000
0000
0000
0022
0000
0000
0000
0000
0000
2033
0000
0000
0000
0000
0000
0000
0000
0000
0000
3020
0000
0000
0000
0000
0000
0000
0000
0000
2032
0000
0000
,
0000
0000
3113
0000
0000
0002
0000
1013
0000
0000
0110
0000
0000
0000
1100
0000
,
0001
0000
1100
0000
0000
0021
0000
0100
0000
0000
1130
0000
0000
0000
0101
0000
,
0000
0000
1001
0000
0000
0200
0000
1310
0000
0000
1010
0000
0000
0000
0011
0000
,
1000
0000
0011
0000
0000
1020
0000
0001
0000
0000
1130
0000
0000
0101
0000
0000
,
1100
0000
0101
0000
0000
0200
0000
1310
0000
0000
0011
0000
0000
0000
1010
0000
,
0100
0000
0101
0000
0000
0210
0000
1000
0000
0000
1301
0000
0000
0000
0101
0000
,
0000
0000
0110
0000
0000
0002
0000
1013
0000
0000
0110
0000
0000
0000
1100
0000
,
0001
0000
0000
0000
1100
0000
0000
0000
0000
0000
0021
0000
0000
0000
0100
0000
0000
0000
0000
0000
1130
0000
0000
0000
0000
0000
0001
0010
0100
1000
0010
0100
,
0001
0000
1100
0000
0010
0100
0010
0000
0100
0000
1100
0000
0100
0000
0101
0000
,
0100
0110
0010
1010
1000
1001
0001
0011
,
0010
0000
1010
0000
0010
0001
0010
0000
0100
0000
1100
0000
0100
0000
0101
0000
,
0100
0110
0010
1010
1000
1001
0001
0011
,
0010
0000
1010
0000
0010
0001
0010
0000
0100
0000
1000
0000
0010
0000
0100
0000
,
0001
1010
0001
0101
1000
0101
0010
1001
,
1000
0000
0110
0000
0001
0010
0100
0000
1000
0000
0110
0000
0001
0000
1010
0000
,
0100
0101
0000
0000
0000
0000
0000
0000
,
0000
0020
0000
0000
0000
0000
0000
0000
,
0000
2030
0000
0000
0000
0000
0000
0000
,
0000
3002
0000
0000
0000
0000
0000
0000
,
0000
0000
0000
0000
,
0000
2003
0000
0000
0000
0000
0000
0000
,
0000
3020
0000
0000
0000
0000
0000
0000
,
0000
0230
0000
0000
0000
0000
0000
0000
,
0000
0000
0000
0000
,
0000
0302
0000
0000
0000
0000
0000
0000
,
0000
2003
0000
0000
0000
0000
0000
0000
,
0000
3020
0000
0000
0000
0000
0000
0000
,
0000
0000
0000
0000
0000
2000
0000
3002
,
0000
0233
0000
0000
0000
0000
0000
0000
,
0000
0320
0000
0000
0000
0000
0000
0000
,
0000
2030
0000
0000
0000
0000
0000
0000
,
0000
0000
0000
0000
0000
0000
0000
3000
,
0000
1000
0100
0010
0001
0010
0100
1000
,
0100
0001
0100
1000
0100
0002
0000
1103
,
0000
0001
0010
0100
1000
0100
0010
0001
,
0010
1000
0010
0001
0010
2000
0000
3011
,
0001
1000
0100
0010
0001
0010
0100
1000
,
0100
0001
0100
1000
0100
0002
0000
1103
,
0000
0001
0010
0100
1000
0100
0010
0001
,
0010
1000
0010
0001
0010
2000
0000
3011
,
0001
0110
0100
0100
0010
0010
1000
1000
,
0100
0100
0010
0010
0001
0002
0000
1103
,
0000
0100
0100
0010
0010
1000
1000
0001
,
0001
0100
0100
0010
0010
0200
0000
1310
,
0001
0110
0100
0100
0010
0010
1000
1000
,
0100
0100
0010
0010
0001
0002
0000
1103
,
0000
0100
0100
0010
0010
1000
1000
0001
,
0001
0100
0100
0010
0010
0200
0000
1310
,
0001
1010
0010
0100
0020
0000
0130
0000
,
0100
1010
0001
0001
2000
0000
3101
0000
,
0010
0101
1000
1000
0020
0000
0131
0000
,
0001
1010
0100
0100
0020
0000
0130
0000
,
1000
0101
0000
0010
2000
3010
0000
0001
,
0020
1130
0000
1000
0020
0130
0000
0100
,
0020
1130
0002
1003
2000
3101
0200
0310
,
0002
0000
1013
0000
0200
1000
0310
0000
0002
0000
2003
0010
3001
0100
0010
0000
,
0101
0000
0010
0100
0010
0100
1000
0010
0100
1000
0010
1000
0100
0001
0010
0100
,
0010
0001
0010
0100
0010
1000
0001
0100
0010
0100
0001
0010
0001
0100
0010
1000
,
0100
0010
0001
0010
0100
0001
0010
0100
0001
0010
0100
1000
0010
0001
0010
0100
,
0010
0100
0001
1000
0010
0100
0001
0010
1000
0010
0001
0100
0010
0000
1100
0000
,
0110
0000
0010
0100
0010
0100
1000
0010
0100
1000
0010
1000
0100
0001
0010
0100
,
0010
0001
0010
0100
0010
1000
0001
0100
0010
0100
0001
0010
0001
0100
0010
1000
,
0100
0010
0001
0010
0100
0001
0010
0100
0001
0010
0100
1000
0010
0001
0010
0100
,
0010
0100
0001
1000
0010
0100
0001
0010
1000
0010
0001
0100
0010
0000
1100
0000
,
0110
0000
0010
0100
0010
0100
1000
0010
0100
1000
0010
1000
0100
0001
0010
0100
,
0010
0001
0010
0100
0010
1000
0001
0100
0010
0100
0001
0010
0001
0100
0010
1000
,
0100
0010
0001
0010
0100
0001
0010
0100
0001
0010
0100
1000
0010
0001
0010
0100
,
0010
0100
0001
1000
0010
0100
0001
0010
1000
0010
0001
0100
0010
0000
1100
0000
,
0110
0000
0010
0100
0010
0100
1000
0010
0100
1000
0010
1000
0100
0001
0010
0100
,
0010
0001
0010
0100
0010
1000
0001
0100
0010
0100
0001
0010
0001
0100
0010
1000
,
0100
0010
0001
0010
0100
0001
0010
0100
0001
0010
0100
1000
0010
0001
0010
0100
,
0010
0100
0001
1000
0010
0100
0001
0010
1000
0010
0001
0100
0010
0000
1100
0000
,
0110
0000
0101
0000
1000
0010
1000
0000
0100
0000
1001
0000
0100
0000
1100
0000
,
0010
1100
0001
1010
0100
1001
0010
0101
,
0001
0000
1100
0000
0010
0100
0001
0000
0100
0000
1010
0000
0001
0000
1100
0000
,
0010
1001
0010
0011
0100
1010
0001
1100
,
0001
0000
1000
0000
0001
0010
1000
0000
0100
0000
0011
0000
0100
0000
1001
0000
,
0010
1100
0001
1010
0100
0110
1000
0101
,
0010
0000
0110
0000
0001
1000
0001
0000
0100
0000
1010
0000
0001
0000
1100
0000
,
0001
0110
1000
0011
0100
1010
0100
1001
,
0000
0000
1001
0000
0010
0100
0010
0000
0100
0000
0110
0000
0200
0000
0310
0000
,
0002
0013
0200
1300
0020
0130
2000
3100
,
0020
0000
1031
0000
0010
0100
0010
0000
0100
0000
0110
0000
0200
0000
0310
0000
,
0002
1000
0013
0000
0200
0000
1300
0000
0020
0001
0130
0000
2000
0000
3100
0000
,
0020
0000
1031
0000
0010
0100
0010
0000
0100
0000
0010
0000
0200
0000
0310
0000
,
0002
0013
0200
1300
0020
0130
2000
3101
,
0110
0000
1001
0000
0010
0001
0100
0000
1000
0000
0011
0000
0100
0000
1010
0000
,
0001
1100
0200
0320
0032
2003
0000
3010
;
