#TITLE:Kirby Floating Island Remix;
#SUBTITLE:;
#ARTIST:Capcom;
#TITLETRANSLIT:;
#SUBTITLETRANSLIT:;
#ARTISTTRANSLIT:;
#CREDIT:;
#BANNER:kirby1-bn.png;
#BACKGROUND:airride_kirbysword-bg.jpg;
#LYRICSPATH:;
#CDTITLE:N8 ball.JPG;
#MUSIC:Kirby_Superstar_Floating_Islands_of_Grand_Beach_Manitoba_OC_ReMix.mp3;
#OFFSET:-0.007;
#SAMPLESTART:54.690;
#SAMPLELENGTH:15.300;
#SELECTABLE:YES;
#BPMS:0.000=125.000;
#STOPS:;
#BGCHANGES:;
// cache tags:
#FIRSTBEAT:16.000;
#LASTBEAT:412.000;
#SONGFILENAME:Songs/Tales of Genji/Kirby/Floating Island Remix.sm;
#HASMUSIC:1;
#HASBANNER:1;
#MUSICLENGTH:195.866;
// end cache tags

//---------------dance-single - N8----------------
#NOTES:
     dance-single:
     N8:
     Hard:
     11:
     0.662,0.894,0.276,0.296,0.796,795.000,54.000,58.000,26.000,11.000:
0000
0000
0000
0000
,
0000
0000
0000
0000
,
0000
0000
0000
0000
,
0000
0000
0000
0000
,
1000
0000
1000
0000
1000
1000
0000
0000
0100
0000
0100
0000
0100
0100
0000
0000
,
0010
0000
0010
0000
0010
0010
0000
0000
0001
0000
0001
0000
0001
0001
0000
0000
,
1000
1000
0100
0100
0010
0010
0001
0001
,
0010
0000
0010
0000
1000
0100
1000
0100
1000
0000
1000
0000
1000
0100
0000
0000
,
0110
0000
0010
0100
0000
0000
0010
0100
0010
0000
0100
1000
0000
0000
0100
0010
,
0100
0000
0010
0100
0000
0000
1000
0100
0010
0000
0010
0100
0000
0000
0001
0010
,
1100
0000
1000
0100
0000
0000
0001
0100
0010
0000
0001
0100
0000
0000
1000
0010
,
1100
0000
0001
0100
0000
0000
0010
0100
1000
0000
0001
0010
0000
0000
1000
0001
,
0110
0000
1000
0000
1000
0100
0000
1000
0001
0000
0001
0000
0001
0010
0000
0001
,
0100
0000
0100
0000
0100
0001
0000
1000
0010
0000
0010
0000
0010
1000
0000
0001
,
0100
0000
0010
0000
1000
0001
0000
1000
0010
0000
0100
0000
0001
1000
0000
0010
,
1002
0000
1003
0000
0120
1000
0000
0001
0230
0000
0010
0000
1301
0000
0000
0000
,
2000
0000
0000
0001
0010
0000
0010
0001
0010
0000
0010
0001
0000
0000
0100
0010
,
0100
0000
0100
0010
0000
0000
0100
0010
3100
0000
0100
0010
1000
0100
0010
0001
,
0000
0001
0000
0100
1000
0000
1000
0100
1000
0000
1000
0100
0000
0000
0001
0010
,
0100
0000
1000
0100
0000
0000
0010
0100
0001
0000
0000
0000
1000
0100
0010
0002
,
1000
0000
1000
0000
1000
0100
0000
1000
0100
0000
0100
0000
0100
1000
0000
0100
,
1000
0000
1000
0000
1000
0100
0000
0100
1000
0000
1000
0000
1003
0100
0010
0001
,
0000
0011
0000
0000
0001
0000
0010
0100
1000
0000
1000
0100
0020
0000
0000
0000
,
0230
0000
0000
0000
0000
0000
0010
0001
0310
0000
0010
0001
1000
0000
1000
0100
,
0020
0000
0000
0000
2030
0000
0000
0000
3020
0000
0000
0000
1130
0000
1100
2020
,
0000
0000
0000
0000
0000
0000
0000
0000
0000
0000
3030
0000
0110
0000
0101
2020
,
0000
0000
0000
0000
0000
0000
0000
0000
0000
0000
3030
0000
1100
0000
0110
0202
,
0000
0000
0000
0000
0000
0000
0000
0000
0000
0000
0303
0000
0011
0000
1100
0220
,
0000
0000
0000
0000
0000
0000
1000
0000
0000
0000
1330
0000
1100
0000
0110
0022
,
0000
0000
0000
0000
0000
0000
0000
0000
0000
0000
0033
0000
0110
1100
0000
2200
,
0000
0000
0000
0000
0000
0000
0000
0000
0000
0000
3300
0000
1000
0000
0000
1000
,
0200
0000
0000
0300
,
0201
0000
0001
0010
0000
0000
0010
1000
0001
0000
0001
1000
0000
0000
1000
0010
,
0001
0000
0001
0010
0000
0000
0010
0001
1300
0000
1000
0100
0001
0100
0010
1000
,
0000
1100
0000
0000
0000
0000
1000
0100
1000
0000
1000
0100
0000
0000
0001
0010
,
0100
0000
1000
0100
0000
0000
0001
1000
0100
0000
0010
0100
1000
0100
0010
0002
,
0000
0000
0000
0000
,
0000
0000
0000
0000
0000
0000
0000
0000
0000
0000
0000
0000
1003
0100
0010
0100
,
0000
0220
0000
0000
0000
0000
0000
0000
0000
0000
0000
0000
0000
0000
0000
0000
,
0000
0330
0000
0000
0000
0000
0000
0000
0000
0000
0000
0000
0000
0000
0000
0000
,
1000
0000
1000
0100
0000
0000
0001
0010
0001
0000
0001
0010
0000
0000
0100
0010
,
0100
0000
0100
0010
0000
0000
1000
0001
1000
0000
1000
0001
0000
0000
0001
1000
,
0001
0000
0001
1000
0000
0000
0100
0010
0001
0000
0001
0010
0000
0000
1000
0100
,
0010
0000
0100
0010
0000
0000
0001
1000
0100
0000
0010
0001
0000
0000
1000
0010
,
0100
0000
0001
0010
0000
0000
0001
0100
0010
0000
1000
0100
0000
0000
1000
0001
,
0010
0000
0100
0001
0000
0000
0001
1000
0100
0000
0010
1000
0000
0000
1000
0100
,
0001
0000
0001
0010
0000
0000
0001
0010
1000
0000
1000
0100
0000
0000
0001
0100
,
1000
0000
1000
0100
0000
0000
1000
0100
0001
0010
0001
0100
1000
0000
0000
0000
,
1100
0000
1000
0100
0000
0000
0000
0000
0000
0000
1100
0000
1000
0100
0000
0000
,
0110
0000
0100
0010
0000
0000
0100
0010
0100
0000
1000
0000
0100
0010
0000
0000
,
1000
0100
1000
0001
1000
0100
1000
0001
0100
0010
0100
0001
0100
0010
0100
0001
,
1000
0100
1000
0001
1000
0100
1000
0001
0100
0010
0100
0001
0100
0010
0100
0001
,
1000
0010
0100
0001
1000
0010
0100
0001
0010
0100
0001
1000
0010
0100
0001
1000
,
0001
1000
0010
0100
0001
1000
0010
0100
1000
0010
0100
0001
1000
0010
0100
0001
,
0110
0000
0000
0110
0000
0000
1000
0100
1000
0000
1000
0000
1000
0100
0000
0100
,
0110
0000
0000
0110
0000
0000
0001
0010
0001
0000
0001
0000
0001
0010
0000
0100
,
1000
0000
1000
0000
1000
0000
1000
0100
1000
0000
0100
0000
0100
0000
0100
1000
,
0100
0000
0010
0000
0010
0000
0010
0001
0010
0000
0001
0000
0001
0000
0001
0010
,
0001
0000
0100
0000
0010
0000
0100
1001
0010
0000
0100
0000
0010
0000
0100
1001
,
0010
0000
0000
0000
M00M
0000
0000
MM0M
0000
0000
M0MM
0000
0000
M00M
0000
0000
0MM0
0000
M00M
0000
M00M
0000
0MM0
0000
0MM0
0000
M00M
0000
M00M
0000
0MM0
0000
,
1000
0000
1000
0100
0000
0000
0010
0100
0001
0000
0001
0010
0000
0000
1000
0010
,
0100
0000
1000
0010
0000
0000
0100
1000
0100
0000
0100
1000
0000
0000
0010
0001
,
0011
0000
0010
0001
0000
0000
0010
0100
1000
0000
0010
0100
0000
0000
0100
0010
,
0011
0000
0100
0010
0000
0000
0001
0010
0100
0000
1000
0100
0000
0000
0001
0010
,
1000
0000
1000
0000
1000
0100
0000
0010
0001
0000
0001
0000
0001
0010
0000
0010
,
0100
0000
0100
0000
0100
1000
0000
0100
0010
0000
0010
0000
0010
0001
0000
1000
,
0100
0000
0010
0000
0100
0001
0000
0001
0010
0000
0010
0000
0100
1000
0000
1000
,
0010
0000
0100
0000
0010
1000
0000
0001
0100
0000
0010
0000
0100
0001
0000
0000
,
1100
0000
0000
0000
1000
0100
0010
0100
0001
0010
0100
0010
0001
0100
1000
0100
,
0010
0000
0000
0000
0100
0001
0100
0010
0100
1000
0100
0010
0100
0001
0100
1000
,
0000
2200
0000
0000
0000
0000
0000
0000
0000
0000
0000
0000
0000
0000
0000
0000
,
0000
0000
0000
0000
3310
0100
1000
0010
0001
0100
0010
0001
1000
0100
0010
0002
,
0000
0000
0000
0000
,
0000
0000
0000
0000
1000
0000
1000
0100
0000
0000
0000
0000
0013
0100
0010
0100
,
0000
2002
0000
0000
0000
0000
0000
0000
0000
0000
0000
0000
3223
0000
0000
0000
,
1331
0000
0000
0000
1000
0001
0010
0100
0000
0100
0010
0001
0200
0000
0000
0000
,
0000
0000
0000
0000
0000
0000
1000
1000
,
1000
0000
0000
0000
0000
0000
0010
0010
,
0010
0000
0000
0000
0000
0000
0001
0001
,
0001
0000
0000
0000
0000
0000
0010
0010
,
0320
0000
0000
0000
0000
0000
1130
1100
,
2100
0000
0000
0000
0000
0000
0002
3100
,
0113
0000
0000
1100
,
0022
0000
0000
0033
,
2020
0000
0000
0000
0000
3130
0010
0100
0020
0000
1030
0010
0100
0010
0001
0020
,
0000
0000
0000
0000
0000
0031
0010
0100
2000
0000
3010
0100
1000
0100
0001
2000
,
0000
0000
0000
0000
0000
3100
0010
0100
0002
0000
1003
0100
0010
0100
0010
0002
,
0000
0000
0000
0000
0000
1003
0100
0010
0002
0000
1003
0100
0010
0001
0010
0200
,
0000
0000
0000
0000
0000
1300
0010
0100
0020
0000
1030
0001
1000
0001
1000
0002
,
0000
0000
0000
0000
0000
1003
0001
0010
0200
0000
0301
0010
0100
1000
0100
0020
,
0000
0000
0000
0000
0000
1030
0100
1000
0200
0000
0310
0100
0010
0100
0010
0200
,
0000
0000
0000
0300
,
1100
0000
1000
0100
1000
0000
0100
0010
0100
0000
0001
1000
0010
0000
0001
0100
,
1000
0000
1000
0100
0010
0000
0001
0010
0001
0000
1000
0100
0010
0000
0100
0010
,
0001
0000
0100
1000
0100
0000
1000
0100
0010
0000
0001
0010
0100
0000
1000
0001
,
0010
0000
0010
0100
1000
0000
0100
0010
0001
0000
0010
0100
1000
0000
0100
0010
,
0001
0000
1000
0100
1000
0000
0100
0001
0100
0000
0010
0001
0010
0000
1000
0100
,
0010
0000
1000
0100
1000
0000
0100
0010
0100
0000
0010
0001
0010
0000
0001
0010
,
0001
0000
0010
0100
0010
0000
0100
1000
0100
0000
1000
0100
1000
0000
0100
0010
,
0001
0000
0010
0001
1000
0000
1000
0100
0010
0000
0100
0010
0001
0000
0000
0000
,
2200
0000
0000
0000
,
0000
0000
0000
0000
,
0000
0000
0000
0000
,
3300
0000
0000
0000
;
