#TITLE:Evocation;
#SUBTITLE:;
#ARTIST:Nightbeat;
#TITLETRANSLIT:;
#SUBTITLETRANSLIT:;
#ARTISTTRANSLIT:;
#CREDIT:Mad Matt;
#BANNER:../Tachyon Gamma-bn.png;
#BACKGROUND:../Tachyon Gamma-bg.png;
#LYRICSPATH:;
#CDTITLE:;
#MUSIC:Evocation.ogg;
#OFFSET:-0.001;
#SAMPLESTART:46.060;
#SAMPLELENGTH:16.000;
#SELECTABLE:YES;
#DISPLAYBPM:125.003;
#BPMS:0.000=125.003;
#STOPS:;
#BGCHANGES:;
// cache tags:
#FIRSTBEAT:8.000;
#LASTBEAT:288.000;
#SONGFILENAME:Songs/Tachyon Gamma/Evocation - [Mad Matt]/Evocation.sm;
#HASMUSIC:1;
#HASBANNER:1;
#MUSICLENGTH:142.183;
// end cache tags

//---------------dance-single - Mad Matt----------------
#NOTES:
     dance-single:
     Mad Matt:
     Challenge:
     12:
     0.882,1.000,0.014,0.408,1.000,818.000,2.000,58.000,0.000,0.000:

0000
0000
0000
0000
,
0000
0000
0000
0000
,
1000
0100
0010
0001
1000
0100
0010
0001
1000
0100
0010
0100
1000
0100
0010
0100
,
1000
0000
0010
0000
0100
0000
0001
0000
1000
0000
0010
0000
0100
0000
0001
0000
1000
0000
0010
0000
0100
0000
0001
0000
0100
0000
0010
1000
0010
0000
0100
0000
,
0001
0010
0001
1000
0010
1000
0001
0010
0001
1000
0010
1000
0001
0010
0100
1000
,
0001
0000
0000
0000
0000
0000
0000
0000
0000
0000
0000
0000
0100
0000
0000
0000
0000
0000
0000
0000
0000
0000
0000
0000
0001
0000
0000
0000
0000
0000
0000
0000
0000
0000
0000
0000
1000
0000
0000
0000
0000
0000
0000
0000
0000
0000
0000
0000
0100
0000
0000
0000
0000
0000
0000
0000
0000
0000
0000
0000
1000
0000
0000
0000
0000
0000
0000
0000
0000
0000
0000
0000
0001
0000
0000
0000
0000
0000
0000
0000
0000
0000
0000
0000
0010
0000
0000
0000
0000
0000
0000
0000
0000
0000
0000
0000
0001
0000
0000
0000
0000
0000
0000
0000
0000
0000
0000
0000
0200
0300
0000
0000
0000
0000
0000
0000
0000
0000
0000
0000
0020
0030
0000
0000
0000
0000
0000
0000
0000
0000
0000
0000
2000
3000
0000
0000
0000
0000
0000
0000
0000
0000
0000
0000
0200
0300
0000
0000
0000
0000
0000
0000
0000
0000
0000
0000
2000
3000
0000
0000
0000
0000
0000
0000
0000
0000
0000
0000
0020
0030
0000
0000
0000
0000
0000
0000
0000
0000
0000
0000
0200
0300
0000
0000
0000
0000
0000
0000
0000
0000
0000
0000
,
0001
0010
0001
1000
0010
1000
0001
0100
0001
1000
0100
1000
0001
0100
0010
1000
,
0001
0000
0010
0000
0001
0000
0100
0000
0000
0000
0100
0000
0010
0000
1000
0000
0000
0000
1000
0000
0100
0000
0010
0000
0100
0000
1000
0001
1000
0000
0010
0000
,
0100
0000
0000
0000
0000
0000
0001
0000
0000
0000
0001
0000
1000
0000
0000
0000
0010
0000
0000
0000
0100
0001
0100
0001
1000
0000
0000
0000
0002
0000
0000
0000
,
0000
0000
0000
0000
1003
0000
0000
0000
0100
0000
1000
0001
1000
0000
0000
0000
0010
0000
0000
0000
0100
0000
0000
0000
0001
0000
1000
0100
1000
0000
0000
0000
,
0001
0100
0000
0001
0000
0001
0100
0000
0000
0001
0100
0000
0100
0001
0000
0000
,
2000
0000
0000
0000
0000
0000
3001
0100
0001
0000
0000
0000
1000
0000
0000
0000
0100
0000
0000
0000
0010
0000
0000
0000
0001
0000
1000
0010
1000
0000
0000
0000
,
0001
0000
0000
0000
0000
0000
1000
0000
0000
0000
1000
0000
0010
0000
0000
0000
0100
0000
0000
0000
0010
1000
0010
1000
0001
0000
0000
0000
0020
0000
0000
0000
,
0000
0000
0000
0000
0031
0000
0000
0000
0010
0000
0100
0000
1000
0000
0000
0000
0010
0000
0000
0000
1000
0001
1000
0000
0010
0000
0100
0001
0100
0000
0000
0000
,
0001
0000
0100
0000
0010
0000
1000
0000
0000
0000
1000
0000
0002
0000
0000
0000
0000
0000
0000
0000
0013
0000
0100
1000
0100
0000
0000
0000
0010
0000
0000
0000
,
0001
1000
0000
0010
0000
0000
1000
0000
0100
0010
0001
0100
0000
0100
0010
0000
,
1000
0000
0000
0000
0000
0000
0001
0000
0000
0000
0001
0000
1000
0000
0000
0000
0100
0000
0000
0000
1000
0001
1000
0001
0010
0000
0000
0000
0200
0000
0000
0000
,
0000
0000
0000
0000
0310
0000
0000
0000
0001
0000
1000
0100
1000
0000
0000
0000
0001
0000
0000
0000
0010
0000
0000
0000
0100
0000
1000
0001
1000
0000
0000
0000
,
0010
1000
0000
0010
0000
0010
1000
0000
0000
0010
1000
0000
1000
0010
0000
0000
,
0200
0000
0000
0000
0000
0000
0301
1000
0001
0000
0000
0000
0100
0000
0000
0000
0010
0000
0000
0000
1000
0000
0000
0000
0001
0000
0010
0100
0010
0000
0000
0000
,
0001
0000
0000
0000
0000
0000
1000
0000
0000
0000
1000
0000
0001
0000
0000
0000
1000
0000
0000
0000
0100
0010
0100
0010
0001
0000
0000
0000
0200
0000
0000
0000
,
0000
0000
0000
0000
0310
0000
0000
0000
1000
0000
0001
0000
0010
0000
0000
0000
0100
0000
0000
0000
1000
0001
1000
0000
0010
0000
0100
0001
0100
0000
0000
0000
,
0010
0000
1000
0000
0001
0000
0010
0000
0000
0000
0010
0000
0200
0000
0000
0000
0000
0000
0000
0000
1300
0000
0001
0010
0001
0000
0000
0000
1000
0000
0000
0000
,
0010
0100
0000
0010
0000
0000
1000
0000
0001
0010
0100
1000
0000
1000
0001
0000
,
0010
0000
0001
1000
0000
0001
0010
0000
0001
1000
0000
0001
0010
0100
1000
0001
,
0100
0000
0001
1000
0000
0001
0100
0000
0001
1000
0000
0001
0100
0010
1000
0001
,
0010
0000
0001
0100
0000
0001
0010
0000
0001
0100
0000
0001
0010
0100
1000
0001
,
0100
0000
0000
0000
0001
0000
0010
0000
0000
0000
0001
0100
0010
1000
0010
0100
0001
0000
1000
0000
0010
0000
1000
0000
0001
0000
0010
0000
0100
0000
1000
0000
,
0010
0000
1000
0001
0000
1000
0010
0000
1000
0001
0000
1000
0010
0100
0001
1000
,
0100
0000
1000
0001
0000
1000
0100
0000
1000
0001
0000
1000
0100
0010
0001
1000
,
0010
0000
1000
0100
0000
1000
0010
0000
1000
0100
0000
1000
0010
0100
0001
1000
,
0100
0000
0000
0000
1000
0000
0010
0000
0000
0000
1000
0100
0010
0001
0010
0100
1000
0000
0001
0000
0100
0000
0001
0000
1000
0010
0100
0010
1000
0010
0100
0001
,
2000
0000
0000
0000
0000
0000
0000
0000
0000
0000
0000
0000
3200
0000
0000
0000
0000
0000
0000
0300
0000
0000
1000
0001
1000
0000
0000
0000
0100
0000
0000
0000
,
0020
0000
0000
0032
0000
0000
2003
0000
3020
0000
0000
0230
0000
0000
0302
0003
,
0002
0000
0000
0000
0000
0000
2003
0000
0000
0000
0000
0000
3200
0000
0000
0300
,
0200
0000
0000
2300
3000
0000
0002
0000
0203
0300
0000
0020
0030
0000
2000
3000
,
1200
0000
0000
0000
0000
0000
0300
0000
0020
0000
0000
0032
0000
0000
2003
0000
,
3100
0010
0100
0000
0010
0000
0100
0010
0002
0000
0000
0203
0000
0000
0320
0000
,
1030
0001
1000
0000
0001
0000
1000
0100
0020
0000
0000
0032
0000
0000
2003
0000
,
3001
0100
0001
0000
0100
0000
0001
0100
0010
0000
0010
1000
0000
1000
0001
0010
,
0100
0000
1000
0000
0001
0000
0100
0000
0000
0000
0100
0000
0020
0000
0000
0000
0000
0000
0130
0000
0001
0000
1000
0100
1000
0000
0001
0000
0100
0000
0020
0000
,
0000
1030
0001
0010
0000
0010
0200
0000
0000
0000
0000
1300
0001
0100
0010
1000
,
2000
0000
3000
0000
0001
0010
0001
1000
0010
0100
0001
2000
0000
3100
1000
0001
,
0000
0000
0000
0000
0000
0000
0100
0000
0000
0000
0000
0000
0010
0000
0000
0000
1000
0100
0010
0100
1000
0001
0010
0100
1000
0001
1000
0001
0010
0100
1000
0001
,
2000
0000
0000
0000
3001
0100
0001
1000
0000
0000
0010
1000
0000
0010
0100
0001
,
1000
0100
0000
0100
0000
0100
1000
0002
0000
0000
0003
1000
0100
1000
0010
0010
,
0100
0001
0010
0100
0000
1000
0010
0100
0000
0010
1000
0100
0000
0010
0001
0100
,
0000
0000
0000
0000
0010
1000
0010
0100
0001
0000
0100
0000
0001
0000
2000
0000
0000
0000
0000
0000
0000
0000
0000
0000
3001
0100
0010
1000
0010
0100
0010
1000
,
0001
0000
0001
0100
0000
0100
0010
0000
0000
1000
0100
1000
0010
0100
0001
1000
,
0100
0000
0000
0000
0000
0000
0010
0000
0000
0000
0000
0000
0100
0000
1000
0001
1000
0000
0000
0000
0000
0000
0001
0000
0000
0000
0000
0000
0100
0000
0000
0000
,
0010
0000
0100
0000
0001
0000
1000
0000
0100
0000
1000
0000
0010
0000
0100
0000
0001
0000
1000
0100
1000
0000
0001
0000
0100
0000
0001
0000
1000
0000
0010
0000
,
0000
0000
0000
0000
0000
0000
0000
0000
0000
0000
0000
0000
0000
0000
0000
0000
1000
0010
1000
0001
0100
0001
1000
0100
1000
0001
0010
0001
1000
0100
0010
0001
,
1000
0000
1000
0010
0000
0010
0100
0000
0000
0001
0010
0100
1000
0100
0010
0001
,
1000
0000
0000
0000
0000
0000
0010
0000
0000
0000
0000
0000
0100
0000
0010
1000
0010
0000
0100
0000
0001
0000
0010
0000
0001
0000
1000
0100
1000
0000
0001
0000
,
0100
0000
0001
0010
0000
0001
0100
0000
0001
0010
0000
0001
0100
0010
1000
0001
,
0010
0000
0000
0000
0001
0000
0100
0000
0000
0000
0001
0010
0100
1000
0100
0010
0001
0000
1000
0000
0010
0000
0100
0000
0001
0000
1000
0000
0001
0000
0010
0000
,
0100
0000
0000
0000
0000
0000
1000
0000
0000
0000
1000
0000
0001
0000
0000
0000
0010
0000
0000
0000
0100
1000
0100
1000
0001
0000
0000
0000
2000
0000
0000
0000
,
0000
0000
0000
0000
3001
0000
0000
0000
0100
0000
0001
1000
0001
0000
0000
0000
0010
0000
0000
0000
0100
0000
0000
0000
1000
0000
0001
0100
0001
0000
0000
0000
,
1000
0100
0000
1000
0000
1000
0100
0000
0000
1000
0100
0000
0100
1000
0000
0000
,
0002
0000
0000
0000
0000
0000
1003
0100
1000
0000
0000
0000
0001
0000
0000
0000
0100
0000
0000
0000
0010
0000
0000
0000
1000
0000
0001
0010
0001
0000
0000
0000
,
1000
0000
0000
0000
0000
0000
0001
0000
0000
0000
0001
0000
0010
0000
0000
0000
0100
0000
0000
0000
0010
0001
0010
0001
1000
0000
0000
0000
0020
0000
0000
0000
,
0000
0000
0000
0000
1030
0000
0000
0000
0010
0000
0100
0000
0001
0000
0000
0000
0010
0000
0000
0000
0001
1000
0001
0000
0010
0000
0100
1000
0100
0000
0000
0000
,
1000
0000
0100
0000
0010
0000
0001
0000
0000
0000
0001
0000
2000
0000
0000
0000
0000
0000
0000
0000
3010
0000
0100
0001
0100
0000
0000
0000
0010
0000
0000
0000
,
1000
0001
0000
0010
0000
0000
0001
0000
0100
0010
1000
0100
0000
0100
0010
0000
,
0001
0000
0000
0000
0000
0000
1000
0000
0000
0000
1000
0000
0001
0000
0000
0000
0100
0000
0000
0000
0001
1000
0001
1000
0010
0000
0000
0000
0200
0000
0000
0000
,
0000
0000
0000
0000
0310
0000
0000
0000
1000
0000
0001
0100
0001
0000
0000
0000
1000
0000
0000
0000
0010
0000
0000
0000
0100
0000
0001
1000
0001
0000
0000
0000
,
0010
0001
0000
0010
0000
0010
0001
0000
0000
0010
0001
0000
0001
0010
0000
0000
,
0200
0000
0000
0000
0000
0000
1300
0001
1000
0000
0000
0000
0100
0000
0000
0000
0010
0000
0000
0000
0001
0000
0000
0000
1000
0000
0010
0100
0010
0000
0000
0000
,
1000
0000
0000
0000
0000
0000
0001
0000
0000
0000
0001
0000
1000
0000
0000
0000
0001
0000
0000
0000
0100
0010
0100
0010
1000
0000
0000
0000
0200
0000
0000
0000
,
0000
0000
0000
0000
0310
0000
0000
0000
0001
0000
1000
0000
0010
0000
0000
0000
0100
0000
0000
0000
0001
1000
0001
0000
0010
0000
0100
1000
0100
0000
0000
0000
,
0010
0000
0001
0000
1000
0000
0010
0000
0000
0000
0010
0000
0200
0000
0000
0000
0000
0000
0000
0000
0301
0000
1000
0010
1000
0000
0000
0000
0001
0000
0000
0000
,
0010
0100
0000
0010
0000
0000
0001
0000
1000
0010
0100
0001
0000
0001
1000
0000
,
1001
0000
0000
0000
;
