#TITLE:CYNDER BOSS;
#SUBTITLE:;
#ARTIST:Kneubuhl/Mann;
#TITLETRANSLIT:;
#SUBTITLETRANSLIT:;
#ARTISTTRANSLIT:;
#CREDIT:Dancing Monkeys v1.06;
#BANNER:6C CYNDER BOSS W CHOIR-BN.jpg;
#BACKGROUND:6C CYNDER BOSS W CHOIR-BG.jpg;
#LYRICSPATH:;
#CDTITLE:spyrothedragon.png;
#MUSIC:6C CYNDER BOSS W CHOIR.mp3;
#OFFSET:-2.019;
#SAMPLESTART:55.071;
#SAMPLELENGTH:12.000;
#SELECTABLE:YES;
#BPMS:0.000=126.670;
#STOPS:27.000=1.895
,55.000=1.895
,67.000=1.895
;
#BGCHANGES:;
// cache tags:
#FIRSTBEAT:0.000;
#LASTBEAT:201.000;
#SONGFILENAME:Songs/toune 6/CYNDER BOSS/6C CYNDER BOSS W CHOIR.sm;
#HASMUSIC:1;
#HASBANNER:1;
#MUSICLENGTH:105.098;
// end cache tags

//---------------dance-single - Basic----------------
#NOTES:
     dance-single:
     Basic:
     Easy:
     2:
     0.192,0.214,0.000,0.029,0.000,138.000,0.000,3.000,0.000,0.000:
1000
0000
0100
0000
0100
0000
0010
0000
,
0001
0000
0010
0000
0001
0000
1000
0000
,
0001
0000
0010
0000
0001
0000
0100
0000
,
0001
0000
0100
0000
0000
0000
0010
0000
,
0001
0000
0100
0000
0010
0000
0000
0000
,
0002
0000
0000
0000
0000
0000
0000
0000
,
0003
0000
0000
0000
0100
0000
0000
0000
,
1000
0000
0100
0000
0100
0000
0010
0000
,
0001
0000
0100
0000
0000
0000
0010
0000
,
0001
0000
0010
0000
0001
0000
0100
0000
,
0001
0000
0100
0000
0000
0000
0010
0000
,
0001
0000
0020
0000
0000
0000
0000
0000
,
0000
0000
0000
0000
0000
0000
0030
0000
,
1000
0000
0000
0000
0000
0000
0000
0000
,
1000
0000
0000
0000
0100
0000
0000
0000
,
1000
0000
0000
0000
0000
0000
0000
0000
,
1000
0000
0000
0000
0100
0000
0000
0000
,
0001
0000
0001
0000
0010
0000
0100
0000
,
0001
0000
1000
0000
0001
0000
0001
0000
,
0001
0000
0100
0000
0010
0000
0000
0000
,
1000
0000
0000
0000
0000
0000
0000
0000
,
0001
0000
0100
0000
0010
0000
0000
0000
,
0001
0000
1000
0000
0000
0000
0000
0000
,
0001
0000
0001
0000
0010
0000
0100
0000
,
0001
0000
1000
0000
0001
0000
0001
0000
,
1000
0000
0100
0000
0100
0000
0010
0000
,
0001
0000
0100
0000
0000
0000
0010
0000
,
0001
0000
1000
0000
0001
0000
0001
0000
,
1000
0000
0000
0000
0100
0000
0000
0000
,
0001
0000
0100
0000
0010
0000
0000
0000
,
0001
0000
0000
0000
0100
0000
0010
0000
,
1000
0000
0001
0000
1000
0000
0100
0000
,
0001
0000
1000
0000
1000
0000
0100
0000
,
0001
0000
1000
0000
1000
0000
0010
0000
,
0002
0000
0000
0000
0000
0000
0003
0000
,
1000
0000
0010
0000
1000
0000
0010
0000
,
1000
0000
0000
0000
0000
0000
0000
0000
,
1000
0000
0000
0000
0100
0000
0000
0000
,
1000
0000
0000
0000
0000
0000
0000
0000
,
0001
0000
0100
0000
0010
0000
0000
0000
,
1000
0000
0000
0000
0000
0000
0000
0000
,
0001
0000
1000
0000
0001
0000
0001
0000
,
1000
0000
0000
0000
0000
0000
0000
0000
,
0001
0000
0100
0000
0010
0000
0000
0000
,
1000
0000
0000
0000
0000
0000
0000
0000
,
0001
0000
0001
0000
0010
0000
0100
0000
,
1000
0000
0000
0000
0100
0000
0000
0000
,
1000
0000
0010
0000
0100
0000
0001
0000
,
0001
0000
0001
0000
0010
0000
0100
0000
,
0001
0000
0100
0000
0010
0000
0000
0000
,
1000
0000
0000
0000
0000
0000
0000
0000
,;

//---------------dance-single - Standard----------------
#NOTES:
     dance-single:
     Standard:
     Medium:
     5:
     0.283,0.357,0.000,0.029,0.000,205.000,0.000,3.000,0.000,0.000:
0001
0100
0001
0010
0010
0100
1000
0100
,
0001
0010
0001
0000
0000
0000
0100
0100
,
0001
0100
0001
1000
0001
0010
1000
0010
,
1000
0100
1000
0000
0000
0000
0001
0000
,
0001
1000
0001
0000
0010
0000
0000
0000
,
0020
0000
0000
0000
0000
0000
0000
0000
,
0030
0000
0010
0000
0001
0000
0000
0000
,
0001
0100
0001
0010
0010
0100
1000
0100
,
1000
0100
1000
0000
0000
0000
0001
0000
,
0001
0100
0001
1000
0001
0010
1000
0010
,
1000
0100
1000
0000
0000
0000
0001
0000
,
0001
1000
0002
0000
0000
0000
0000
0000
,
0000
0000
0000
0000
0000
0000
0003
0000
,
0001
0000
0000
0000
0000
0000
0000
0000
,
1000
0000
0010
0000
0001
0000
0000
0000
,
0001
0000
0000
0000
0000
0000
0000
0000
,
1000
0000
0010
0000
0001
0000
0000
0000
,
0001
0010
0010
0000
0100
0000
0010
0001
,
1000
0100
0010
0001
0010
0000
0000
0000
,
0001
1000
0001
0000
0010
0000
0000
0000
,
0001
0000
0000
0000
0000
0000
0000
0000
,
0001
1000
0001
0000
0010
0000
0000
0000
,
1000
0000
0001
0000
0000
0000
0000
0000
,
0001
0010
0010
0000
0100
0000
0010
0001
,
1000
0100
0010
0001
0010
0000
0000
0000
,
0001
0100
0001
0010
0010
0100
1000
0100
,
1000
0100
1000
0000
0000
0000
0001
0000
,
0001
0001
0010
0100
0010
0000
0010
0000
,
1000
0000
0010
0000
0001
0000
0000
0000
,
0001
1000
0001
0000
0010
0000
0000
0000
,
0001
0000
0000
0000
0100
0000
0010
1000
,
0001
0010
0100
0010
0100
1000
0010
1000
,
0001
0100
0001
0100
0100
0000
0010
1000
,
1000
0010
1000
0010
0010
0000
0100
0001
,
0002
0000
0010
0000
0000
0000
0003
0000
,
1000
0010
1000
0000
0100
0000
1000
0000
,
0001
0000
0000
0000
0000
0000
0000
0000
,
1000
0000
0010
0000
0001
0000
0000
0000
,
0001
0000
0000
0000
0000
0000
0000
0000
,
0001
1000
0001
0000
0010
0000
0000
0000
,
0001
0000
0000
0000
0000
0000
0000
0000
,
0001
0001
0010
0100
0010
0000
0010
0000
,
0001
0000
0000
0000
0000
0000
0000
0000
,
0001
1000
0001
0000
0010
0000
0000
0000
,
0001
0000
0000
0000
0000
0000
0000
0000
,
0001
0010
0010
0000
0100
0000
0010
0001
,
1000
0000
0010
0000
0001
0000
0000
0000
,
0001
0000
0010
0000
0001
0000
0010
0001
,
0001
0010
0010
0000
0100
0000
0010
0001
,
0001
1000
0001
0000
0010
0000
0000
0000
,
0001
0000
0000
0000
0000
0000
0000
0000
,;

//---------------dance-single - Heavy----------------
#NOTES:
     dance-single:
     Heavy:
     Hard:
     7:
     0.423,0.406,0.067,0.029,0.000,300.000,7.000,3.000,0.000,0.000:
0001
0000
0110
0000
1000
0100
0010
0000
,
0011
0000
0100
0001
0100
0010
1000
1000
,
1000
0000
0010
0100
0010
1000
0010
0000
,
1000
0100
1000
0001
1000
0010
1000
0001
,
1000
0100
1000
0001
0010
0100
1000
0001
,
0002
0000
0100
0000
0000
0000
0000
0000
,
0003
0010
0001
0000
0100
0000
0100
0000
,
0001
0000
0110
0000
1000
0100
0010
1000
,
1000
0100
1000
0001
1000
0010
1000
0001
,
1000
0000
0010
0100
0010
1000
0010
0000
,
1000
0100
1000
0001
1000
0010
1000
0001
,
1000
0100
0200
0000
0010
0000
1000
0000
,
0001
0000
0100
0000
0000
0000
0300
0000
,
1000
0001
0100
0000
0000
0000
0000
0000
,
0001
0010
0001
0000
0100
0000
0100
0000
,
0001
1000
0100
0000
0000
0000
0000
0000
,
0001
0010
0001
0000
0100
0000
0100
0000
,
1000
0010
0010
0010
0100
0010
1000
0001
,
1000
0001
0010
0100
0010
0100
0100
0010
,
1000
0100
1000
0001
0010
0100
1000
0001
,
0001
1000
0100
0000
0000
0000
0000
0000
,
1000
0100
1000
0001
0010
0100
1000
0001
,
0001
0100
0001
0010
0000
0000
0100
0000
,
1000
0010
0010
0010
0100
0010
1000
0001
,
1000
0001
0010
0100
0010
0100
0100
0010
,
0001
0000
0110
0000
1000
0100
0010
1000
,
1000
0100
1000
0001
1000
0010
1000
0001
,
0001
0001
0100
0001
0100
0001
0001
0100
,
0001
0010
0001
0000
0100
0000
0100
0000
,
1000
0100
1000
0001
0010
0100
1000
0001
,
1000
0001
0010
0100
1000
0100
0010
0000
,
0011
0000
0100
0000
0010
0000
0001
0000
,
0110
0000
0100
0010
0010
0100
1000
0000
,
0110
0000
0100
0010
0010
0100
1000
0010
,
2000
0000
0010
0000
0000
0000
3000
0100
,
0001
0010
0001
0100
0001
1000
0100
1000
,
0001
1000
0100
0000
0000
0000
0000
0000
,
0001
0010
0001
0000
0100
0000
0100
0000
,
0001
1000
0100
0000
0000
0000
0000
0000
,
1000
0100
1000
0001
0010
0100
1000
0001
,
0001
1000
0100
0000
0000
0000
0000
0000
,
0001
0001
0100
0001
0100
0001
0001
0100
,
0001
1000
0100
0000
0000
0000
0000
0000
,
1000
0100
1000
0001
0010
0100
1000
0001
,
0001
1000
0100
0000
0000
0000
0000
0000
,
1000
0010
0010
0010
0100
0010
1000
0001
,
0001
0010
0001
0000
0100
0000
0100
0000
,
1000
0001
0100
0010
1000
0001
1000
0010
,
1000
0010
0010
0010
0100
0010
1000
0001
,
1000
0100
1000
0001
0010
0100
1000
0001
,
0001
1000
0100
0000
0000
0000
0000
0000
,
;
