#TITLE:Beyond the Universe;
#SUBTITLE:;
#ARTIST:Nautiluz;
#TITLETRANSLIT:;
#SUBTITLETRANSLIT:;
#ARTISTTRANSLIT:;
#CREDIT:Arvin;
#BANNER:../Tachyon Delta-bn.png;
#BACKGROUND:../Tachyon Delta-bg.png;
#LYRICSPATH:;
#CDTITLE:;
#MUSIC:Beyond the Universe.ogg;
#OFFSET:0.003;
#SAMPLESTART:35.288;
#SAMPLELENGTH:12.000;
#SELECTABLE:YES;
#BPMS:0.000=170.000;
#STOPS:;
#BGCHANGES:;
// cache tags:
#FIRSTBEAT:0.000;
#LASTBEAT:520.000;
#SONGFILENAME:Songs/Tachyon Delta/Beyond the Universe - [Arvin]/Beyond the Universe.sm;
#HASMUSIC:1;
#HASBANNER:1;
#MUSICLENGTH:186.908;
// end cache tags

//---------------dance-single - Arvin----------------
#NOTES:
     dance-single:
     Arvin:
     Challenge:
     16:
     1.000,1.000,0.080,0.257,1.000,1648.000,15.000,48.000,0.000,0.000:

2002
3003
0000
0000
0000
0000
0000
0000
,
0000
0000
0000
0000
,
2002
3003
0000
0000
0000
0000
0000
0000
,
0001
0100
0010
0100
0010
1000
0001
0010
0100
0010
0100
1000
0001
0010
0100
1000
,
0001
0000
0000
0000
,
0000
0000
0000
0000
,
2002
3003
0000
0000
0000
0000
0000
0000
,
1000
0010
0100
0010
0100
0001
1000
0100
0010
0100
0010
0001
1000
0100
0010
0001
,
1000
0010
0100
0010
1000
0100
0010
0001
1000
0010
0100
0010
1000
0001
0010
0100
,
1000
0010
0100
0010
1000
0001
0100
0010
1000
0100
1000
0001
1000
0010
1000
0001
,
1000
0100
0010
0100
1000
0010
0100
0001
1000
0100
0010
0100
1000
0001
0100
0010
,
1000
0100
0010
0001
0100
0010
1000
0100
0010
0001
1000
0100
1000
0001
0010
0001
,
1000
0010
0100
0001
1000
0100
0010
0100
1000
0010
0100
0001
1000
0100
0010
0100
,
1000
0001
0100
0010
1000
0100
0010
0100
1000
0010
1000
0001
1000
0100
1000
0001
,
1000
0010
0100
0010
1000
0100
0010
0001
1000
0010
0100
0010
1000
0001
0010
0100
,
1000
0001
0100
0010
1000
0100
0010
0001
0100
0010
1000
0100
1000
0010
0100
0001
,
1000
0000
0000
0100
0000
0000
0010
0000
0000
0001
0000
0000
0010
0000
0000
0100
0000
0000
1000
0000
0001
0000
0100
0000
0010
0000
0000
1000
0000
0000
0001
0000
0000
0010
0000
0000
0100
0000
0000
1000
0000
0000
0100
0000
0000
0010
0000
0000
,
0001
1000
0001
0100
0001
0010
0001
0100
0001
1000
0001
0100
0010
1000
0100
0010
,
0001
1000
0001
0010
0001
0100
0001
0010
0001
1000
0001
0010
0100
1000
0010
0100
,
0001
1000
0001
0100
0001
0010
0001
0100
0001
1000
0001
0100
0010
1000
0100
0010
,
0001
1000
0100
0010
0000
0000
0001
0010
0100
1000
0000
0000
0001
0100
0010
1000
,
0001
0010
0001
0100
0010
1000
0100
1000
0010
0100
0001
0010
0001
1000
0100
0010
,
0001
0100
0010
1000
0100
0010
0001
0100
0010
1000
0100
0010
0001
1000
0010
0100
,
0001
0010
0001
0100
0010
1000
0100
1000
0010
0100
0001
0010
0001
1000
0100
0010
,
0001
0010
0100
1000
0000
0000
0001
0100
0010
1000
0000
0000
0001
0100
0010
0100
,
0001
1000
0001
0010
0001
0100
0001
0010
0001
1000
0001
0010
0100
1000
0010
0100
,
0001
1000
0001
0100
0001
0010
0001
0100
0001
1000
0001
0100
0010
1000
0100
0010
,
0001
1000
0001
0010
0001
0100
0001
0010
0001
1000
0001
0010
0100
1000
0010
0100
,
0001
1000
0010
0100
0000
0000
0001
0100
0010
1000
0000
0000
0001
0010
0100
1000
,
0001
0100
0001
0010
0100
1000
0010
1000
0100
0010
0001
0100
0001
1000
0010
0100
,
0001
0010
0100
1000
0010
0100
0001
0010
0100
1000
0010
0100
0001
1000
0100
0010
,
0001
0100
0001
0010
0100
1000
0010
1000
0100
0010
0001
0100
0001
1000
0010
0100
,
0001
0100
0010
1000
0000
0000
0001
0010
0100
1000
0000
0000
0001
0010
0100
0010
,
0001
1000
0001
0100
0001
1000
0001
0010
0001
1000
0001
0010
0001
1000
0001
0100
,
0001
0010
0001
0100
0001
1000
0001
0100
0001
0010
0001
0100
0001
1000
0001
0100
,
0001
1000
0100
1000
0001
1000
0010
1000
0001
1000
0100
1000
0001
1000
0010
1000
,
0001
0010
0001
0100
0001
1000
0010
1000
0001
1000
0001
0100
0001
0010
0001
1000
,
0010
0000
0000
0100
0000
0000
0001
0000
0000
0010
0000
0000
0100
0000
0000
1000
0000
0000
0100
0000
0000
0010
0000
0000
0001
0000
1000
0000
0010
0000
1000
0000
0001
0000
0100
0000
0010
0000
1000
0000
0010
0000
1000
0000
0001
0000
0100
0000
,
0001
1000
0100
0010
0001
1000
0010
0100
0001
0100
0010
1000
0001
0010
0100
1000
,
0001
0010
0001
0100
0010
1000
0010
0100
0001
0010
0100
1000
0010
0100
0001
0010
,
0100
1000
0100
0010
0001
0100
0010
1000
0100
0010
0001
0100
0010
1000
0100
1000
,
0001
0000
0100
0000
0010
0000
1000
0000
0001
0000
1000
0000
0001
0000
0100
0000
0010
0000
1000
0000
0001
0000
0100
0000
0001
0000
1000
0000
0010
0000
0100
0000
0001
0000
0100
0000
0001
0000
0000
1000
0000
0000
0100
0000
0000
0010
0000
0000
,
0001
0000
0000
0010
0000
0000
0100
0000
0000
1000
0000
0000
0001
0000
0010
0000
0100
0000
1000
0000
0001
0000
1000
0000
0001
0000
0010
0000
0100
0000
1000
0000
0001
0000
0010
0000
0001
0000
1000
0000
0100
0000
0010
0000
0001
0000
1000
0000
,
0001
0010
0100
0010
0001
1000
0001
0100
0010
0100
0001
0010
0100
1000
0001
1000
,
0001
0010
0100
1000
0001
0010
0100
1000
0100
0010
0001
1000
0001
0100
0010
1000
0010
0100
0002
0000
0000
0000
0000
0000
,
1003
0100
1000
0001
1000
0010
0100
0001
0100
0010
1000
0001
0010
0100
1000
0010
,
0100
0001
1000
0100
0010
0100
1000
0001
0010
0001
1000
0100
0010
0001
1000
0010
,
1000
0100
0010
0001
0100
0010
1000
0100
0010
0001
0010
0100
1000
0010
0100
0001
,
1000
0100
1000
0001
0100
0010
1000
0001
1000
0010
0100
0001
0100
0010
1000
0001
,
1000
0100
0010
0001
1000
0100
1000
0001
0010
0100
1000
0001
0100
0001
1000
0010
0100
0001
1000
0001
0100
0010
1000
0001
,
0010
0001
1000
0100
0010
0001
1000
0001
0010
0100
1000
0001
0020
0000
0000
0000
0000
0000
0000
0000
0000
0000
0000
0000
,
0031
1000
0100
1000
0001
0010
0001
1000
0100
0010
0001
1000
0001
0100
0010
1000
0001
1000
0010
0100
0001
1000
0001
1000
,
0100
0010
0001
1000
0100
1000
0001
0100
0001
1000
0010
1000
0002
0000
0000
0000
0000
0000
0000
0000
0000
0000
0000
0000
,
1003
0100
0010
0001
0010
0100
1000
0001
0010
0001
1000
0100
0010
0001
1000
0001
1000
0100
0010
0001
0010
0100
1000
0001
,
1000
0010
0100
0001
1000
0001
0100
0010
1000
0001
1000
0010
0100
0001
0100
0010
1000
0001
1000
0010
0100
0002
0000
0000
,
1003
0100
0010
0001
1000
0010
0100
0001
1000
0010
0100
0001
1000
0100
1000
0010
,
0100
0001
0100
0010
1000
0100
0010
0001
1000
0010
0100
0001
1000
0100
1000
0001
,
0010
0100
1000
0100
0010
0100
1000
0001
0010
0100
0010
0001
0010
0100
1000
0001
,
0100
0010
1000
0010
0100
0010
1000
0001
0100
0010
0100
0001
0100
0010
1000
0001
,
1000
0100
1000
0100
0010
0001
1000
0100
1000
0001
0010
0100
1000
0100
1000
0001
0100
0001
0100
0010
1000
0001
1000
0010
,
0100
0001
1000
0010
0100
0001
0100
0001
1000
0100
0010
0001
2000
0000
0000
0000
0000
0000
3000
0000
0000
0000
0000
0000
,
0001
0010
0100
0010
0001
1000
0100
0010
0001
0010
0100
1000
0001
0100
0010
0100
,
0001
1000
0010
0100
0001
0100
0010
1000
0001
0100
0001
1000
0010
0100
0010
1000
,
0001
0010
0001
1000
0001
0100
0001
1000
0010
1000
0001
1000
0010
0100
0010
1000
0010
0100
0001
1000
0001
0100
0001
1000
,
0100
0010
0100
1000
0100
0010
0001
1000
0001
0010
0100
1000
0002
0000
0000
0000
0000
0000
0000
0000
0003
0000
0000
0000
,
2002
3003
0000
0000
0000
0000
0000
0101
,
2020
3030
0000
0000
0000
0000
0000
0000
,
2200
0000
3300
0000
0000
0000
0000
0000
0000
0000
0000
0000
0000
0000
1000
0100
,
0020
0030
0000
0000
0000
0000
0000
0000
0000
0000
0000
0000
0000
0000
0000
0000
,
2002
0000
3003
0000
0000
0000
0000
0000
0000
0000
0000
0000
0000
0000
1000
0010
,
0200
0300
0000
0000
0000
0000
0000
0000
,
0202
0000
0303
0000
0000
0000
0000
0000
0000
0000
0000
0000
0000
0000
0100
0001
,
1000
0000
0000
0100
0000
0000
0010
0000
0000
0100
0000
0000
0010
0000
0000
0001
0000
0000
1000
0000
0000
0010
0000
0000
0100
0000
0000
0010
0000
0000
0100
0000
0001
0000
1000
0000
0001
0000
0000
0000
0000
0000
0000
0000
0000
0000
0000
0000
,
1000
0100
1000
0010
1000
0100
1000
0010
1000
0001
0100
0001
1000
0001
0100
0001
,
1000
0100
0010
0100
1000
0100
0010
0100
1000
0001
1000
0010
1000
0001
1000
0010
,
0100
0001
0100
0010
0100
0001
0100
0010
1000
0100
0010
0100
1000
0100
0010
0100
,
1000
0001
0100
0001
1000
0001
0100
0001
1000
0010
0100
0010
1000
0010
0100
0010
,
1000
0100
1000
0010
1000
0100
1000
0010
1000
0001
0100
0001
1000
0001
0100
0001
,
1000
0100
0010
0100
1000
0100
0010
0100
1000
0001
1000
0010
1000
0001
1000
0010
,
0100
0001
0100
0010
0100
0001
0100
0010
1000
0100
0010
0100
1000
0100
0010
0100
,
1000
0001
0100
0001
1000
0001
0100
0001
1000
0010
0100
0010
1000
0010
0100
0010
,
1000
0100
1000
0010
0100
0001
0010
0001
1000
0100
1000
0010
0100
0010
1000
0100
,
1000
0001
0010
0100
1000
0001
0010
0100
1000
0001
0100
0001
0100
0010
1000
0001
,
1000
0010
0100
0010
1000
0100
1000
0001
0010
0001
0100
0010
0100
0001
0010
0001
,
1000
0100
0010
0001
1000
0010
1000
0010
0100
0001
0100
0001
1000
0100
1000
0001
,
0200
0000
0000
0000
0000
0000
0320
2030
,
0000
0000
0000
0000
,
3001
0000
0000
0010
0000
0000
0100
0000
0000
1000
0000
0000
0001
0000
0100
0000
0010
0000
1000
0000
0000
0001
0000
0000
1000
0000
0000
0100
0000
0000
0010
0000
0000
0001
0000
0000
1000
0000
0000
0010
0000
0000
0100
0000
0000
0001
0000
0000
,
1000
0000
0000
0100
0000
0000
1000
0000
0000
0010
0000
0000
0100
0000
0000
0001
0000
0000
0010
0000
0100
0000
1000
0000
0002
0000
0000
0000
0000
0000
0000
0000
0000
0000
0000
0000
0000
0000
0000
0000
0000
0000
0000
0000
0000
0000
0000
0000
,
1003
0100
1000
0001
1000
0010
1000
0001
1000
0100
1000
0010
1000
0001
1000
0100
,
1000
0001
0100
0001
1000
0001
0010
0001
1000
0001
0100
0001
1000
0001
0010
0001
,
1000
0010
0100
0010
1000
0100
0010
0100
1000
0010
0100
0010
1000
0100
0010
0100
,
1000
0001
0010
0100
0010
0001
1000
0010
0100
0010
1000
0001
0010
0100
0010
0001
,
2000
0000
0000
0000
,
3001
0000
0010
0000
0100
0000
0020
0000
0030
0001
1000
0010
0200
0300
0000
0000
,
0202
0000
0000
0303
,
0001
0100
0001
1000
0100
1000
0010
0100
0001
0010
0001
1000
0100
1000
0001
0100
,
0002
0000
0000
0000
,
1003
0000
0100
0000
0010
0000
0200
0000
0000
1300
0001
0100
0020
0030
0000
0000
,
2020
0000
0000
3030
,
1000
0100
1000
0010
0100
0001
0010
0100
1000
0010
0100
0001
0010
0001
1000
0100
,
1000
0010
0100
0001
1000
0100
0010
0100
,
1000
0100
0010
0001
0100
0001
1000
0010
,
1000
0001
0100
0010
1000
0001
1000
0100
,
0010
0001
0100
0010
1000
0001
1000
0010
,
1000
0100
0010
0001
0010
0100
1000
0010
,
0100
0001
0100
0010
1000
0001
1000
0010
,
1000
0001
0100
0010
1000
0001
1000
0010
0100
0001
1000
0010
1000
0001
0100
0010
1000
0001
0010
0100
1000
0100
0010
0001
,
2000
3000
0000
0000
0000
0000
0000
0000
0000
0000
0000
0000
0000
0000
0000
0000
0001
0000
0000
0000
0000
0000
0000
0000
0000
0000
0000
0000
0000
0000
0000
0000
0001
0000
0000
0000
0000
0000
0000
0000
0010
0000
0000
0000
0100
0000
0000
0000
1000
0000
0000
0000
0000
0000
0000
0000
0000
0000
0000
0000
0000
0000
0000
0000
,
2002
3003
0000
0000
0000
0000
0000
0000
,
0000
0000
0000
0000
,
2002
3003
0000
0000
0000
0000
0000
0000
,
1000
0010
0100
0010
0100
0001
1000
0100
0010
0100
0010
0001
1000
0100
0010
0001
,
1000
0000
0000
0000
,
0000
0000
0000
0000
,
2002
3003
0000
0000
0000
0000
0000
0000
,
0001
0100
0010
0100
0010
1000
0001
0010
0100
0010
0100
1000
0001
0010
0100
1000
,
0001
0100
0010
0100
0001
0010
0100
1000
0001
0100
0010
0100
0001
1000
0100
0010
,
0001
0100
0010
0100
0001
1000
0010
0100
0001
0010
0001
1000
0001
0100
0001
1000
,
0001
0010
0100
0010
0001
0100
0010
1000
0001
0010
0100
0010
0001
1000
0010
0100
,
0001
0010
0100
1000
0010
0100
0001
0010
0100
1000
0001
0010
0001
1000
0100
1000
,
0001
0100
0010
1000
0001
0010
0100
0010
0001
0100
0010
1000
0001
0010
0100
0010
,
0001
1000
0010
0100
0001
0010
0100
0010
0001
0100
0001
1000
0001
0010
0001
1000
,
0001
0100
0010
0100
0001
0010
0100
1000
0001
0100
0010
0100
0001
1000
0100
0010
,
0001
1000
0010
0100
0001
0010
0100
1000
0010
0100
0001
0010
0001
0100
0010
1000
,
0001
0010
0100
1000
0100
0010
0001
1000
0100
0010
0001
0010
0100
0010
0001
1000
,
0010
0100
0010
0100
0001
0100
0001
1000
0001
1000
0100
1000
0100
0010
0100
0010
,
0001
0000
0000
1000
0000
0000
0010
0000
0000
1000
0000
0000
0001
0000
0000
0100
0000
0000
0010
0000
0000
1000
0000
0000
0100
0000
0010
0000
0001
0000
1000
0000
0001
0000
1000
0000
0100
0000
0010
0000
0001
0000
0010
0000
0100
0000
1000
0000
,
0002
0003
0000
0000
,
0202
0000
0000
0000
,
0303
0000
0000
0000
;
