#TITLE:Video Game Girl;
#SUBTITLE:;
#ARTIST:Vau Boy feat. viewtifulday;
#TITLETRANSLIT:;
#SUBTITLETRANSLIT:;
#ARTISTTRANSLIT:;
#CREDIT:owenviau1;
#BANNER:;
#BACKGROUND:;
#LYRICSPATH:;
#CDTITLE:;
#MUSIC:Vau Boy - Video Game Girl (ft. viewtifulday).ogg;
#OFFSET:-0.238;
#SAMPLESTART:126.029;
#SAMPLELENGTH:29.999;
#SELECTABLE:YES;
#BPMS:0.000=145.002;
#STOPS:;
#BGCHANGES:;
// cache tags:
#FIRSTBEAT:4.000;
#LASTBEAT:479.000;
#SONGFILENAME:Songs/owenviau1 Simfiles 07_final/Video Game Girl - [Braeden47 + owenviau1] v1.0.0/Video Game Girl.sm;
#HASMUSIC:1;
#HASBANNER:0;
#MUSICLENGTH:199.079;
// end cache tags

//---------------dance-single - ----------------
#NOTES:
     dance-single:
     :
     Challenge:
     13:
     0.997,1.000,0.266,0.723,0.917,1192.000,53.000,144.000,0.000,0.000:

0000
0000
0000
0000
,
1000
0100
0010
0001
0010
0100
1000
0001
0100
0010
1000
0100
0010
0100
1000
0001
0100
0010
1000
0100
0010
0100
1000
0001
,
0100
0000
0000
0000
,
0000
0000
0000
0000
,
0001
0100
0001
0100
0010
1000
0010
1000
,
0001
0010
0001
0010
0001
0100
0001
0100
,
0010
0100
0010
0100
0010
1000
0010
1000
,
0100
0010
0001
0100
0010
1000
0010
0100
,
0001
0100
0010
1000
0100
0010
0100
1000
0001
0100
0010
1000
0100
0010
0100
1000
0001
0010
0100
1000
0100
0010
0001
0100
,
0010
1000
0100
0010
0001
0010
0100
1000
0001
0100
0010
0100
0001
0010
0100
1000
0100
0010
0001
1000
0010
1000
0001
0100
,
0010
1000
0100
0010
0001
1000
0100
1000
0001
0010
0100
1000
0001
0010
0001
1000
0100
0010
0001
0010
0100
1000
0001
0100
,
0010
1000
0100
0010
0100
1000
0001
0100
0010
1000
0100
0010
0001
0010
0100
1000
0001
0100
0010
1000
0100
0010
0100
1000
,
0020
0000
0000
1030
0000
0000
0020
0000
0000
2030
0000
0000
3010
0000
0001
0100
0000
0000
0020
0000
0000
1030
0000
0000
,
0020
1030
0100
1000
0001
1000
0010
1000
,
0002
1003
0100
0100
0010
0002
0103
0010
,
2000
3010
0100
0001
0010
0001
0100
0001
,
1000
0010
0110
0100
0001
0010
0011
0001
,
0100
0010
0110
0010
1000
0010
0110
0100
,
0001
1000
1001
1000
0010
0100
0110
0000
,
0010
0000
0010
0000
0010
0000
0001
1000
0010
0000
0100
0000
0010
0000
0100
0000
,
0001
0010
0100
2000
3010
0200
0301
0020
,
0130
0001
0101
0010
1000
0010
1010
1000
,
0002
0103
0010
2000
3010
0100
0002
0103
,
0010
1000
1001
0010
0100
0010
1001
0010
,
0100
0001
0011
0002
0103
0020
1030
0020
,
1030
0100
1100
0020
0032
0013
0011
0001
,
0020
0130
1000
0002
0103
0020
1030
0010
,
1010
0000
0000
0000
0000
0000
0000
0000
0000
0000
0000
0000
1000
0000
0000
0000
0000
0000
0001
0000
0000
0000
0000
0000
0100
0000
0000
0010
0000
0000
0100
0000
0000
0000
0000
0000
0010
0000
0000
0000
0000
0000
1000
0000
0001
0000
0100
0000
,
0020
0000
0000
2030
0000
0000
3010
0100
0002
0000
0203
0000
0320
0000
2030
0000
,
3020
0000
0000
0000
0000
0000
0130
0001
0100
0000
0000
0010
0000
0000
0010
0000
,
2000
0000
0000
3002
0000
0000
0013
0001
1000
0000
0001
0000
0010
0000
0001
0000
,
0200
0000
0000
0000
,
0310
1000
0001
0100
0010
1000
0100
0010
0100
1000
0001
0100
0010
1000
0001
0010
,
0100
1000
0001
0100
0010
1000
0100
0010
0001
0010
0100
1000
0001
0100
0010
0100
,
0001
0000
0000
1000
0000
0000
0100
0000
0000
0010
0000
0000
0001
0000
0100
0000
0010
0000
1000
0000
0001
0000
0010
0000
0100
0000
1000
0000
0100
0000
0010
0000
0001
0000
0100
0000
0010
0000
0100
0000
0001
0000
0010
0000
0100
0000
1000
0000
,
0100
0010
0001
0010
0100
1000
0001
0100
0010
0100
0001
0010
0100
1000
0001
0100
0010
0100
0001
0010
0100
1000
0100
0010
,
0004
0000
0000
0103
0000
0000
0010
1000
0010
0000
1000
0000
0001
0000
0100
0000
,
0002
0000
0000
0203
0000
0000
0310
0000
0000
1000
0000
0010
0100
0000
0001
0000
,
2000
0000
0000
3010
0000
0000
0100
0001
1000
0000
1000
0000
0010
0000
0010
0000
,
0200
0000
0000
0301
0000
0000
0100
0010
0100
0000
0001
0000
1000
0000
0100
0000
,
0020
0000
0000
0031
0000
0000
0100
0010
0100
0000
0001
0000
1001
0000
1000
0000
,
0020
0000
0000
0130
0000
0000
0001
1000
0100
0000
0000
0010
0000
0001
0010
0000
,
0002
0000
0000
0103
0000
0000
0010
1000
0100
0000
0100
0000
0010
0000
0010
0000
,
0002
0000
0000
0103
0010
0000
1000
0001
0100
0000
0100
0000
0010
0000
0010
0000
,
2000
0000
0000
3200
0000
0000
0310
0001
0200
0000
0010
0000
0320
0000
1000
0000
,
2030
0000
0000
3001
0000
0000
0100
0000
0000
0010
0000
1000
1001
0000
0001
0000
,
0100
0000
0000
0010
1010
0000
1000
0001
0100
0000
0010
0000
1010
0000
1000
0000
,
0001
0000
0000
0100
0110
0000
0010
1000
0100
0000
0010
0000
0011
0000
0001
0000
,
0200
0000
0000
0310
0000
0000
1000
0100
0020
0000
0032
0000
0023
0000
0032
0000
,
2003
0000
0000
3010
0000
0000
0100
0001
0100
0000
0010
0000
1000
0000
0100
0000
,
1000
0010
0100
0001
1000
0100
0010
0001
0010
0100
1000
0001
0100
0010
1000
0100
0010
0001
0010
0100
1000
0001
0100
0010
,
1000
0001
0100
0010
1000
0100
0010
0001
0010
0100
1000
0001
0100
0010
0100
0001
0010
0100
1000
0100
0010
0001
0100
0010
,
1000
0010
1000
0010
0100
0001
0100
0001
,
0010
0001
0010
0001
0100
0010
0100
0010
,
1000
0100
0010
0001
1000
0010
0100
0001
,
1000
0100
1000
0100
0010
0001
0010
0001
,
0100
0010
0100
0010
1000
0100
1000
0100
,
0010
0001
0010
0001
0100
0010
0100
0010
,
1000
0100
1000
0100
0010
0001
0010
0001
,
1000
0000
0000
0000
0010
1000
0010
1000
0100
0000
0000
0000
0010
0000
0001
0000
0100
0000
0000
0000
0010
1000
0010
1000
0010
0000
0000
0000
0100
0000
0000
0000
,
0101
0001
0100
0010
1000
0100
0010
0001
,
0100
0010
1000
0010
0100
0001
0010
0100
,
1000
0001
0100
0010
1000
0001
0010
0100
,
1000
0001
0100
0010
1000
0100
0010
0001
,
0100
0010
1000
0010
0100
0001
0010
0100
,
1000
0010
0100
0001
0010
0100
1000
0001
,
0100
0010
1000
0100
0010
0001
1000
0010
,
0100
0001
1000
0100
0010
0001
1000
0001
,
1001
0001
0100
0010
0110
0010
0001
0010
,
0011
0000
0001
0000
0010
0000
0100
1000
1001
0000
0001
0000
1000
0000
0001
0000
,
1001
0000
1000
0000
0100
0000
1000
0100
1100
0000
0010
0000
0001
0000
0010
0000
,
0011
0000
0001
0000
0100
0000
0001
0000
0101
0000
0010
0000
1000
0010
0000
0000
,
1010
0000
0100
0000
0001
0000
0100
0000
0010
1000
0100
0010
0100
1000
0001
0100
,
0010
1000
0100
0010
0100
1000
0001
0010
0100
1000
0100
0010
0001
0100
0010
0100
,
0001
0100
0010
1000
0100
0010
0100
1000
0001
0100
0010
1000
0100
0010
0100
1000
0001
0010
0100
1000
0100
0010
0001
0100
,
0010
0000
0000
0000
0010
0000
1000
0001
0100
0000
0010
0000
1000
0000
0010
0100
,
0002
0000
0013
0000
0002
0000
0023
0000
0130
1000
0200
0000
0320
0000
0031
0000
,
2000
3010
1010
0100
0001
0100
0101
0010
,
2000
3010
2000
3020
0130
0002
0103
0010
,
0200
0310
1010
1000
0001
1000
1001
0010
,
0200
1300
2000
3002
0013
0200
1300
0020
,
0130
0001
0101
0010
1000
0010
2010
3010
,
0200
0301
0010
2000
3010
0001
0200
0310
,
1000
0010
1010
0001
0100
0001
0101
0010
,
2010
3010
0100
0002
0103
0020
1030
0020
,
0130
0001
0101
0010
1000
0010
1010
1000
,
0002
1003
0100
0020
0031
0100
0002
0103
,
0010
1000
1001
0001
1000
0001
1001
0001
,
0020
0130
1000
0020
0130
0002
0103
0020
,
1030
0000
0000
0100
0000
0000
0010
0001
0010
0100
1000
0001
0100
0010
1000
0100
0010
0001
0010
0100
1000
0001
0100
0010
,
1000
0100
0010
0100
1000
0001
0100
0010
0100
0001
1000
0100
0010
0100
1000
0001
0100
0010
1000
0100
0010
0100
1000
0001
,
1000
0010
0100
0001
1000
0001
0010
0100
1000
0100
0010
0001
0100
0010
1000
0100
0010
0001
0010
0100
1000
0001
0100
0010
,
2000
0000
0000
3010
0000
0000
0100
0010
0100
0000
0001
0000
0010
0000
0001
0000
,
0200
0000
0000
0310
0000
0000
1000
0000
0000
0001
0000
0100
0010
0000
1000
0000
,
0020
0000
0000
0130
0000
0000
0001
0100
0010
0000
0010
0000
0100
0000
0100
0000
,
0020
0000
0000
1030
0010
0000
0100
0001
0200
0000
0320
0030
2000
0000
3200
0000
,
0310
0000
0000
0001
0100
0000
0010
1000
0200
0000
0320
0000
0032
0000
2003
0000
,
3010
0000
0000
0010
0100
0000
0001
0100
0020
0000
0000
1030
0000
0001
0100
0000
,
0020
0000
0000
1030
0100
0000
0010
0001
2000
0000
3020
0000
0230
0000
0302
0000
,
2003
0000
0000
3010
0100
0000
0001
0100
0020
0000
2030
0000
3200
0000
0320
0030
,
0011
0000
0000
0001
0100
0000
0010
1000
0200
0000
0320
0000
0032
0000
2003
0000
,
3002
0000
0000
0103
0010
0000
1000
0000
0000
0001
0000
0100
0010
0000
1000
0000
,
0200
0000
0000
0310
0000
0000
0001
0100
0010
0000
1000
0000
0010
0000
1000
0000
,
0002
0000
0000
0103
0000
0000
0010
1000
0200
0000
0320
0000
0230
0000
0320
0000
,
0230
0000
0000
1300
0000
0000
0001
0100
0001
0000
0100
0000
0010
0000
1000
0000
,
0200
0000
0000
0301
0000
0000
0100
1000
0002
0000
0003
0100
0000
0010
0000
0000
,
2000
0000
0000
3010
0000
0000
0100
0001
2000
0000
3200
0000
0320
0000
0032
0000
,
2003
0000
0000
3010
0000
0000
0100
0001
0200
0000
0320
0000
2030
0000
3200
0000
,
0320
0000
0000
0031
0000
0000
0010
0100
0020
0000
0032
0000
0203
0000
0320
0000
,
2030
0000
0000
3010
0100
0000
0001
0000
0000
0100
0000
0010
1000
0000
0100
0000
,
0020
0000
0000
0031
0000
0000
0100
0010
0200
0000
0302
0000
0203
0000
0320
0000
,
1030
0000
0000
0010
0100
0000
0001
0100
0010
0000
1000
0000
0010
0000
1000
0000
,
0001
0000
0000
0001
0000
0000
0010
0100
0010
0000
0100
0000
1000
0000
0010
0000
,
0100
0000
0000
0000
0000
0000
0000
0000
0000
0001
0000
0000
1000
0000
0100
0000
0010
0000
0001
0000
0010
0000
0100
0000
1000
0000
0001
0000
0100
0000
0010
0000
1000
0000
0100
0000
0010
0000
0100
0000
1000
0000
0001
0000
0100
0000
0010
0000
,
1000
0100
0010
0001
0010
0100
1000
0100
0010
0001
0010
0100
1000
0001
0100
0010
1000
0100
0010
0100
1000
0001
0100
0010
,
2000
0020
0000
0000
0000
0000
0000
0000
0000
0000
0000
0000
0000
0000
0000
0000
0000
0000
3030
0000
0000
0000
0000
0000
,
1001
0001
0101
0100
0010
0100
0110
0010
,
1000
0010
1010
0100
0001
0100
0101
0001
,
1000
0010
1010
0100
0001
0100
0101
1000
,
2002
0000
0000
3003
;
