#TITLE:Meido Kakumei Sakuya;
#SUBTITLE:-MILLION KNIFE;
#ARTIST:BeatMario;
#TITLETRANSLIT:;
#SUBTITLETRANSLIT:;
#ARTISTTRANSLIT:;
#CREDIT:Mad Matt;
#BANNER:../Tachyon Gamma-bn.png;
#BACKGROUND:../Tachyon Gamma-bg.png;
#LYRICSPATH:;
#CDTITLE:;
#MUSIC:Meido Kakumei Sakuya.OGG;
#OFFSET:-0.565;
#SAMPLESTART:58.740;
#SAMPLELENGTH:12.000;
#SELECTABLE:YES;
#DISPLAYBPM:165.000;
#BPMS:0.000=165.000;
#STOPS:;
#BGCHANGES:;
// cache tags:
#FIRSTBEAT:5.500;
#LASTBEAT:288.000;
#SONGFILENAME:Songs/Tachyon Gamma/Meido Kakumei Sakuya - [Mad Matt]/Meido Kakumei Sakuya.sm;
#HASMUSIC:1;
#HASBANNER:1;
#MUSICLENGTH:105.289;
// end cache tags

//---------------dance-single - Mad Matt----------------
#NOTES:
     dance-single:
     Mad Matt:
     Challenge:
     13:
     1.000,1.000,0.294,0.665,1.000,706.000,31.000,70.000,18.000,0.000:

0000
0000
0000
0000
,
0000
0000
0000
0000
0000
0000
0001
1000
0010
0000
0100
0000
0010
0000
1000
0000
,
0001
0000
0000
0000
0000
0000
0000
0000
0000
1000
0010
1000
0001
0100
0010
1000
0010
0100
0001
1000
0001
1000
0010
0100
,
0001
0000
1000
0000
0001
0000
1000
0000
0010
0000
0100
0000
0001
0000
0000
0000
0000
0000
0010
0000
0000
0001
0000
0000
1000
0000
0000
0000
0000
0000
0001
0000
0000
0000
0000
0000
0010
0000
0000
0000
0000
0000
0100
0000
0000
0000
0000
0000
,
1000
0000
0000
0000
0000
0000
0000
0000
0000
0001
0010
0001
1000
0100
1000
0001
0010
0100
1000
0001
1000
0001
0010
0100
,
1000
0000
0001
0000
1000
0000
0001
0000
0010
0000
0100
0000
1000
0000
0000
0000
0000
0000
0001
0000
0000
1000
0000
0000
0010
0000
0000
0000
0000
0000
1000
0000
0000
0000
0000
0000
0100
0000
0000
0000
0000
0000
0010
0000
0000
0000
0000
0000
,
0001
0000
0000
0000
0000
0000
0000
0000
0000
1000
0100
0010
0001
1000
0100
0010
0001
1000
0010
1000
0010
0100
0001
0100
,
0001
0000
0000
0000
0000
0000
0000
0000
1000
0010
0100
0000
0001
0000
0100
0000
,
0020
0000
0030
4000
0000
00M0
0000
0000
3001
0000
0010
0000
0100
0000
1000
0000
,
0000
0000
0010
1000
0010
0000
0100
0001
0000
0001
0010
0001
0100
0000
0100
0001
,
1000
0010
1000
0001
1000
0100
0010
0001
0100
0001
0100
0000
0010
0000
2000
0000
,
0000
0000
0000
0000
0000
0000
0000
0000
0000
0000
0000
0000
0000
0000
0000
0000
0000
0000
0000
0000
0000
0000
0000
0000
3001
0000
0000
0000
0000
0000
0000
0000
0000
0000
0000
0000
0000
0000
0000
0000
0000
0000
0000
0000
0000
0000
0000
0000
0201
0000
0000
0000
0000
0000
0000
0000
0000
0000
0000
0000
0000
0000
0000
0000
0000
0000
0000
0000
0000
0000
0000
0300
0100
0000
0000
0000
0000
0000
0000
0000
0000
0000
0000
0000
0000
0000
0000
0000
0000
0000
0000
0000
0000
0000
0000
0000
0120
0000
0000
0000
0000
0000
0000
0000
0000
0000
0000
0000
0000
0000
0000
0000
0000
0000
0000
0000
0000
0000
0000
0030
0010
0000
0000
0000
0000
0000
0000
0000
0000
0000
0000
0000
0000
0000
0000
0000
0000
0000
0000
0000
0000
0000
0000
0000
2010
0000
0000
0000
0000
0000
0000
0000
0000
0000
0000
0000
0000
0000
0000
0000
0000
0000
0000
0000
0000
0000
0000
3000
1000
0000
0000
0000
0000
0000
0000
0000
0000
0000
0000
0000
0000
0000
0000
0000
0000
0000
0000
0000
0000
0000
0000
0000
,
0002
M000
0003
0400
0000
000M
0000
0000
0310
0000
1000
0000
0001
0000
0010
0000
,
0001
0100
0001
0100
0010
1000
0010
1000
0001
0010
0100
0000
1000
0000
0001
0100
,
0001
0010
0001
0100
0010
1000
0100
1000
0010
0000
0100
0000
0001
0000
2000
0000
,
0000
0000
0000
0000
0000
0000
0000
0000
0000
0000
0000
0000
0000
0000
0000
0000
0000
0000
0000
0000
0000
0000
0000
3000
0001
0000
0000
0000
0000
0000
0000
0000
0000
0000
0000
0000
0000
0000
0000
0000
0000
0000
0000
0000
0000
0000
0000
0000
0201
0000
0000
0000
0000
0000
0000
0000
0000
0000
0000
0000
0000
0000
0000
0000
0000
0000
0000
0000
0000
0000
0000
0300
0100
0000
0000
0000
0000
0000
0000
0000
0000
0000
0000
0000
0000
0000
0000
0000
0000
0000
0000
0000
0000
0000
0000
0000
0120
0000
0000
0000
0000
0000
0000
0000
0000
0000
0000
0000
0000
0000
0000
0000
0000
0000
0000
0000
0000
0000
0000
0030
0010
0000
0000
0000
0000
0000
0000
0000
0000
0000
0000
0000
0000
0000
0000
0000
0000
0000
0000
0000
0000
0000
0000
0000
2010
0000
0000
0000
0000
0000
0000
0000
0000
0000
0000
0000
0000
0000
0000
0000
0000
0000
0000
0000
0000
0000
0000
3000
1000
0000
0000
0000
0000
0000
0000
0000
0000
0000
0000
0000
0000
0000
0000
0000
0000
0000
0000
0000
0000
0000
0000
0000
,
0002
M000
0003
0400
0000
000M
0000
0000
0310
0000
1000
0000
0001
0000
0010
0000
,
0000
0000
0100
1000
0100
0000
0010
0001
0000
0001
0100
0001
1000
0000
1000
0100
,
0010
0100
1000
0001
1000
0010
0100
0001
0010
0000
0100
0000
1000
0000
0020
0000
,
0000
0000
0130
0000
0102
0003
0001
0000
1000
0100
0010
0000
0001
0000
0100
0000
,
0020
0000
0030
4000
0000
00M0
0000
0000
3010
0000
0100
0000
0010
0000
1000
0000
,
0001
0010
0001
0010
0100
1000
0100
1000
0010
0000
0100
0000
0001
0000
0100
0010
,
1000
0100
0010
0001
0100
0010
1000
0100
1000
0010
0100
0000
0002
0000
0040
0000
,
0000
0000
0000
0000
0000
0000
0000
0000
0000
0000
0000
0000
0003
0030
0000
0000
,
0001
0000
1000
0000
0010
0100
0000
0010
0000
0100
0000
0001
0010
0100
1000
0000
,
0100
0000
1000
0000
0100
0010
0000
0100
0000
0010
0000
0100
1000
0000
0001
0000
,
0100
0000
0001
0000
0100
0010
0000
0100
0000
0010
0000
1000
0100
0010
0001
0100
,
0010
0000
1000
0000
0010
0100
0000
0010
0000
0100
0000
0010
1000
0000
0001
0000
,
0010
0000
0001
0000
0010
0100
0000
0010
0000
0100
0000
1000
0010
0100
0001
0000
,
0100
0000
0001
0000
0100
0010
0000
0100
0000
0010
0000
0100
0001
0000
1000
0000
,
0100
0000
1000
0000
0100
0010
0000
0100
0000
0010
0000
0001
0100
0010
1000
0100
,
0010
0000
0000
0000
0000
0000
0000
0000
0001
0000
0000
0000
0000
0000
0000
0000
1000
0000
0000
0000
0100
0000
0000
0000
0000
0000
0000
0000
2000
3000
0000
0000
0000
0000
0000
0000
0002
0003
0000
0000
0000
0000
0000
0000
0200
0300
0000
0000
0020
0030
0000
0000
0000
0000
0000
0000
2000
3000
0000
0000
0000
0000
0000
0000
,
0001
0010
0001
0100
0010
1000
0100
1000
0010
0100
0001
1000
0100
0010
0001
0100
,
0010
1000
0001
1000
0100
1000
0001
0100
0010
1000
0100
1000
0010
0100
0001
0010
,
0100
1000
0001
1000
0010
0100
0001
0100
0010
1000
0001
0010
0100
1000
0010
0100
,
0001
0010
0100
0010
0001
1000
0010
0100
0001
1000
0001
0010
0100
1000
0010
0100
,
0001
1000
0010
1000
0100
0010
0001
0100
0001
0010
0100
1000
0010
0100
0001
0010
,
0100
1000
0001
1000
0010
0100
0001
0010
0001
1000
0010
0100
0001
0010
0100
1000
,
0001
0100
0010
0100
0001
0010
0001
0100
0010
1000
0010
0100
0001
0010
0100
1000
,
0010
0000
0000
0000
0000
0000
0000
0000
0100
0000
0000
0000
0000
0000
0000
0000
0001
0000
0000
0000
1000
0000
0000
0000
0000
0000
0000
0000
0200
0300
0000
0000
0000
0000
0000
0000
0020
0030
0000
0000
0000
0000
0000
0000
0200
0300
0000
0000
2000
3000
0000
0000
0000
0000
0000
0000
0020
0030
0000
0000
0000
0000
0000
0000
,
0200
0000
0000
0000
0301
0000
0M10
0000
0000
0000
0100
1000
0010
0100
0001
0000
,
0020
0000
0000
0000
0130
0000
10M0
0000
0000
0000
0010
0100
0001
1000
0100
0000
,
0020
0000
0000
0000
0031
0000
01M0
0000
0000
0000
0010
1000
0010
0100
0001
1000
,
0200
0300
0000
0000
0000
0000
0020
0000
0030
0000
0000
0000
0002
0000
0000
0003
0000
0000
2000
0000
0000
0000
3000
0000
0020
0000
0000
0000
0000
0030
0100
0000
0001
0000
1000
0000
0100
0000
0000
0000
0000
0000
0010
0000
0000
0000
0000
0000
,
0200
0000
0000
0000
1300
0000
0M10
0000
0000
0000
0100
0001
0010
0100
1000
0000
,
0020
0000
0000
0000
0130
0000
00M1
0000
0000
0000
0010
0100
1000
0001
0100
0000
,
0020
1030
M200
1300
M002
1003
M020
0130
,
0002
0000
0000
0000
0000
0000
0000
0000
0000
0000
0000
0000
0000
0000
0000
0000
0000
0000
0000
0000
0000
0000
0000
0000
0000
0000
0000
0000
0000
0000
0000
0000
0000
0000
0000
0003
0021
0000
0000
0000
0000
0000
0000
0000
0000
0000
0000
0000
0000
0000
0000
0000
0000
0000
0000
0000
0000
0000
0000
0000
0000
0000
0000
0000
0000
0000
0000
0000
0000
0000
0000
0030
0210
0000
0000
0000
0000
0000
0000
0000
0000
0000
0000
0000
0000
0000
0000
0000
0000
0000
0000
0000
0000
0000
0000
0300
1100
0000
0000
0000
0000
0000
0000
0000
0000
0000
0000
0000
0000
0000
0000
0000
0000
0000
0000
0000
0000
0000
0000
0000
0000
0000
0000
0000
0000
0000
0000
0000
0000
0000
0000
0000
0000
0000
0000
0000
0000
0000
0000
0000
0000
0000
0000
0000
0110
0000
0000
0000
0000
0000
0000
0000
0000
0000
0000
0000
0000
0000
0000
0000
0000
0000
0000
0000
0000
0000
0000
0000
0000
0000
0000
0000
0000
0000
0000
0000
0000
0000
0000
0000
0000
0000
0000
0000
0000
0000
0000
0000
0000
0000
0000
0000
,
1020
0000
0000
0000
0130
0000
0001
0000
0000
0000
0010
0001
0010
0001
1000
0010
,
0100
0001
1000
0020
0000
0130
0001
0010
,
0000
0200
0000
1300
0010
0100
0001
1000
,
1200
0000
0000
0000
0000
0000
0000
0000
0000
0000
0000
0000
0000
0000
0000
0000
0000
0000
0000
0000
0000
0000
0000
0000
0000
0000
0000
0000
0000
0000
0000
0000
0000
0000
0000
0000
0000
0000
0000
0000
0000
0000
0000
0000
0000
0000
0000
0300
0102
0000
0000
0000
0000
0000
0000
0000
0000
0000
0000
0000
0000
0000
0000
0000
0000
0000
0000
0000
0000
0000
0000
0000
0000
0000
0000
0000
0000
0000
0000
0000
0000
0000
0000
0000
0000
0000
0000
0000
0000
0000
0000
0000
0000
0000
0000
0003
0021
0000
0000
0000
0000
0000
0000
0000
0000
0000
0000
0000
0000
0000
0000
0000
0000
0000
0000
0000
0000
0000
0000
0000
0000
0000
0000
0000
0000
0000
0000
0000
0000
0000
0000
0000
0000
0000
0000
0000
0000
0000
0000
0000
0000
0000
0000
0030
2010
0000
0000
0000
0000
0000
0000
0000
0000
0000
0000
0000
0000
0000
0000
0000
0000
0000
0000
0000
0000
0000
0000
0000
0000
0000
0000
0000
0000
0000
0000
0000
0000
0000
0000
0000
0000
0000
0000
0000
0000
0000
0000
0000
0000
0000
0000
3000
,
1200
0000
0000
0000
0310
0000
0001
0000
0000
0000
0100
0001
0100
0001
1000
0100
,
0010
0001
1000
0200
0000
0310
0001
0100
,
0000
0020
0000
1030
0100
0010
0001
2000
,
0000
0000
0000
0000
0000
0000
0000
0000
0000
0000
0000
0000
0000
0000
0000
0000
0000
0000
0000
0000
0000
0000
0000
0000
3100
0000
0000
0000
0000
0000
0000
0000
0000
0000
0000
0000
0000
0000
0000
0000
0000
0000
0000
0000
0000
0000
0000
0000
0200
0000
0000
0000
0000
0000
0000
0000
0000
0000
0000
0000
0000
0000
0000
0000
0000
0000
0000
0000
0000
0000
0000
0000
0000
0000
0000
0000
0000
0000
0000
0000
0000
0000
0000
0000
0000
0000
0000
0000
0000
0000
0000
0000
0000
0000
0000
0300
0102
0000
0000
0000
0000
0000
0000
0000
0000
0000
0000
0000
0000
0000
0000
0000
0000
0000
0000
0000
0000
0000
0000
0000
0000
0000
0000
0000
0000
0000
0000
0000
0000
0000
0000
0000
0000
0000
0000
0000
0000
0000
0000
0000
0000
0000
0000
0003
0021
0000
0000
0000
0000
0000
0000
0000
0000
0000
0000
0000
0000
0000
0000
0000
0000
0000
0000
0000
0000
0000
0000
0000
0000
0000
0000
0000
0000
0000
0000
0000
0000
0000
0000
0000
0000
0000
0000
0000
0000
0000
0000
0000
0000
0000
0000
0030
,
2010
0000
0000
0000
3010
0000
0100
0000
0000
0000
0001
1000
0001
1000
0100
0010
,
0001
1000
0010
0200
0000
0310
1000
0100
,
0000
0020
0000
0031
0100
0020
0000
2030
,
0000
0000
0000
0000
0000
0000
0000
0000
0000
0000
0000
0000
0000
0000
0000
0000
0000
0000
0000
0000
0000
0000
0000
0000
3001
0000
0000
0000
0000
0000
0000
0000
0000
0000
0000
0000
0000
0000
0000
0000
0000
0000
0000
0000
0000
0000
0000
0000
0002
0000
0000
0000
0000
0000
0000
0000
0000
0000
0000
0000
0000
0000
0000
0000
0000
0000
0000
0000
0000
0000
0000
0000
0000
0000
0000
0000
0000
0000
0000
0000
0000
0000
0000
0000
0000
0000
0000
0000
0000
0000
0000
0000
0000
0000
0000
0003
0021
0000
0000
0000
0000
0000
0000
0000
0000
0000
0000
0000
0000
0000
0000
0000
0000
0000
0000
0000
0000
0000
0000
0000
0000
0000
0000
0000
0000
0000
0000
0000
0000
0000
0000
0000
0000
0000
0000
0000
0000
0000
0000
0000
0000
0000
0000
0030
2010
0000
0000
0000
0000
0000
0000
0000
0000
0000
0000
0000
0000
0000
0000
0000
0000
0000
0000
0000
0000
0000
0000
0000
0000
0000
0000
0000
0000
0000
0000
0000
0000
0000
0000
0000
0000
0000
0000
0000
0000
0000
0000
0000
0000
0000
0000
3000
,
1200
0000
0000
0000
0310
0000
0001
0000
0000
0000
0100
0001
0100
0001
1000
0100
,
0010
0001
1000
0200
0000
0310
0001
0100
,
0000
0020
0000
1030
0001
0100
0001
1000
,
1020
0000
0000
0000
0000
0000
0000
0000
0000
0000
0000
0000
0000
0000
0000
0000
0000
0000
0000
0000
0000
0000
0000
0000
0000
0000
0000
0000
0000
0000
0000
0000
0000
0000
0000
0030
0012
0000
0000
0000
0000
0000
0000
0000
0000
0000
0000
0000
0000
0000
0000
0000
0000
0000
0000
0000
0000
0000
0000
0000
0000
0000
0000
0000
0000
0000
0000
0000
0000
0000
0000
0003
0201
0000
0000
0000
0000
0000
0000
0000
0000
0000
0000
0000
0000
0000
0000
0000
0000
0000
0000
0000
0000
0000
0000
0300
1100
0000
0000
0000
0000
0000
0000
0000
0000
0000
0000
0000
0000
0000
0000
0000
0000
0000
0000
0000
0000
0000
0000
0000
0000
0000
0000
0000
0000
0000
0000
0000
0000
0000
0000
0000
0000
0000
0000
0000
0000
0000
0000
0000
0000
0000
0000
0000
1000
0000
0000
0000
0000
0000
0000
0000
0001
0000
0000
0000
0000
0000
0000
0000
1000
0000
0000
0000
0000
0000
0000
0000
0001
0000
0000
0000
0000
0000
0000
0000
0000
0000
0000
0000
0100
0000
0000
0000
0000
0000
0000
0000
0000
0000
0000
0000
,
0010
0000
0000
0000
0000
0000
0000
0000
0000
1000
0010
1000
0001
0100
0001
1000
0010
0100
0001
0100
0010
1000
0001
1000
,
0001
0000
0100
0000
0010
0000
1000
0000
0001
0000
1000
0000
0001
0000
0000
0000
0000
0000
1000
0000
0000
0001
0000
0000
0100
0000
0000
0000
0000
0000
0001
0000
0000
0000
0000
0000
0010
0000
0000
0000
0000
0000
0100
0000
0000
0000
0000
0000
,
1000
0000
0000
0000
0000
0000
0000
0000
0000
0001
0010
0100
1000
0001
1000
0001
0010
0100
1000
0001
1000
0001
0010
0100
,
1000
0000
0100
0000
0010
0000
0001
0000
0010
0000
0100
0000
1000
0000
0000
0000
0000
0000
0001
0000
0000
1000
0000
0000
0100
0000
0000
0000
0000
0000
1000
0000
0000
0000
0000
0000
0010
0000
0000
0000
0000
0000
0100
0000
0000
0000
0000
0000
,
0001
0000
0000
0000
0000
0000
0000
0000
0000
1000
0010
1000
0001
0100
0001
1000
0010
0100
0001
1000
0001
1000
0010
0100
,
0001
0000
1000
0000
0001
0000
1000
0000
0010
0000
0100
0000
0001
0000
0000
0000
0000
0000
1000
0000
0000
0001
0000
0000
0100
0000
0000
0000
0000
0000
0001
0000
0000
0000
0000
0000
0010
0000
0000
0000
0000
0000
0100
0000
0000
0000
0000
0000
,
1000
0000
0000
0000
0000
0000
0000
0000
0000
0001
0010
0100
1000
0001
0010
0100
1000
0001
0100
0001
0100
0010
1000
0010
,
1000
0000
0000
0000
0000
0000
0000
0000
0001
1000
0100
0000
0010
0000
0001
0000
,
MMMM
0000
0000
0000
;
