#TITLE:Hell Watchdog;
#SUBTITLE:;
#ARTIST:S.S.H.;
#TITLETRANSLIT:;
#SUBTITLETRANSLIT:;
#ARTISTTRANSLIT:;
#CREDIT:Arvin;
#BANNER:../Tachyon Gamma-bn.png;
#BACKGROUND:../Tachyon Gamma-bg.png;
#LYRICSPATH:;
#CDTITLE:;
#MUSIC:Hell Watchdog.ogg;
#OFFSET:0.570;
#SAMPLESTART:39.430;
#SAMPLELENGTH:14.000;
#SELECTABLE:YES;
#DISPLAYBPM:150.000;
#BPMS:0.000=150.000;
#STOPS:;
#BGCHANGES:;
// cache tags:
#FIRSTBEAT:4.000;
#LASTBEAT:409.625;
#SONGFILENAME:Songs/Tachyon Gamma/Hell Watchdog - [Arvin]/Hell Watchdog.sm;
#HASMUSIC:1;
#HASBANNER:1;
#MUSICLENGTH:165.603;
// end cache tags

//---------------dance-single - Arvin----------------
#NOTES:
     dance-single:
     Arvin:
     Challenge:
     15:
     1.000,1.000,0.048,0.604,1.000,1526.000,8.000,100.000,0.000,0.000:

0000
0000
0000
0000
,
0001
0100
0010
1000
0001
0010
0100
1000
0001
0010
0001
1000
0100
1000
0010
0100
,
0001
0010
0100
1000
0010
0100
0001
1000
0100
0010
0001
0100
0010
1000
0010
0100
,
0001
0010
0100
1000
0001
0100
0010
1000
0001
0100
0001
1000
0010
1000
0100
0010
,
0001
0000
0100
0000
0010
0000
0100
0000
0001
0000
1000
0000
0100
0010
0001
0000
1000
0000
0001
0000
0100
0000
0010
0000
1000
0000
0001
0000
1000
0000
0100
0000
,
1000
0001
0100
0000
0010
0100
0000
0001
1000
0000
0100
0000
1000
0010
0000
1000
,
0010
0100
0001
0000
0100
0010
0000
1000
1010
0000
0000
1001
0000
0000
0011
0000
,
0001
0100
0010
0000
1000
0100
0000
0010
0001
0000
0100
0000
0010
1000
0001
0010
,
0011
0000
0000
1001
0000
0000
1010
0000
0110
0000
0000
0101
0000
0000
0001
0010
,
0100
1000
0100
0010
0001
1000
0010
0100
0001
1000
0010
0100
0001
1000
0100
0010
,
0001
1000
0100
1000
0001
0100
0010
0100
0001
0010
0100
1000
0001
1000
0100
0010
,
0001
1000
0010
0100
0001
1000
0010
0100
0001
1000
0100
0010
0001
1000
0100
1000
,
0002
0000
0000
0000
0000
0000
0013
0100
2000
0000
0000
3002
0000
0000
0203
0000
,
0320
0000
0000
0230
0000
0000
0302
0000
1003
0100
0010
0001
1000
0100
0010
0001
,
1000
0010
0100
0001
1000
0010
0100
0001
1000
0100
1000
0001
0010
0001
1000
0100
,
0020
0000
0000
0032
0000
0000
0203
0000
0320
0000
0000
2030
0000
0000
3020
0000
,
0230
0000
0000
0000
0302
0000
0000
0000
0023
0000
0000
0000
0000
0030
0001
1000
,
0001
0010
0100
1000
0001
0010
0100
1000
0001
0100
0010
1000
0001
0100
0010
1000
0001
1000
0100
1000
0001
0010
0001
1000
,
0100
0010
0001
0100
0010
1000
0100
0010
0001
0100
0010
1000
0001
0100
0010
1000
0010
0100
0001
0010
0100
1000
0001
0010
,
0001
0000
1000
0000
0100
0000
0010
0000
0001
0000
1000
0000
0100
0000
1000
0000
0001
0000
0010
0000
0100
0000
1000
0000
0002
0003
0000
0000
0200
0300
0000
0000
0020
0030
0000
0000
2000
3000
0000
0000
0002
0003
0000
0000
0020
0030
0000
0000
,
0100
0000
1000
0000
0001
0000
0010
0000
0100
0000
1000
0000
0001
0000
0010
0000
0001
0000
1000
0000
0100
0000
0010
0000
0002
0000
0000
0000
0000
0000
0000
0000
0000
0203
0000
0000
0000
0000
0000
0000
0000
0000
0320
0000
0000
0000
0000
0000
,
1030
0100
1000
0010
1000
0100
0010
0001
1000
0010
0100
0010
1000
0100
0010
0100
,
1000
0001
0100
0001
0010
0100
0010
0001
1000
0001
1000
0010
1000
0100
1000
0001
,
1000
0001
0100
0001
0010
0001
1000
0100
0010
0001
0100
0010
0100
0010
1000
0100
,
0010
0001
1000
0010
1000
0010
0100
0001
0010
0100
1000
0010
0100
0010
0100
0001
,
0010
0000
0000
0000
0000
0000
0001
0000
1000
0000
0100
0000
1000
0000
0001
0000
0010
0000
0100
0000
1000
0000
0001
0000
0020
0030
0000
0000
0200
0300
0000
0000
0020
0030
0000
0000
0002
0003
0000
0000
2000
3000
0000
0000
0020
0030
0000
0000
,
0200
0300
0000
0000
0002
0003
0000
0000
2000
3000
0000
0000
0010
0000
0100
0000
0001
0000
1000
0000
0100
0000
1000
0000
0001
0000
0010
0000
0100
0000
1000
0000
0001
0000
0100
0000
0001
0000
1000
0000
0100
0000
0010
0000
0100
0000
1000
0000
,
0001
0000
0000
0010
0000
0000
0100
0000
0000
0010
0000
0000
0100
0000
0000
1000
0000
0000
0001
0000
0000
0100
0000
0000
0010
0000
0000
0100
0000
0000
0010
0000
0000
1000
0000
0000
0100
0000
0000
0010
0000
0000
0001
0000
0010
0000
0100
0000
,
1000
0010
0100
0002
0000
1003
0010
0100
0010
0100
0001
2000
0000
3100
0010
0001
,
1000
0100
0010
0001
0100
0010
0100
0010
1000
0100
0010
0001
0100
0010
0100
0010
,
1000
0000
0100
0000
0010
0000
0001
0000
0100
0000
0010
0000
1000
0000
0001
0000
0010
0000
0100
0000
1000
0000
0010
0000
0100
0000
0000
0001
0000
0000
0010
0000
0000
0100
0000
0000
1000
0000
0000
0010
0000
0000
1000
0000
0000
0100
0000
0000
,
0010
0000
0001
0000
1000
0000
0100
0000
0010
0000
0001
0000
1000
0000
0010
0000
1000
0000
0001
0000
0010
0000
0100
0000
1000
0000
0000
0001
0000
0000
0100
0000
0000
0010
0000
0000
1000
0000
0000
0010
0000
0000
1000
0000
0000
0010
0000
0000
,
1000
0001
1000
0100
0010
0001
1000
0010
1000
0001
0010
0100
1000
0001
0100
0001
1000
0010
1000
0001
0100
0001
0010
0100
,
2000
0000
0000
0000
0000
0000
3200
0000
0000
0000
0000
0000
0000
0000
0000
0000
0000
0000
0000
0000
0310
0001
1000
0010
,
0100
0000
0000
0010
0100
0001
0000
0000
0100
0010
1000
0000
0000
0001
0100
0010
0000
0000
1000
0010
0100
0000
0000
0001
,
0100
0010
1000
0001
0100
0001
1000
0100
1000
0001
0010
0001
0100
0010
1000
0001
0010
0001
1000
0010
0100
0001
1000
0010
,
1000
0000
0001
0000
0100
0000
0010
0000
0100
0000
0010
0000
1000
0000
0001
0000
0100
0000
0010
0000
0100
0000
0010
0000
2000
3000
0000
0000
0200
0300
0000
0000
0020
0030
0000
0000
0002
0003
0000
0000
0000
0000
1000
0000
0001
0000
0100
0000
,
0010
1000
0001
0100
0001
1000
0100
0010
0001
0100
0001
1000
0100
1000
0001
0010
0001
1000
0010
0100
0001
0010
0001
1000
,
0010
0100
0001
0010
0001
1000
0100
0010
0001
1000
0100
1000
0001
0010
0100
1000
0001
0010
0001
1000
0100
0010
0100
1000
,
0001
0000
0010
0000
0100
0000
1000
0000
0010
0000
0100
0000
0010
0000
0100
0000
0001
0000
0010
0000
0100
0000
1000
0000
0020
0030
0000
0000
0200
0300
0000
0000
0002
0003
0000
0000
2000
3000
0000
0000
0200
0300
0000
0000
0020
0030
0000
0000
,
0001
1000
0001
0100
0001
0010
0100
1000
0020
0000
0000
0000
0030
0100
0001
0010
,
0100
1000
0010
0100
0010
0100
0001
0010
0100
1000
0001
0100
0001
0100
0001
0010
,
0100
1000
0001
0010
0001
0010
0100
1000
0001
0010
0001
1000
0100
0010
0001
1000
,
0100
0000
1000
0000
0001
0000
0010
0000
0100
0000
0010
0000
0001
0000
1000
0000
0100
0010
0001
0000
1000
0000
0100
0000
1000
0000
0010
0000
1000
0000
0001
0000
,
0010
0001
0100
0001
1000
0001
0010
0001
0100
0001
0010
0001
0010
0100
1000
0001
,
0100
0010
1000
0001
0010
0100
1000
0001
1000
0010
0100
0001
1000
0100
0010
0001
,
0010
0100
1000
0001
0100
0010
1000
0001
1000
0100
0010
0001
1000
0010
0100
0001
,
0010
0100
1000
0001
1000
0010
0100
0001
1000
0100
0010
0001
0100
0010
1000
0001
,
0010
0001
1000
0001
0010
0100
1000
0010
0100
0001
0010
0100
1000
0001
0100
0010
,
2000
0001
0001
0010
,
0001
0000
0000
0000
0000
0000
0001
0000
0000
0000
0000
0000
3001
0000
0000
1000
0100
1000
0100
0000
0000
0000
0000
0000
,
0010
0010
0010
0001
,
1000
0100
0010
0000
0001
0000
0100
0001
0100
0010
1000
0001
0010
0100
1000
0001
,
0100
0010
1000
0001
1000
0100
1000
0010
1000
0001
1000
0010
1000
0100
1000
0000
,
0001
0000
0000
1000
0000
0000
0001
0000
0000
0010
0000
0000
0001
0000
0000
0100
0000
0000
0001
0000
0000
1000
0000
0000
0001
0000
0000
0100
0000
0000
0001
0000
0010
0000
0001
0000
0010
0000
0000
0100
0000
0000
1000
0000
0000
0000
0000
0000
,
0001
0010
0100
1000
0001
0010
0100
1000
0010
0100
0001
1000
0010
0100
0001
0000
,
1000
0000
0000
0001
0000
0000
1000
0000
0000
0001
0000
0000
0010
0000
0000
0100
0000
0000
1000
0000
0000
0001
0000
0000
1000
0000
0000
0001
0000
0000
1000
0000
0000
0100
0000
0000
0010
0000
0000
0001
0000
0000
1000
0000
0010
0000
0100
0000
,
0002
0000
0000
0000
0000
0000
0000
0000
0000
0000
0003
0000
1000
0000
0000
0010
0000
0000
1000
0000
0000
0001
0000
0000
1000
0000
0000
0100
0000
0000
0010
0000
0000
0001
0000
0000
1000
0000
0000
0100
0000
0000
0010
0000
0000
0001
0000
0000
,
1000
0000
0001
0000
0100
0000
0010
0000
1000
0000
0001
0000
0010
0000
0001
0000
1000
0000
0010
0000
1000
0000
0001
0000
0100
0010
0100
0000
0001
0000
1000
0000
,
0001
0010
0100
1000
0001
0010
0100
1000
0001
0010
0100
1000
0001
0010
0100
1000
,
0010
0100
0010
0100
0001
0010
0001
0010
0100
1000
0010
0100
0001
0010
0100
1000
,
0010
0100
0010
0100
0001
0010
0001
1000
0010
1000
0001
0010
0100
1000
0002
0000
,
0103
0010
0100
0010
1000
0100
1000
0001
0100
0001
1000
0100
0010
0001
2000
0000
,
3001
0000
0010
0000
0100
0000
1000
0000
0001
0000
0010
0000
0001
0000
1000
0000
0100
0000
0010
0000
0001
0000
1000
0000
0100
0000
0000
0010
0000
0000
0001
0000
0000
1000
0000
0000
0100
0000
0000
0010
0000
0000
0001
0000
0000
0100
0000
0000
,
0010
0000
0100
0000
0001
0000
1000
0000
0010
0000
0100
0000
0010
0000
1000
0000
0100
0000
0010
0000
0001
0000
0100
0000
0002
0000
0000
0000
0000
0000
0000
0000
0000
0000
0000
0000
0000
0000
0000
0013
0000
0000
0100
0000
0000
1000
0000
0000
,
0010
1000
0100
0010
0001
0100
0010
0100
0010
1000
0100
0010
0001
1000
0010
1000
,
0010
1000
0100
0010
0001
1000
0100
1000
0100
0010
0001
1000
0100
1000
0001
0010
,
0100
0000
1000
0000
0001
0000
0010
0000
0100
0000
0010
0000
0001
0000
1000
0000
0100
0010
0001
0000
1000
0000
0010
0000
1000
0000
0001
0000
0100
0000
0001
0000
,
1000
0100
1000
0010
1000
0001
1000
0100
1000
0010
1000
0100
1000
0100
0010
0001
,
1000
0010
0100
0001
1000
0100
0010
0001
1000
0001
0100
0010
1000
0001
0010
0100
,
1000
0100
0010
0001
1000
0010
0100
0001
1000
0001
0010
0100
1000
0001
0100
0010
,
1000
0100
0010
0001
1000
0001
0100
0010
1000
0001
0010
0100
1000
0010
0100
0001
,
1000
0100
1000
0001
1000
0100
0010
0001
0100
0010
1000
0100
0010
0100
1000
0001
,
0100
0000
0000
0000
0000
0000
0001
0000
1000
0000
0100
0000
1000
0000
0001
0000
0010
0000
0100
0000
1000
0000
0001
0000
0020
0030
0000
0000
0200
0300
0000
0000
0020
0030
0000
0000
0002
0003
0000
0000
2000
3000
0000
0000
0020
0030
0000
0000
,
0200
0300
0000
0000
0002
0003
0000
0000
2000
3000
0000
0000
0010
0000
0100
0000
0001
0000
1000
0000
0100
0000
1000
0000
0001
0000
0010
0000
0100
0000
1000
0000
0001
0000
0100
0000
0001
0000
1000
0000
0100
0000
0010
0000
0100
0000
1000
0000
,
0001
0000
0000
0010
0000
0000
0100
0000
0000
0010
0000
0000
0100
0000
0000
1000
0000
0000
0001
0000
0000
0100
0000
0000
0010
0000
0000
0100
0000
0000
0010
0000
0000
1000
0000
0000
0100
0000
0000
0010
0000
0000
0001
0000
0010
0000
0100
0000
,
1000
0010
0100
0002
0000
1003
0010
0100
0010
0100
0001
2000
0000
3100
0010
0001
,
0100
0010
1000
0010
1000
0100
0010
0001
0100
0001
0100
0010
0100
0001
0010
0100
,
1000
0001
0100
0010
1000
0001
0010
0100
0010
0100
1000
0100
1000
0100
0010
0001
,
0100
0001
0010
0100
1000
0010
0100
0001
0010
0100
1000
0001
0010
0001
1000
0100
,
0010
0001
1000
0010
1000
0001
0010
0100
1000
0001
0100
0001
0010
0100
1000
0001
,
0200
0000
0000
0000
0000
0000
0320
0000
0000
0000
0000
0000
0000
0000
0000
0000
0000
0000
0000
0000
0130
0001
1000
0100
,
0010
0000
0000
0100
0010
0001
0000
0000
0010
0100
1000
0000
0000
0001
0010
0100
0000
0000
1000
0100
0010
0000
0000
0001
,
0010
0001
0100
0010
1000
0001
0100
0001
1000
0100
0010
0001
1000
0100
1000
0001
0010
0100
0010
0001
1000
0100
0010
0100
,
1000
0000
0001
0000
0010
0000
0100
0000
1000
0000
0001
0000
0010
0000
0100
0000
1000
0000
0001
0000
0100
0000
0010
0000
2000
3000
0000
0000
0200
0300
0000
0000
0020
0030
0000
0000
0002
0003
0000
0000
0000
0000
0100
0000
0010
0000
1000
0000
,
0100
1000
0001
0010
0001
1000
0010
1000
0001
0010
0100
1000
0001
0100
0001
1000
0100
0010
0001
1000
0100
1000
0001
0010
,
0100
0010
0001
1000
0001
1000
0100
0010
0001
0100
0010
0100
0001
1000
0001
1000
0010
0100
0001
1000
0100
0010
0001
1000
,
0001
0000
1000
0000
0001
0000
0010
0000
0100
0000
1000
0000
0001
0000
0010
0000
0100
0000
1000
0000
0001
0000
0100
0000
0020
0030
0000
0000
2000
3000
0000
0000
0002
0003
0000
0000
0020
0030
0000
0000
0200
0300
0000
0000
2000
3000
0000
0000
,
0001
1000
0001
0010
0001
0100
0010
1000
0200
0000
0000
0000
0000
0000
0000
0000
,
1300
0001
0010
0100
1000
0001
1000
0100
0010
0001
1000
0001
0010
0100
1000
0001
,
0010
0001
1000
0100
0010
0001
1000
0010
1000
0001
0010
0100
1000
0001
0100
0001
,
1000
0100
0010
0001
1000
0100
1000
0001
1000
0100
0010
0100
1000
0001
0010
0100
,
0020
0000
0000
0000
0000
0000
0031
1000
0020
0000
0000
0230
0000
0000
0302
0000
,
2003
0000
0000
3200
0000
0000
0320
0000
0031
1000
0010
1000
0001
0010
0100
1000
,
0001
0010
0001
1000
0100
0010
0001
1000
0100
1000
0001
0100
0010
1000
0001
0100
,
0002
0000
0000
0203
0000
0000
0320
0000
2030
0000
0000
3002
0000
0000
0023
0000
,
0230
2300
3002
0023
,
0230
0000
0000
0000
0000
0000
0000
0000
0000
0000
0000
0000
0000
0000
1300
0001
,
0100
0010
1000
0010
0100
0001
0010
0100
1000
0001
1000
0010
0100
0001
0100
0001
,
0010
0100
1000
0001
0010
0100
0010
0001
1000
0100
0010
0001
1000
0100
0010
0100
,
1000
0001
0100
0010
1000
0001
0010
0100
0010
0001
1000
0001
0100
0010
1000
0100
,
0020
0000
0000
0032
0000
0000
0203
0000
0320
0000
0000
0000
0000
0000
0000
0000
,
0000
0000
0000
0000
0000
0000
0000
0000
0030
0000
0000
0000
1000
0001
0000
0000
0000
0000
0000
0000
0000
0000
0000
0000
0000
0000
0000
0000
0000
0000
0000
0000
;
