#TITLE:Out Here;
#SUBTITLE:;
#ARTIST:Pendulum;
#TITLETRANSLIT:;
#SUBTITLETRANSLIT:;
#ARTISTTRANSLIT:;
#CREDIT:;
#BANNER:outherebn.png;
#BACKGROUND:outherebg.png;
#LYRICSPATH:;
#CDTITLE:;
#MUSIC:outhere.ogg;
#OFFSET:1.826;
#SAMPLESTART:109.090;
#SAMPLELENGTH:14.545;
#SELECTABLE:YES;
#BPMS:0.000=132.000;
#STOPS:;
#BGCHANGES:;
// cache tags:
#FIRSTBEAT:4.000;
#LASTBEAT:335.000;
#SONGFILENAME:Songs/Pendulum/Out Here/outhere.sm;
#HASMUSIC:1;
#HASBANNER:1;
#MUSICLENGTH:152.500;
// end cache tags

//---------------dance-single - I. Pyles----------------
#NOTES:
     dance-single:
     I. Pyles:
     Beginner:
     1:
     0.019,0.027,0.000,0.000,0.000,20.000,0.000,0.000,0.000,0.000:

0000
0000
0000
0000
,
0000
0000
0000
0000
,
0000
0000
0000
0000
,
0000
0000
0000
0000
,
0000
0000
0000
0000
,
0010
0000
0000
0000
,
0000
0000
0000
0000
,
0000
0000
0000
0000
,
0000
0000
0000
0000
,
0001
0000
0000
0000
,
0000
0000
0000
0000
,
0000
0000
0000
0000
,
0000
0000
0000
0000
,
0100
0000
0000
0000
,
0000
0000
0000
0000
,
0000
0000
0000
0000
,
0000
0000
0000
0000
,
0100
0000
0000
0000
,
0000
0000
0000
0000
,
0000
0000
0000
0000
,
0000
0000
0000
0000
,
1000
0000
0000
0000
,
0000
0000
0000
0000
,
0000
0000
0000
0000
,
0000
0000
0000
0000
,
0100
0000
0000
0000
,
0000
0000
0000
0000
,
0000
0000
0000
0000
,
0000
0000
0000
0000
,
1000
0000
0000
0000
,
0000
0000
0000
0000
,
0000
0000
0000
0000
,
0000
0000
0000
0000
,
0100
0000
0000
0000
,
0000
0000
0000
0000
,
0000
0000
0000
0000
,
0000
0000
0000
0000
,
0001
0000
0000
0000
,
0000
0000
0000
0000
,
0000
0000
0000
0000
,
0000
0000
0000
0000
,
0010
0000
0000
0000
,
0000
0000
0000
0000
,
0000
0000
0000
0000
,
0000
0000
0000
0000
,
1000
0000
0000
0000
,
0000
0000
0000
0000
,
0000
0000
0000
0000
,
0000
0000
0000
0000
,
1000
0000
0000
0000
,
0000
0000
0000
0000
,
0000
0000
0000
0000
,
0000
0000
0000
0000
,
0100
0000
0000
0000
,
0000
0000
0000
0000
,
0000
0000
0000
0000
,
0000
0000
0000
0000
,
0010
0000
0000
0000
,
0000
0000
0000
0000
,
0000
0000
0000
0000
,
0000
0000
0000
0000
,
0010
0000
0000
0000
,
0000
0000
0000
0000
,
0000
0000
0000
0000
,
0000
0000
0000
0000
,
0010
0000
0000
0000
,
0000
0000
0000
0000
,
0000
0000
0000
0000
,
0000
0000
0000
0000
,
0001
0000
0000
0000
,
0000
0000
0000
0000
,
0000
0000
0000
0000
,
0000
0000
0000
0000
,
0100
0000
0000
0000
,
0000
0000
0000
0000
,
0000
0000
0000
0000
,
0000
0000
0000
0000
,
0010
0000
0000
0000
,
0000
0000
0000
0000
,
0000
0000
0000
0000
,
0000
0000
0000
0000
,
0100
0000
0000
0000
;

//---------------dance-single - I. Pyles----------------
#NOTES:
     dance-single:
     I. Pyles:
     Easy:
     4:
     0.283,0.412,0.170,0.321,0.000,227.000,26.000,49.000,15.000,0.000:





0000
0000
0000
0000
,
0000
0000
0000
0000
,
0000
0000
0000
0000
,
0000
0000
0000
0000
,
0000
0000
0000
0000
,
1001
1000
0000
0010
,
1000
0010
0000
0010
,
1000
0010
0000
0010
,
1000
0001
0000
0001
,
1000
0010
0000
0100
,
0001
1000
0000
0001
,
0100
0010
0000
0100
,
0001
0000
1000
0000
0200
0300
0020
0030
,
0001
1000
0000
1000
,
0001
0100
0000
0010
,
1000
0001
0000
1000
,
0001
0000
1000
0000
0001
0100
0001
0100
,
0001
1000
0000
1000
,
0001
1000
0000
0001
,
0100
0010
0000
0010
,
1000
0001
0000
0010
,
0100
1000
0000
0001
,
0100
0010
0000
0100
,
0001
1000
0000
0001
,
0100
0010
0000
1000
,
0001
1000
0000
0001
,
0010
0001
0000
1000
,
0100
1000
0000
0001
,
0100
0010
0000
1000
,
0001
0100
0000
0001
,
1000
0100
0000
0010
,
0001
1000
0000
1000
,
0001
0100
0000
0100
,
0010
1000
0000
0010
,
1000
0010
0000
0001
,
0100
0001
0000
1000
,
0100
1000
0000
0001
,
0010
0001
0000
0001
,
1000
0001
0000
0001
,
0010
0001
0000
0001
,
1000
0100
0000
0100
,
0000
1001
0000
1000
,
0000
1001
0000
0001
,
0000
1010
0000
1000
,
0000
1010
0000
0010
,
0000
0000
0000
0000
0000
0000
0000
0000
0020
0030
0000
0000
0000
0000
0000
0000
0000
0000
0000
0000
0000
0000
0000
0000
0020
0000
0030
0000
0000
0000
0000
0000
,
0000
0000
0000
0000
0000
0000
0000
0000
0020
0000
0000
0030
0000
0000
0000
0000
0000
0000
0000
0000
0000
0000
0000
0000
0020
0000
0000
0000
0030
0000
0000
0000
,
0110
0000
0020
0030
1010
0000
0020
0030
,
0110
0000
0020
0030
1001
0000
M11M
0000
,
1001
0000
0020
0030
0000
0000
0020
0030
,
1000
0000
0020
0030
0100
0000
0001
0000
,
1001
0000
0020
0030
0000
0000
0020
0030
,
1000
0000
0020
0030
1000
0000
0001
0000
,
1001
0000
0020
0030
0000
0000
0020
0030
,
1000
0000
0020
0030
1000
0000
0001
0000
,
0002
0000
0000
0000
,
0203
0000
0000
0000
0320
0030
0020
0030
,
1000
0000
0021
0030
0001
0000
0020
0030
,
0001
0000
0020
0030
0200
0300
0200
0300
,
1000
0000
0021
0030
0000
0000
0020
0030
,
0001
0000
0020
0030
0001
1000
0001
1000
,
0020
0000
0000
0000
,
2030
0000
0000
0000
,
3002
0000
0000
0000
,
0203
0000
0000
0000
0320
0000
0000
0030
,
1001
0000
0000
0000
,
1200
0300
0200
0300
0020
0030
0001
0000
,
1100
0000
0000
0000
,
1002
0003
2000
3000
0020
0000
0000
0030
,
1010
0000
0000
0000
,
0201
0300
0200
0300
0020
0030
1000
0000
,
1010
0010
0000
0010
,
1000
0000
1000
0000
0002
0000
0000
0003
,
0101
0000
0000
0000
,
1020
0030
0020
0030
0200
0300
0001
0000
,
0101
0100
0000
0100
,
0001
0000
0001
0000
2000
0000
0000
3000
,
1000
0001
1000
0001
,
0100
0010
1000
0001
,
0010
0100
1000
0001
,
0100
0010
1000
0001
,
MM11
M000
M000
M000
,
M000
M000
M000
M000
,
M000
M000
M000
M000
;

//---------------dance-single - I. Pyles----------------
#NOTES:
     dance-single:
     I. Pyles:
     Medium:
     7:
     0.415,0.714,0.282,0.492,0.062,314.000,43.000,75.000,23.000,0.000:







0000
0000
0000
0000
,
0000
0000
0000
0000
,
0000
0000
0000
0000
,
0000
0000
0000
0000
,
0000
0000
0000
0000
,
1MM1
0000
0010
0000
0000
0100
0010
0000
,
1000
0000
0010
0000
0100
0100
0010
0000
,
1000
0000
0000
0000
0010
0100
0000
0100
0010
0000
1000
0000
0001
0000
0000
0000
,
0004
0000
0000
0000
,
0003
0000
1000
0000
0000
0001
1000
0000
,
1000
0000
0001
0000
1000
1000
0001
0000
,
0100
0000
0010
0000
0000
0100
0010
0000
,
0100
0000
0000
0000
0010
0000
0000
0000
0200
0000
1300
0000
0200
0000
0301
1000
,
0000
0000
0001
0000
0000
1000
0001
0000
,
1000
0000
0001
0000
1000
1000
0001
0000
,
0001
0000
0000
0000
0100
0010
0000
0010
0100
0000
0001
0000
1000
0000
0000
0000
,
4000
0000
0000
0000
3001
0010
0001
0100
,
0010
0000
0100
0000
0000
0010
0100
0001
,
0000
0001
0000
0000
1000
1000
0010
0100
,
0000
0010
0000
0010
0000
0100
0000
0010
,
0000
1000
0000
0010
0000
0100
0000
0100
,
1MM1
1000
0100
0010
0000
0010
0000
0010
,
0000
0100
1000
0001
0000
0001
0000
0001
,
1000
0000
0000
0000
0010
0100
0000
0100
0010
0000
1000
0000
0001
0000
0000
0000
,
0004
0000
0000
0000
,
0003
1000
0010
0100
0000
0100
0000
0100
,
0001
0000
0001
1000
0000
1000
0000
1000
,
0000
0001
0100
0010
0000
0010
0000
0010
,
0000
1000
1000
0001
0000
0010
0100
0010
,
1MM1
0000
1000
0001
0000
0001
0000
0001
,
1000
0000
0001
0100
0000
0100
0000
0100
,
0001
0000
0000
0000
0010
0100
0000
0100
0010
0000
0001
0000
1000
0000
0000
0000
,
4000
0000
0000
0000
,
3000
0000
1000
0000
0000
0001
1000
0000
,
0001
0000
1000
0000
0001
0001
1000
0000
,
0010
0000
0100
0000
0000
0010
0100
0000
,
0010
0000
0100
0000
0010
0010
4000
0000
,
3000
0000
0001
0000
0000
1000
0001
0000
,
1000
0000
0001
0000
1000
1000
0001
0000
,
1MM1
0000
0001
0000
0000
0100
0001
0000
,
0100
0000
0001
0000
0100
0100
0001
0000
,
0000
1001
0000
1100
,
0000
0011
0000
1001
,
0000
4000
0000
3000
0000
0000
0101
0000
,
0000
1001
0000
1010
,
0000
0000
0000
0000
0000
0000
0000
0000
0020
0030
0000
0000
0000
0000
0000
0000
0000
0000
0000
0000
0000
0000
0000
0000
0020
0000
0030
0000
0000
0000
0000
0000
,
0000
0000
0000
0000
0000
0000
0000
0000
0020
0000
0000
0030
0000
0000
0000
0000
0000
0000
0000
0000
0000
0000
0000
0000
0020
0000
0000
0000
0030
0000
0000
0000
,
0110
0000
0020
0030
1010
0000
0020
0030
,
0110
0000
1020
1030
0001
0000
M11M
0000
,
1001
1000
0020
0030
0000
0000
0020
0030
,
1000
0000
0020
0130
0001
0200
0020
0330
,
1001
0000
0020
0030
0000
0000
0020
0030
,
1000
0000
0020
0130
0001
1000
0010
1000
,
1010
0000
0020
0030
0000
0000
0020
0030
,
1000
0000
0020
0030
1000
0200
0020
0330
,
0004
0000
0000
0000
,
0403
0000
0000
0000
0000
0000
0000
0000
0320
0000
0031
0000
0020
0000
1030
0001
,
0000
0000
0021
0030
0001
0000
0020
0030
,
0001
0000
0000
0000
0020
0000
0030
0000
0200
0000
0301
0000
0200
0000
1300
0001
,
0000
0000
0021
0030
0000
0000
0020
0030
,
0001
0000
0000
0000
0020
0000
0030
0000
0001
0000
2000
3000
0002
0003
0200
0300
,
0040
0000
0000
0000
,
4030
0000
0000
0000
,
3004
0000
0000
0000
,
0403
0000
0000
0000
0340
0000
0000
0030
,
1001
0000
0000
0101
0000
0000
1000
0000
0000
0101
0000
0000
1000
0000
0001
0000
,
1200
0300
0200
0300
0020
0032
2003
3000
,
1100
0000
0000
0001
0000
0000
1100
0000
0000
0001
0000
0000
0010
0000
0100
0000
,
1001
0000
2000
3002
0023
0000
0000
0030
,
0011
0000
0000
1000
0000
0000
0011
0000
0000
1000
0000
0000
0001
0000
1000
0000
,
0201
0300
0200
0300
0020
2030
3002
0003
,
1010
0020
0230
0302
0023
0030
0020
0032
,
0203
0300
0020
2030
3002
0000
0000
0003
,
0101
0000
0000
1000
0000
0000
0101
0000
0000
1000
0000
0000
0001
0000
1000
0000
,
0021
0030
0020
0030
0200
2300
3002
0003
,
1100
0200
0320
0032
0203
0300
0200
0302
,
0023
0030
0200
2300
3002
0000
0000
0003
,
0040
0000
0031
0000
1000
1000
0001
0000
,
0400
0000
0310
0000
1000
1000
0001
0100
,
0040
0000
0130
0000
0001
0001
1000
0000
,
0400
0000
0310
0000
0002
0003
2000
3000
,
MM11
M000
M000
M000
,
M000
M000
M000
M000
,
M000
M000
M000
M000
;

//---------------dance-single - I. Pyles & Gazebo----------------
#NOTES:
     dance-single:
     I. Pyles & Gazebo:
     Hard:
     9:
     0.602,0.879,0.564,0.492,0.361,468.000,86.000,75.000,25.000,0.000:









0000
0000
0000
0000
,
0000
0000
0000
0000
,
0000
0000
0000
0000
,
0000
0000
0000
0000
,
0000
0000
0000
0000
,
1MM1
0000
0011
0000
0000
1000
0011
0000
,
0001
0000
1100
0000
0001
0001
1100
0000
,
1000
0000
0000
0000
0010
0100
0000
0100
0010
0000
1000
0000
0101
0000
0000
0000
,
0001
0010
0100
1000
0001
0010
0100
1000
0001
0100
0010
1000
0100
0010
0100
0010
,
0001
0000
1010
0000
0000
0001
1010
0000
,
1000
0000
0101
0000
1000
1000
0101
0000
,
0001
0000
1100
0000
0000
0001
1100
0000
,
1000
0000
0000
0000
0101
0000
0000
0000
0200
0000
1300
0000
0200
0000
0301
1000
,
0000
0000
1100
0000
0000
0001
1100
0000
,
1000
0000
0011
0000
1000
1000
0011
0000
,
0001
0000
0000
0000
0100
0010
0000
0010
0100
0000
0001
0000
1010
0000
0000
0000
,
0001
0010
0100
1000
0001
0010
0100
1000
0001
0000
0010
0000
0001
0000
0100
0000
,
0010
0000
0101
0000
0000
1000
0101
0001
,
0000
0001
1010
0000
1000
0100
0010
0001
,
0000
1000
0000
0001
0000
0100
0000
0010
,
0000
1000
0000
0010
0000
0100
0000
0100
,
1MM1
1000
0100
0010
0000
0010
0000
0010
,
0000
0100
1000
0001
0000
0001
0000
0001
,
1000
0000
0000
0000
0010
0100
0000
0100
0010
0000
1000
0000
0011
0000
0000
0000
,
1000
0010
0100
0001
1000
0010
0100
0001
1000
0100
0010
0001
0100
0001
0100
0010
,
1000
0001
0010
0100
0000
0100
0000
0100
,
1000
0000
0011
1000
0000
1000
0000
1000
,
0000
0001
0100
0010
0000
0010
0000
0010
,
0000
1000
1000
0001
0000
0010
0100
0010
,
1MM1
0000
1100
0001
0000
0001
0000
0001
,
1000
0000
0101
1000
0000
1000
0000
1000
,
0001
0000
0000
0000
0010
0100
0000
0100
0010
0000
0001
0000
1100
0000
0000
0000
,
0001
0010
0100
1000
0001
0010
0100
1000
0001
0100
0010
1000
0100
0010
0001
1000
,
0001
0000
1010
0000
0000
0001
1010
0000
,
0001
0000
1010
0000
0001
0001
1010
0000
,
1000
0000
0101
0000
0000
1000
0101
0000
,
1000
0000
0000
0000
0000
0000
0101
0000
0000
0000
0000
0000
1000
0000
0000
1000
0000
0004
4000
0000
0000
0000
3003
0000
,
0001
0000
1100
0000
0000
0001
1100
0000
,
0001
0000
1100
0000
0001
0001
1100
0000
,
1MM0
0000
0011
0000
0000
1000
0011
0000
,
1000
0000
0011
0000
1000
1000
0011
0000
,
1000
0000
0000
0000
0000
0010
0000
0000
0000
0000
0000
0000
0000
0100
0000
0000
0000
0000
0000
0000
0000
0001
0000
0000
0100
0000
0000
0000
0000
0010
0000
0000
0100
0000
0000
0000
0000
0001
0000
0000
0100
0000
0000
0000
0000
0010
0000
0000
0000
0000
0000
0000
0000
0100
0000
0000
0001
0000
0000
0000
0000
1000
0000
0000
,
0001
0000
0000
0000
0000
0010
0000
0000
0000
0000
0000
0000
0000
0100
0000
0000
0000
0000
0000
0000
0000
1000
0000
0000
0100
0000
0000
0000
0000
0010
0000
0000
0100
0000
0000
0000
0000
1000
0000
0000
0100
0000
0000
0000
0000
0010
0000
0000
0000
0000
0000
0000
0000
0100
0000
0000
1000
0000
0000
0000
0000
0001
0000
0000
,
1000
0000
0000
0000
0000
0000
0000
0000
0000
0000
0000
0000
0000
0000
0000
0010
0000
0000
0000
0000
0000
0000
0000
0000
4000
0000
0000
0000
0000
0000
0000
0000
0004
0000
0000
0000
0000
0000
0000
0000
0000
0000
0000
0000
0000
0000
0000
0000
0000
0000
0000
0000
0000
0000
0000
0000
0000
0000
0000
0000
0000
0000
0000
0000
0000
0000
0000
0000
0000
0000
0000
0000
0000
0000
0000
0000
0000
0000
0000
0000
3003
0000
0000
0000
0000
0000
0000
0000
0000
0000
0000
0000
0000
0000
0000
0000
1000
0000
0000
0000
0000
0000
0000
0000
0000
0000
0000
0000
0000
0000
0000
0001
0000
0000
0000
0000
0000
0000
0000
0000
0100
0000
0000
0000
0000
0000
0000
0000
0000
0000
0000
0000
0000
0000
0000
0010
0000
0000
0000
0000
0000
0000
0000
0000
0000
0000
0000
0000
0000
0000
0000
0000
0000
0000
0000
0000
0000
0000
0000
0100
0000
0000
0000
0000
0000
0000
0000
0000
0001
0000
0000
0000
0000
0000
0000
0000
0000
0000
0000
0000
0000
0000
0000
1000
0000
0000
0000
0000
0000
0000
0000
0000
,
0001
0000
0000
0000
0000
0010
0000
0000
0000
0000
0000
0000
0000
0100
0000
0000
0000
0000
0000
0000
0000
1000
0000
0000
0100
0000
0000
0000
0000
0010
0000
0000
0100
0000
0000
0000
0000
1000
0000
0000
0100
0000
0000
0000
0000
0010
0000
0000
0000
0000
0000
0000
0000
0100
0000
0000
1000
0000
0000
0000
0000
0001
0000
0000
,
0100
0000
0000
0000
0000
0000
0000
0000
0020
0030
0000
0000
0000
0000
0000
0000
0000
0000
0000
0000
0000
0000
0000
0000
0020
0000
0030
0000
0000
0000
0000
0000
,
0000
0000
0000
0000
0000
0000
0000
0000
0020
0000
0000
0030
0000
0000
0000
0000
0000
0000
0000
0000
0000
0000
0000
0000
0020
0000
0000
0000
0030
0000
0000
0000
,
0110
0000
0020
0030
1010
0000
0020
0030
,
0110
0000
0000
0000
0000
0000
1020
0000
0000
1030
0000
0001
0100
0000
0000
0000
0000
0000
M11M
0000
0000
0000
0000
0000
,
1001
0000
0000
1000
0000
0000
0020
0000
0000
0030
0000
0100
0001
0000
0001
1000
0000
0000
0020
0000
0000
0030
0000
0000
,
4000
0000
0000
3000
0000
0000
0020
0000
0000
0130
0000
0001
1000
0000
1000
0200
0000
0000
0020
0000
0000
0330
0000
0000
,
1004
0000
0000
0003
0000
0000
0020
0000
0000
0030
0000
0100
1000
0000
1000
0001
0000
0000
0020
0000
0000
0030
0000
0000
,
0004
0000
0000
0003
0000
0000
0020
0000
0000
0130
0000
1000
0001
0000
0001
0200
0000
0000
0320
0000
0000
0230
0000
0000
,
4301
0000
0000
3000
0000
0000
0020
0000
0000
0030
0000
0100
0001
0000
0001
1000
0000
0000
0020
0000
0000
0030
0000
0000
,
4000
0000
0000
3000
0000
0000
0020
0000
0000
0130
0000
0001
1000
0000
1000
0200
0000
0000
0020
0000
0000
0330
0000
0000
,
0004
0000
0000
0000
,
0403
0000
0000
0000
0000
0000
0000
0000
0320
0000
0031
0000
0020
0000
1030
0001
,
0000
0000
0000
0000
0000
0000
M02M
0000
0000
0030
0000
0001
1000
0000
1000
0001
0000
0000
0020
0000
0000
0030
0000
0000
,
0004
0000
0000
0000
0000
0000
0003
0000
0000
0000
0000
0000
0020
0000
0000
0000
0000
0000
0031
0000
0000
0000
1000
0000
0200
0000
0000
0000
0000
0000
0301
0000
0000
0000
0000
0000
0200
0000
0000
0000
0000
0000
1300
0000
0000
0001
0000
0000
,
0000
0000
0000
0000
0000
0000
0020
0000
0000
0030
0000
0001
1000
0000
1000
0001
0000
0000
0020
0000
0000
0030
0000
0000
,
0004
0000
0000
0000
0000
0000
0003
0000
0000
0000
0000
0000
0020
0000
0000
0000
0000
0000
0130
0000
0000
0000
1000
0000
0001
0000
0000
0000
0001
0000
2000
0000
0000
3000
0000
0000
0002
0000
0000
0003
0000
0000
0200
0000
0000
0300
0000
0000
,
0040
0000
0000
0000
,
4030
0000
0000
0000
,
3004
0000
0000
0000
,
0403
0000
0000
0000
0040
0000
0000
0330
,
1001
0000
0001
0100
0000
0000
1010
0000
0001
0100
0000
0000
1010
0000
0011
0000
,
1100
0000
0000
0100
0000
1000
0020
0000
0000
0130
0000
0001
0020
0000
0000
0230
0000
0000
0320
0000
0000
0030
0000
0000
,
1100
0000
0000
0101
0000
0000
1100
0000
0000
0011
0000
0000
0110
0000
1100
0000
,
1001
0000
0000
0001
0000
0100
0020
0000
0000
2030
0000
0000
3002
0000
0000
0000
0000
0000
0000
0000
0000
0003
0000
0000
,
0011
0000
0000
1100
0000
0000
0011
0000
0000
1100
0000
0000
0011
0000
1010
0000
,
0101
0000
0000
0000
0000
0000
0100
0000
0000
0000
0001
0000
0020
0000
0000
0000
0000
0000
0130
0000
0000
0000
1000
0000
0020
0000
0000
0000
0000
0000
0230
0000
0000
0000
0000
0000
0320
0000
0000
0000
0000
0000
0000
0000
0000
0030
0000
0000
,
1020
0000
0000
0000
0000
0000
0000
0000
0000
0000
0000
0000
0000
0000
0000
0000
0000
0000
0000
0000
0000
0030
0000
0000
0020
0000
0000
0000
0000
0000
0000
0000
0000
0000
0000
0000
0000
0000
0000
0000
0000
0000
0000
0000
0000
0000
0000
0000
0230
0000
0000
0000
0000
0000
0000
0000
0000
0000
0000
0000
0000
0000
0000
0000
0000
0000
0000
0000
0000
0000
0000
0000
0302
0000
0000
0000
0000
0000
0000
0000
0000
0000
0000
0000
0000
0000
0000
0000
0000
0000
0000
0000
0000
0000
0000
0000
0023
0000
0000
0000
0000
0000
0000
0000
0000
0000
0000
0000
0000
0000
0000
0000
0000
0000
0000
0000
0000
0000
0000
0000
0031
0000
0000
0000
0000
0000
0000
0000
0000
0000
0000
0000
0000
0000
0000
0000
1000
0000
0000
0000
0000
0000
0000
0000
0020
0000
0000
0000
0000
0000
0000
0000
0000
0000
0000
0000
0000
0000
0000
0000
0000
0000
0000
0000
0000
0000
0000
0000
0230
0000
0000
0000
0000
0000
0000
0000
0000
0000
0000
0000
0000
0000
0000
0000
0000
0000
0000
0000
0000
0000
0000
0000
,
0302
0000
0023
0032
2003
0000
0000
3000
,
0101
0000
0000
1010
0000
0000
0101
0000
0000
1010
0000
0000
0101
0000
1100
0000
,
0011
0000
0000
0010
0000
0001
0200
0000
0000
0310
0000
1000
0200
0000
0000
0320
0000
0000
0230
0000
0000
0300
0000
0000
,
1200
0000
0000
0000
0000
0000
0000
0000
0000
0000
0000
0000
0000
0000
0000
0000
0000
0000
0000
0000
0000
0300
0000
0000
0200
0000
0000
0000
0000
0000
0000
0000
0000
0000
0000
0000
0000
0000
0000
0000
0000
0000
0000
0000
0000
0000
0000
0000
0320
0000
0000
0000
0000
0000
0000
0000
0000
0000
0000
0000
0000
0000
0000
0000
0000
0000
0000
0000
0000
0000
0000
0000
0032
0000
0000
0000
0000
0000
0000
0000
0000
0000
0000
0000
0000
0000
0000
0000
0000
0000
0000
0000
0000
0000
0000
0000
0203
0000
0000
0000
0000
0000
0000
0000
0000
0000
0000
0000
0000
0000
0000
0000
0000
0000
0000
0000
0000
0000
0000
0000
0301
0000
0000
0000
0000
0000
0000
0000
0000
0000
0000
0000
0000
0000
0000
0000
1000
0000
0000
0000
0000
0000
0000
0000
0200
0000
0000
0000
0000
0000
0000
0000
0000
0000
0000
0000
0000
0000
0000
0000
0000
0000
0000
0000
0000
0000
0000
0000
0320
0000
0000
0000
0000
0000
0000
0000
0000
0000
0000
0000
0000
0000
0000
0000
0000
0000
0000
0000
0000
0000
0000
0000
,
0032
0000
0203
0302
2003
0000
0000
3000
,
0040
0000
1030
0000
0001
0001
1000
0000
,
0400
0000
0310
0000
0001
0001
1000
0100
,
0040
0000
0130
0000
1000
1000
0001
0000
,
0400
0000
0000
0000
0000
0000
0310
0000
0000
0000
0000
0100
0001
0000
0001
0000
0000
1000
0100
0000
0000
0010
0000
0000
,
MM11
M000
M000
M000
,
M000
M000
M000
M000
,
M000
M000
M000
M000
;

//---------------dance-single - I. Pyles & Gazebo----------------
#NOTES:
     dance-single:
     I. Pyles & Gazebo:
     Challenge:
     11:
     0.861,0.961,0.413,0.544,1.000,760.000,63.000,83.000,76.000,1.000:



0000
0000
0000
0000
,
1010
0000
0000
0010
0000
0000
0100
0000
0000
0000
0000
0000
0010
0000
1000
0010
0000
0000
0100
0000
0000
0000
0000
0000
,
1010
0000
0000
0010
0000
0000
0100
0000
0010
1000
0000
1000
0001
0000
0001
1000
0000
0000
0100
0000
0000
0000
0000
0000
,
0011
0000
0000
0010
0000
0000
0100
0000
0000
0000
0000
0000
0010
0000
0001
0010
0000
0000
0100
0000
0000
0000
0000
0000
,
0011
0000
0000
0010
0000
0000
0100
0000
0010
0001
0000
0001
1000
0000
1000
0001
0000
0000
0100
0000
0000
0110
0000
0000
,
M101
0000
0000
M100
0000
0000
M010
0000
0000
M000
0000
0000
M100
0000
0001
M100
0000
0000
M010
0000
0000
M000
0000
0000
,
0101
0000
0000
0100
0000
0000
0010
0000
0100
0001
0000
0001
1000
0000
1000
0001
0000
0000
0010
0000
0000
0000
0000
0000
,
1100
0000
0000
0000
0000
0000
0000
0000
0100
0000
0000
0000
0000
0000
0000
0000
0010
0000
0000
0000
0000
0001
0000
0000
0000
0000
0000
0000
0000
0010
0000
0000
0001
0000
0000
0000
0000
1000
0000
0000
0100
0000
0000
0000
0000
0010
0000
0000
0000
0000
0000
0000
0000
0000
0000
0000
0000
0000
0000
0000
0000
0000
0000
0000
,
0001
0000
0010
0000
0001
0000
1000
0000
0100
0000
1000
0000
0001
0000
0010
0000
0100
0000
1000
0000
0001
0000
0100
0000
0001
0000
0100
0000
0010
0000
1000
0000
0000
0001
0000
0000
0010
0000
0000
0100
0000
0000
0010
0000
0000
0100
0000
0000
,
1000
0000
0000
1000
0000
0000
0001
0000
0000
0000
0000
0000
1000
0000
0100
1000
0000
0000
0001
0000
0000
0000
0000
0000
,
1100
0000
0000
1000
0000
0000
0001
0000
0100
0001
0000
0001
1000
0000
1000
0010
0000
0000
1000
0000
0000
0000
0000
0000
,
0101
0000
0000
0001
0000
0000
1000
0000
0000
0000
0000
0000
0001
0000
0100
0001
0000
0000
1000
0000
0000
0000
0000
0000
,
0101
0000
0000
0000
0000
0000
0001
0000
0000
0000
0000
0000
1000
0000
0000
0000
0100
0000
1000
0000
0000
0000
1000
0000
0020
0000
0000
0000
0000
0000
0031
0000
0000
0000
0000
0000
0020
0000
0000
0000
0000
0000
1030
0000
0000
0001
0000
0000
,
0000
0000
0000
0000
0000
0000
1000
0000
0000
0000
0000
0000
0001
0000
0010
0001
0000
0000
1000
0000
0000
0000
0000
0000
,
0011
0000
0000
0001
0000
0000
1000
0000
0010
1000
0000
1000
0001
0000
0001
0010
0000
0000
0001
0000
0000
0000
0000
0000
,
1010
0000
0000
0000
0000
0000
0000
0000
1000
0000
0000
0000
0000
0000
0000
0000
0001
0000
0000
0000
0000
1000
0000
0000
0000
0000
0000
0000
0000
0001
0000
0000
1000
0000
0000
0000
0000
0010
0000
0000
0100
0000
0000
0000
0000
0001
0000
0000
0000
0000
0000
0000
0000
0000
0000
0000
0000
0000
0000
0000
0000
0000
0000
0000
,
1000
0001
0010
0001
1000
0100
0010
0001
1000
0010
1000
0001
0200
0000
0000
0320
0000
0000
2030
0000
0000
3200
0000
0000
,
0310
0000
0001
1000
0000
0100
0000
0000
0100
1000
0000
0001
1000
0000
0010
1000
0000
0000
1001
0000
0000
1000
0000
0001
,
0010
0000
0000
0100
0000
1000
0001
0000
0000
0001
0000
1000
0010
0000
0000
0010
0000
0000
1010
0000
0000
0010
0000
1000
,
0001
0000
0100
0010
0000
1000
0000
0000
1000
0010
0000
0100
0001
0000
1000
0100
0000
0000
1100
0000
0000
0100
0000
0010
,
0001
0000
0000
1000
0000
0001
0100
0000
0000
0010
0000
0100
0001
0000
0000
0001
0000
0000
1001
0000
0000
1000
0000
0000
,
M010
0000
0100
M001
0000
0010
M000
0000
0010
M001
0000
0010
M100
0000
0010
M001
0000
0000
M011
0000
0000
M010
0000
0100
,
0010
0000
0000
0010
0000
0001
1000
0000
0000
1000
0000
0001
0100
0000
0000
0100
0000
0000
0101
0000
0000
0100
0000
0001
,
1000
0000
0000
0000
0000
0000
0000
0000
0000
0000
0000
0000
0000
0000
0000
0000
0010
0000
0000
0000
0000
0000
0000
0000
0100
0000
0000
0000
0000
0000
0000
0000
0000
0000
0000
0000
0000
0000
0000
0000
0001
0000
0000
0000
0000
0000
0000
0000
1000
0000
0000
0000
0000
0000
0000
0000
0000
0000
0000
0000
0000
0000
0000
0010
0000
0000
0000
0000
0000
0000
0000
0000
0000
0000
0000
0000
0000
0000
0000
0000
0000
0000
0000
0000
0000
0000
0000
1000
0000
0000
0000
0000
0000
0000
0000
0000
0010
0000
0000
0000
0000
0000
0000
0000
0000
0000
0000
0000
0000
0000
0000
0100
0000
0000
0000
0000
0000
0000
0000
0000
0001
0000
0000
0000
0000
0000
0000
0000
0000
0000
0000
0000
0000
0000
0000
1000
0000
0000
0000
0000
0000
0000
0000
0000
0000
0000
0000
0000
0000
0000
0000
0000
0000
0000
0000
0000
0000
0000
0000
0000
0000
0000
0000
0000
0000
0000
0000
0000
0000
0000
0000
0000
0000
0000
0000
0000
0000
0000
0000
0000
0000
0000
0000
0000
0000
0000
0000
0000
0000
0000
0000
0000
,
0001
0000
0010
0000
0001
0000
1000
0000
0100
0000
0010
0000
0001
0000
1000
0000
0100
0000
1000
0000
0100
0000
0010
0000
0001
0000
0000
1000
0000
0000
0010
0000
0000
0100
0000
0000
0010
0000
0000
1000
0000
0000
0010
0000
0000
0100
0000
0000
,
0001
0000
1000
0001
0000
0010
0000
0000
0010
0001
0000
1000
0001
0000
0100
0001
0000
0000
1001
0000
0000
0001
0000
1000
,
0100
0000
0000
0010
0000
0001
1000
0000
0000
1000
0000
0001
0100
0000
0000
0100
0000
0000
0101
0000
0000
0100
0000
0001
,
1000
0000
0010
0100
0000
0001
0000
0000
0001
0100
0000
0010
1000
0000
0001
0010
0000
0000
0011
0000
0000
0010
0000
0100
,
1000
0000
0000
0001
0000
1000
0010
0000
0000
0100
0000
0010
1000
0000
0000
1000
0000
0000
1001
0000
0000
0001
0000
0000
,
001M
0000
0100
100M
0000
0010
000M
0000
0010
100M
0000
0010
010M
0000
0010
100M
0000
0000
101M
0000
0000
001M
0000
0100
,
0010
0000
0000
0010
0000
1000
0001
0000
0000
0001
0000
1000
0100
0000
0000
0100
0000
0000
1100
0000
0000
0100
0000
1000
,
0001
0000
0000
0000
0000
0000
0000
0000
0000
0000
0000
0000
0000
0000
0000
0000
0100
0000
0000
0000
0000
0000
0000
0000
0010
0000
0000
0000
0000
0000
0000
0000
0000
0000
0000
0000
0000
0000
0000
0000
1000
0000
0000
0000
0000
0000
0000
0000
0001
0000
0000
0000
0000
0000
0000
0000
0000
0000
0000
0000
0000
0000
0000
0100
0000
0000
0000
0000
0000
0000
0000
0000
0000
0000
0000
0000
0000
0000
0000
0000
0000
0000
0000
0000
0000
0000
0000
0001
0000
0000
0000
0000
0000
0000
0000
0000
0100
0000
0000
0000
0000
0000
0000
0000
0000
0000
0000
0000
0000
0000
0000
0010
0000
0000
0000
0000
0000
0000
0000
0000
1000
0000
0000
0000
0000
0000
0000
0000
0000
0000
0000
0000
0000
0000
0000
0001
0000
0000
0000
0000
0000
0000
0000
0000
0000
0000
0000
0000
0000
0000
0000
0000
0000
0000
0000
0000
0000
0000
0000
0000
0000
0000
0000
0000
0000
0000
0000
0000
0000
0000
0000
0000
0000
0000
0000
0000
0000
0000
0000
0000
0000
0000
0000
0000
0000
0000
0000
0000
0000
0000
0000
0000
,
1000
0000
0001
0000
0100
0000
0010
0000
1000
0000
0001
0000
0100
0000
0001
0000
1000
0000
0001
0000
0100
0000
0010
0000
1000
0000
0000
0001
0000
0000
0010
0000
0000
0100
0000
0000
0010
0000
0000
0100
0000
0000
1000
0000
0000
0001
0000
0000
,
1000
0000
0000
0000
0000
0010
0000
0000
0100
0000
0000
0000
0000
0001
0000
0000
1000
0000
0000
0000
0000
0010
0000
0000
0100
0000
0000
0000
0000
0010
0000
0000
1000
0000
0000
0000
0000
0100
0000
0000
0010
0000
0000
0000
0000
0001
0000
0000
1000
0000
0000
0000
0000
0001
0000
0000
0000
0000
0000
0000
0000
0010
0000
0000
,
0000
M00M
0000
0000
0000
0010
0000
0000
0100
0000
0000
0000
0000
0001
0000
0000
1000
0000
0000
0000
0000
0010
0000
0000
0100
0000
0000
0000
0000
0010
0000
0000
1000
0000
0000
0000
0000
0100
0000
0000
0010
0000
0000
0000
0000
0001
0000
0000
1000
0000
0000
0000
0000
0001
0000
0000
0000
0000
0000
0000
0000
0010
0000
0000
,
0000
M00M
0000
0000
0000
0010
0000
0000
0100
0000
0000
0000
0000
0001
0000
0000
1000
0000
0000
0000
0000
0010
0000
0000
0100
0000
0000
0000
0000
0010
0000
0000
1000
0000
0000
0000
0000
0100
0000
0000
0010
0000
0000
0000
0000
0001
0000
0000
1000
0000
0000
0000
0000
0001
0000
0000
0000
0000
0000
0000
0000
0010
0000
0000
,
0000
0000
0000
M00M
0000
0000
0000
0000
0000
0000
0000
0000
0000
0000
0000
0010
0000
0000
0000
0000
0000
0000
0000
0000
0100
0000
0000
0000
0000
0000
0000
0000
0000
0000
0000
0000
0000
0000
0000
0001
0000
0000
0000
0000
0000
0000
0000
0000
1000
0000
0000
0000
0000
0000
0000
0000
0000
0000
0000
0000
0000
0000
0000
0010
0000
0000
0000
0000
0000
0000
0000
0000
0100
0000
0000
0000
0000
0000
0000
0000
0000
0000
0000
0000
0000
0000
0000
0010
0000
0000
0000
0000
0000
0000
0000
0000
1000
0000
0000
0000
0000
0000
0000
0000
0000
0000
0000
0000
0000
0000
0000
0100
0000
0000
0000
0000
0000
0000
0000
0000
0010
0000
0000
0000
0000
0000
0000
0000
0000
0000
0000
0000
0000
0000
0000
0000
0200
0000
0000
0000
0000
0000
0000
0000
0300
0000
0000
0000
0000
0000
0000
0000
1000
0000
0000
0000
0000
0000
0000
0000
0001
0000
0000
0000
0000
0000
0000
0000
1000
0000
0000
0000
0000
0000
0000
0000
0001
0000
0000
0000
0000
0000
0000
0000
1000
0000
0000
0000
0000
0000
0000
0000
,
0200
0000
0000
0000
0000
0000
0000
0000
0300
0000
0000
0000
0000
0000
0000
0010
0000
0000
0000
0000
0000
0000
0000
0000
0100
0000
0000
0000
0000
0000
0000
0000
0000
0000
0000
0000
0000
0000
0000
1000
0000
0000
0000
0000
0000
0000
0000
0000
0001
0000
0000
0000
0000
0000
0000
0000
0000
0000
0000
0000
0000
0000
0000
0010
0000
0000
0000
0000
0000
0000
0000
0000
0100
0000
0000
0000
0000
0000
0000
0000
0000
0000
0000
0000
0000
0000
0000
0010
0000
0000
0000
0000
0000
0000
0000
0000
0001
0000
0000
0000
0000
0000
0000
0000
0000
0000
0000
0000
0000
0000
0000
0100
0000
0000
0000
0000
0000
0000
0000
0000
0010
0000
0000
0000
0000
0000
0000
0000
0000
0000
0000
0000
0000
0000
0000
1000
0000
0000
0000
0000
0000
0000
0000
0000
0001
0000
0000
0000
0000
0000
0000
0000
0000
0000
0000
0000
0000
0000
0000
1000
0000
0000
0000
0000
0000
0000
0000
0000
0000
0000
0000
0000
0000
0000
0000
0000
0000
0000
0000
0000
0000
0000
0000
0010
0000
0000
0000
0000
0000
0000
0000
0000
,
0000
M00M
0000
0000
0000
0010
0000
0000
0100
0000
0000
0000
0000
1000
0000
0000
0001
0000
0000
0000
0000
0010
0000
0000
0100
0000
0000
0000
0000
0010
0000
0000
0001
0000
0000
0000
0000
0100
0000
0000
0010
0000
0000
0000
0000
1000
0000
0000
0001
0000
0000
0000
0000
1000
0000
0000
0000
0000
0000
0000
0000
0010
0000
0000
,
0000
M00M
0000
0000
0000
0010
0000
0000
0100
0000
0000
0000
0000
0010
0000
0000
M001
0000
0000
0000
0000
0010
0000
0000
0100
0000
0000
0000
0000
0010
0000
0000
M001
0000
0000
0000
0000
0100
0000
0000
0001
0000
0000
0000
0000
0100
0000
0000
M010
0000
0000
0000
0000
0100
0000
0000
0000
0000
0000
0000
0000
0010
0000
0000
,
1000
0000
0000
0000
0000
0100
0000
0000
1000
0000
0000
0000
0000
0001
0000
0000
0100
0000
0000
0000
0000
0010
0000
0000
1000
0000
0000
0000
0000
0010
0000
0000
0100
0000
0000
0000
0000
0001
0000
0000
0100
0000
0000
0000
0000
0001
0000
0000
1000
0000
0000
0000
0000
0100
0000
0000
0010
0000
0000
0000
0000
0001
0000
0000
,
1000
0000
0000
0000
0000
0010
0000
0000
0000
0000
0000
0000
0000
0100
0000
0000
0000
0000
0000
0000
0000
0001
0000
0000
1000
0000
0000
0000
0000
0001
0000
0000
0010
0000
0000
0000
0000
0100
0000
0000
1000
0000
0000
0000
0000
0010
0000
0000
0000
0000
0000
0000
0000
0100
0000
0000
0001
0000
0000
0000
0000
1000
0000
0000
,
0100
0000
0000
0000
0000
0010
0000
0000
0000
0000
0000
0000
0000
0001
0000
0000
0000
0000
0000
0000
0000
1000
0000
0000
0100
0000
0000
0000
0000
1000
0000
0000
0001
0000
0000
0000
0000
0100
0000
0000
0010
0000
0000
0000
0000
1000
0000
0000
0000
0000
0000
0000
0000
0001
0000
0000
0100
0000
0000
0000
0000
0001
0000
0000
,
0010
0000
0000
0000
0000
0000
0000
0000
0000
0000
0000
0000
0000
0000
0000
0100
0000
0000
0000
0000
0000
0000
0000
0000
0020
0000
0000
0000
0000
0000
0000
0000
0030
0000
0000
0000
0000
0000
0000
0000
0001
0000
0000
0000
0000
0000
0000
0000
1000
0000
0000
0000
0000
0000
0000
0000
0001
0000
0000
0000
0000
0000
0000
0000
1000
0000
0000
0000
0000
0000
0000
0000
0001
0000
0000
0000
0000
0000
0000
0000
1000
0000
0000
0000
0000
0000
0000
0000
0020
0000
0000
0000
0000
0000
0000
0000
0030
0000
0000
0000
0000
0000
0000
0000
0000
0000
0000
0000
0000
0000
0000
0100
0000
0000
0000
0000
0000
0000
0000
0000
0001
0000
0000
0000
0000
0000
0000
0000
0000
0000
0000
0000
0000
0000
0000
1000
0000
0000
0000
0000
0000
0000
0000
0000
0000
0000
0000
0000
0000
0000
0000
0000
0000
0000
0000
0000
0000
0000
0000
0001
0000
0000
0000
0000
0000
0000
0000
0000
1000
0000
0000
0000
0000
0000
0000
0000
0000
0000
0000
0000
0000
0000
0000
0010
0000
0000
0000
0000
0000
0000
0000
0000
,
0100
0000
0000
0000
0000
0001
0000
0000
0000
0000
0000
0000
0000
1000
0000
0000
0000
0000
0000
0000
0000
0010
0000
0000
0100
0000
0000
0000
0000
0010
0000
0000
1000
0000
0000
0000
0000
0001
0000
0000
0010
0000
0000
0000
0000
0100
0000
0000
0000
0000
0000
0000
0000
1000
0000
0000
0001
0000
0000
0000
0000
1000
0000
0000
,
0100
0000
0000
0000
0000
0000
0000
0000
0020
0030
0000
0000
0000
0000
0000
0000
0000
0000
0000
0000
0000
0000
0000
0000
0020
0000
0030
0000
0000
0000
0000
0000
,
0000
0000
0000
0000
0000
0000
0000
0000
0020
0000
0000
0030
0000
0000
0000
0000
0000
0000
0000
0000
0000
0000
0000
0000
0020
0000
0000
0000
0030
0000
0000
0000
,
1100
0000
0100
1000
0000
0000
0020
0000
0000
0130
0000
0001
0100
0000
0100
0001
0000
0000
0020
0000
0000
0030
0000
0000
,
0100
0000
0000
1000
0000
0001
0020
0000
0000
0031
0000
0100
0010
0000
0010
1000
0000
0000
MM11
0000
0000
0000
0000
0000
,
1001
0000
0000
1000
0000
0000
0020
0000
0000
0030
0000
0100
0001
0000
0001
1000
0000
0000
0020
0000
0000
0030
0000
0000
,
4M00
0000
0000
3M00
0000
0000
0020
0000
0000
0130
0000
0001
1000
0000
1000
0200
0000
0000
M02M
0000
0000
0330
0000
0000
,
1M04
0000
0000
0M03
0000
0000
0020
0000
0000
0030
0000
0100
1000
0000
1000
0001
0000
0000
0020
0000
0000
0030
0000
0000
,
0M04
0000
0000
0M03
0000
0000
0020
0000
0000
0130
0000
1000
0001
0000
0001
0200
0000
0000
0320
0000
0000
0230
0000
0000
,
43M1
0000
0000
30M0
0000
0000
0020
0000
0000
0030
0000
0100
0001
0000
0001
1000
0000
0000
0020
0000
0000
0030
0000
0000
,
4M00
0000
0000
3M00
0000
0000
0020
0000
0000
0130
0000
0001
1000
0000
1000
0200
0000
0000
M02M
0000
0000
0330
0000
0000
,
0004
0000
0000
0000
,
0403
0000
0000
0000
0000
0000
0000
0000
0320
0000
0031
0000
0020
0000
1030
0001
,
0000
0000
0000
0000
0000
0000
M02M
0000
0000
0030
0000
0001
1000
0000
1000
0001
0000
0000
0020
0000
0000
0030
0000
0000
,
0M04
0000
0000
0000
0000
0000
0M03
0000
0000
0000
0000
0000
0020
0000
0000
0000
0000
0000
0031
0000
0000
0000
1000
0000
0200
0000
0000
0000
0000
0000
0301
0000
0000
0000
0000
0000
0200
0000
0000
0000
0000
0000
1300
0000
0000
0001
0000
0000
,
0000
0000
0000
0000
0000
0000
0020
0000
0000
0030
0000
0001
1000
0000
1000
0001
0000
0000
0020
0000
0000
0030
0000
0000
,
0M04
0000
0000
0000
0000
0000
0M03
0000
0000
0000
0000
0000
0020
0000
0000
0000
0000
0000
0130
0000
0000
0000
1000
0000
0001
0000
0000
0000
0001
0000
2000
0000
0000
3000
0000
0000
0002
0000
0000
0003
0000
0000
0200
0000
0000
0300
0000
0000
,
0040
0000
0000
0000
,
4000
0000
0000
0000
,
0004
0000
0000
0000
,
0400
0000
0000
0030
00M0
00M0
00M0
33M3
,
1111
0000
0001
0100
0000
0000
1010
0000
0001
0100
0000
0000
1010
0000
0011
0000
,
1100
0000
0000
0100
0000
1000
0020
0000
0000
0130
0000
0001
0020
0000
0000
0230
0000
0000
0320
0000
0000
0030
0000
0000
,
1100
0000
0000
0101
0000
0000
1100
0000
0000
0011
0000
0000
0110
0000
1100
0000
,
1001
0000
0000
0001
0000
0100
0020
0000
0000
2030
0000
0000
3002
0000
0000
0000
0000
0000
0000
0000
0000
0003
0000
0000
,
0011
0000
0000
1100
0000
0000
0011
0000
0000
1100
0000
0000
0011
0000
1010
0000
,
0101
0000
0000
0000
0000
0000
0100
0000
0000
0000
0001
0000
0020
0000
0000
0000
0000
0000
0130
0000
0000
0000
1000
0000
0020
0000
0000
0000
0000
0000
0230
0000
0000
0000
0000
0000
0320
0000
0000
0000
0000
0000
0000
0000
0000
0030
0000
0000
,
1020
0000
0000
0000
0000
0000
0000
0000
0000
0000
0000
0000
0000
0000
0000
0000
0000
0000
0000
0000
0000
0030
0000
0000
0020
0000
0000
0000
0000
0000
0000
0000
0000
0000
0000
0000
0000
0000
0000
0000
0000
0000
0000
0000
0000
0000
0000
0000
0230
0000
0000
0000
0000
0000
0000
0000
0000
0000
0000
0000
0000
0000
0000
0000
0000
0000
0000
0000
0000
0000
0000
0000
0302
0000
0000
0000
0000
0000
0000
0000
0000
0000
0000
0000
0000
0000
0000
0000
0000
0000
0000
0000
0000
0000
0000
0000
0023
0000
0000
0000
0000
0000
0000
0000
0000
0000
0000
0000
0000
0000
0000
0000
0000
0000
0000
0000
0000
0000
0000
0000
0031
0000
0000
0000
0000
0000
0000
0000
0000
0000
0000
0000
0000
0000
0000
0000
1000
0000
0000
0000
0000
0000
0000
0000
0020
0000
0000
0000
0000
0000
0000
0000
0000
0000
0000
0000
0000
0000
0000
0000
0000
0000
0000
0000
0000
0000
0000
0000
0230
0000
0000
0000
0000
0000
0000
0000
0000
0000
0000
0000
0000
0000
0000
0000
0000
0000
0000
0000
0000
0000
0000
0000
,
0302
0000
0023
0032
2003
0000
0000
3000
,
0101
0000
0000
1010
0000
0000
0101
0000
0000
1010
0000
0000
0101
0000
1100
0000
,
0011
0000
0000
0010
0000
0001
0200
0000
0000
0310
0000
1000
0200
0000
0000
0320
0000
0000
0230
0000
0000
0300
0000
0000
,
1200
0000
0000
0000
0000
0000
0000
0000
0000
0000
0000
0000
0000
0000
0000
0000
0000
0000
0000
0000
0000
0300
0000
0000
0200
0000
0000
0000
0000
0000
0000
0000
0000
0000
0000
0000
0000
0000
0000
0000
0000
0000
0000
0000
0000
0000
0000
0000
0320
0000
0000
0000
0000
0000
0000
0000
0000
0000
0000
0000
0000
0000
0000
0000
0000
0000
0000
0000
0000
0000
0000
0000
0032
0000
0000
0000
0000
0000
0000
0000
0000
0000
0000
0000
0000
0000
0000
0000
0000
0000
0000
0000
0000
0000
0000
0000
0203
0000
0000
0000
0000
0000
0000
0000
0000
0000
0000
0000
0000
0000
0000
0000
0000
0000
0000
0000
0000
0000
0000
0000
0301
0000
0000
0000
0000
0000
0000
0000
0000
0000
0000
0000
0000
0000
0000
0000
1000
0000
0000
0000
0000
0000
0000
0000
0200
0000
0000
0000
0000
0000
0000
0000
0000
0000
0000
0000
0000
0000
0000
0000
0000
0000
0000
0000
0000
0000
0000
0000
0320
0000
0000
0000
0000
0000
0000
0000
0000
0000
0000
0000
0000
0000
0000
0000
0000
0000
0000
0000
0000
0000
0000
0000
,
0032
0000
0203
0302
2003
0000
0000
3000
,
0040
0000
0000
0000
0000
0000
1030
0000
0000
1000
0000
0001
0100
0000
0100
0010
0000
1000
0001
0000
0000
0001
0000
1000
,
0400
0000
0000
0000
0000
0000
0310
0000
0000
0010
0000
0001
1000
0000
1000
0100
0000
1000
0001
0000
0000
0001
0000
1000
,
0040
0000
0000
0000
0000
0000
0130
0000
0000
0100
0000
0010
1000
0000
1000
0001
0000
0010
0001
0000
0000
0001
0000
1000
,
0400
0000
0000
0000
0000
0000
0310
0000
0000
0000
0000
0100
1000
0000
1000
0001
0000
0010
0100
0000
0000
0010
0000
0000
,
11MM
000M
000M
000M
,
000M
000M
000M
000M
,
000M
000M
000M
000M
;
