#TITLE:It Burns Burns Burns (DJ Doomz Remix);
#SUBTITLE:EXoduz Violation II;
#ARTIST:LOCO LOCO;
#TITLETRANSLIT:;
#SUBTITLETRANSLIT:;
#ARTISTTRANSLIT:;
#CREDIT:;
#BANNER:../banner.png;
#BACKGROUND:../background.png;
#LYRICSPATH:;
#CDTITLE:;
#MUSIC:It Burns Burns Burns (DJ Doomz Remix).ogg;
#OFFSET:0.620;
#SAMPLESTART:96.913;
#SAMPLELENGTH:11.960;
#SELECTABLE:YES;
#DISPLAYBPM:300.000;
#BPMS:0.000=300.000,164.000=2400.000,228.000=300.000,501.000=2400.000,557.000=300.000,766.000=2400.000,822.000=300.000;
#STOPS:;
#BGCHANGES:;
// cache tags:
#FIRSTBEAT:4.000;
#LASTBEAT:928.000;
#SONGFILENAME:Songs/EXoduz Violation II/It Burns Burns Burns (DJ Doomz Remix) - [Ov3rHell3XoduZ]/sm.sm;
#HASMUSIC:1;
#HASBANNER:1;
#MUSICLENGTH:160.085;
// end cache tags

//---------------dance-single - ----------------
#NOTES:
     dance-single:
     :
     Beginner:
     13:
     1.000,1.000,0.687,1.000,1.000,1324.000,110.000,223.000,3.000,0.000:

0000
0000
0000
0000
,
1000
0001
0100
0001
0020
0000
0130
1000
,
0010
0110
0101
0011
,
0100
1000
0001
1000
0002
0000
0103
0000
,
0110
1010
1200
0000
,
0310
0001
1000
0001
0100
0000
0010
1000
,
0100
0010
0001
1000
0001
0100
0001
0010
,
0100
1000
0001
0100
0001
1000
0100
0010
,
0001
1000
0001
0010
0001
1000
0100
0010
,
0001
1000
0100
1000
0010
0100
0001
0010
,
0001
1000
0100
0010
0001
1000
0010
1000
,
0010
0100
0001
0100
0001
0010
0100
1000
,
1010
1010
1010
0000
,
1000
0100
0010
0001
1000
0001
0100
0001
,
0010
0100
1000
0100
1000
0010
0100
0001
,
0010
0001
1000
0100
0010
0001
1000
0001
,
1000
0100
1000
0001
1000
0001
0100
0001
,
2000
3001
0100
0001
0010
0100
1000
0010
,
0100
0001
1000
0100
0010
0001
1000
0001
,
0010
0001
1000
0100
0010
0001
1000
0010
,
1000
0010
0100
0001
0010
0001
0010
0100
,
1000
0001
0100
0001
1000
0010
1000
0010
,
0100
0001
0010
0100
1000
0001
0100
0001
,
1000
0100
1000
0100
0010
0001
0010
0001
,
1000
0010
0100
0001
0010
0001
1000
0100
,
1000
0001
0100
0001
1000
0010
0100
0001
,
1000
0100
1000
0100
0010
0001
0100
0001
,
0100
0001
0010
0100
1000
0010
1000
0010
,
1000
0100
0010
0001
1000
0010
0100
0001
,
0010
0100
0010
0001
1000
0100
1000
0001
,
0100
0001
1000
0100
0010
0001
1000
0001
,
0020
0230
0000
2300
,
0000
0000
3020
0030
0220
0330
0100
0001
,
0020
0000
0230
0000
2300
0000
3010
0100
,
0002
0000
0023
0000
0230
0000
1300
0010
,
0200
0000
0310
0000
2020
3030
1000
0000
,
0100
0000
0010
0000
0001
0000
2000
0000
0000
0000
0000
0000
0000
0000
0000
3000
0000
0000
1001
0000
0000
0000
0000
0000
,
0101
0110
1010
1100
,
0100
0010
0001
0000
0000
0000
1000
0100
,
0110
0011
0101
0110
,
0010
1000
0200
0000
0000
0000
0000
0000
,
0320
0000
0000
0000
,
0000
0000
0000
0000
,
0000
0000
0000
0000
,
0000
0000
0000
0000
,
0000
0000
0000
0000
,
0000
0000
0000
0000
,
0000
0000
0000
0000
,
0000
0000
0000
0000
,
0000
0000
0000
0000
,
0000
0000
0000
0000
,
0000
0000
0000
0000
,
0000
0000
0000
0000
,
0000
0000
0000
0000
,
0000
0000
0000
0000
,
0000
0000
0000
0000
,
0000
0000
0000
0000
,
0031
1000
0100
1000
0001
1000
0010
1000
0100
0010
0001
1000
,
0001
0100
0010
0100
0010
1000
0100
1000
0010
1000
0001
0100
,
0001
0010
0001
1000
0100
1000
0100
0010
0001
1000
0010
1000
,
0001
1000
0100
0010
0001
1000
0010
0100
,
0001
1000
0100
1000
0100
0010
0001
1000
0010
0100
0001
0100
,
0001
0010
0100
1000
0010
0100
0010
1000
0100
1000
0100
0010
,
0001
1000
0001
0100
0001
0010
0200
0000
0000
2300
0000
0000
,
3020
0030
0000
0000
,
0100
0001
0010
0001
1000
0100
1000
0100
0010
0001
1000
0010
,
0100
0001
0010
0001
1000
0100
1000
0100
0010
0001
1000
0010
,
0100
0001
0010
0001
1000
0010
1000
0100
0010
0001
1000
0001
,
0100
0010
1000
0001
0100
0010
1000
0100
,
0020
0032
0203
0320
,
2030
0000
3200
0000
0310
0001
1000
0001
,
1000
0000
0000
0000
2200
3300
0220
0330
,
0022
0033
0000
0000
0000
0000
0000
0000
,
1000
0010
1000
0010
1000
0010
1000
0010
,
0100
0010
0100
0010
0100
0010
0100
0010
,
1000
0100
1000
0100
1000
0100
1000
0100
,
0010
0001
0010
0001
0010
0001
0010
0001
,
1000
0010
1000
0010
1000
0010
1000
0010
,
0100
0010
0100
0010
0100
0010
0100
0010
,
0100
0001
0100
0001
0100
0001
0100
0001
,
0010
0001
0010
0001
0010
0001
0010
0001
,
1000
0100
1000
0100
1000
0100
1000
0100
,
0010
0001
0010
0001
0010
0001
0010
0001
,
1000
0001
1000
0001
1000
0001
1000
0001
,
0100
0001
0100
0001
0100
0001
0100
0001
,
0100
0010
0100
0010
0100
0010
0100
0010
,
1000
0010
1000
0010
1000
0010
1000
0100
,
0020
0000
0032
0000
0003
0000
2200
3300
,
2002
3003
0202
0303
0200
0300
0200
0300
,
0010
1000
0100
0010
0001
1000
0010
0100
,
0001
0010
0001
1000
0100
0010
0001
1000
,
0001
1000
0100
1000
0010
0100
0001
0010
,
0001
1000
0100
0010
0001
1000
0001
0100
,
0001
1000
0100
0010
0002
0000
1003
0100
,
2000
3000
0202
0303
0220
0330
2020
3030
,
0100
0010
0001
1000
0200
0300
0220
0330
,
0022
0033
0202
0303
2002
3003
0000
0000
,
1000
0100
0010
0001
2000
0000
3001
0100
,
0202
0303
0220
0330
2020
3030
2200
3300
,
0100
0010
0001
1000
0010
0100
0001
0010
,
0001
1000
0100
1000
0010
1000
0010
0100
,
0001
1000
0100
1000
0100
0010
0001
1000
0010
1000
0010
0100
,
0001
0010
0001
1000
0100
0010
0001
1000
0001
1000
0010
0100
,
0001
0010
0001
0010
0100
1000
0010
0100
0001
1000
0100
1000
,
0001
0100
0001
0010
0001
1000
0100
0010
0001
1000
0001
1000
,
0010
0100
0001
0010
0001
1000
0100
0010
0001
1000
0001
0100
,
0001
0010
0001
0010
0100
1000
0010
0100
0001
1000
0100
1000
,
0100
0010
0001
1000
0010
0100
0001
0010
0001
1000
0100
0010
,
0001
1000
0010
1000
0010
0100
0001
0100
0001
0010
0100
0010
,
0001
1000
0100
1000
0100
0010
0001
1000
0010
1000
0001
1000
,
0100
1000
0010
0100
0001
0010
0001
0100
0001
1000
0001
0100
,
0001
0100
0010
1000
0100
1000
0100
1000
0010
0100
0001
0010
,
0001
1000
0100
0010
0001
1000
0001
0100
0001
0010
0001
1000
,
0010
1000
0010
0100
0001
1000
0100
1000
0010
0100
0001
0010
,
0001
1000
0001
0100
0001
1000
0100
0010
0001
1000
0001
0010
,
0004
4003
3040
0000
,
0430
0000
0000
0000
,
0302
0000
0023
0000
0000
0000
0130
1000
,
0001
1000
0002
0000
0000
0000
1003
0100
,
0020
0000
0000
0000
0031
1000
0010
0100
,
0002
0003
2002
0000
0000
3003
2200
3300
,
2002
3003
0202
0303
0022
0033
0220
0330
,
2200
3300
2002
3003
0000
0000
2020
3030
,
0220
0330
0202
0303
0220
0330
2020
3030
,
2000
3200
0000
0320
0000
0000
0000
0000
,
0000
0032
0000
0000
,
0000
0000
0000
0000
,
0000
0000
0000
0000
,
0000
0000
0000
0000
,
0000
0000
0000
0000
,
0000
0000
0000
0000
,
0000
0000
0000
0000
,
0000
0000
0000
0000
,
0000
0000
0000
0000
,
0000
0000
0000
0000
,
0000
0000
0000
0000
,
0000
0000
0000
0000
,
0000
0000
0000
0000
,
0000
0000
0000
0000
,
0000
0000
0000
1003
0100
1000
0010
1000
0010
0100
0001
0010
,
0100
1000
0001
0100
0001
1000
0010
0100
0001
1000
0100
1000
,
0100
0010
0001
1000
0001
0100
0001
0100
0010
1000
0100
0010
,
0001
0000
1000
0000
0001
0000
0010
0000
0000
0100
0000
0000
1000
0000
0000
0001
0000
0000
0100
0000
0000
0001
0000
0000
,
1000
0000
0000
0010
0000
0000
0100
0000
0001
0000
1000
0000
0100
0000
1000
0000
0100
0000
0010
0000
0001
0000
1000
0000
,
0010
0100
0001
0010
0001
1000
0001
0100
0001
1000
0100
1000
,
0100
0010
0001
1000
0010
1000
0010
0100
0001
0010
0001
1000
,
0100
0010
0001
1000
0000
0000
0000
0000
0000
0000
0000
0000
,
0000
0000
0000
0001
1000
0010
0100
0001
1000
0010
0100
0001
,
0010
0001
1000
0100
1000
0100
0010
0001
0010
0001
1000
0010
,
1000
0010
0100
0001
0100
0001
0010
0100
1000
0010
0100
0001
,
1000
0000
0001
0000
0010
0000
0100
0000
0000
1000
0000
0000
0001
0000
0000
0010
0000
0000
0100
0000
0000
1000
0000
0000
,
0001
0000
0000
0010
0000
0000
0100
0000
1000
0000
0010
0000
0100
0000
0001
0000
0010
0000
0001
0000
1000
0000
0100
0000
,
0010
0001
1000
0001
0100
0001
0100
0010
1000
0010
1000
0100
,
1000
0100
0010
0001
1000
0001
0010
0001
1000
0020
0000
0000
,
0230
0000
0302
0000
0000
0003
0011
0101
,
1001
0101
0202
0000
0303
0000
0220
0000
,
0330
2020
3030
2200
,
3300
0220
0330
0022
,
0033
0000
0202
0303
0220
0330
2020
3030
,
0000
2200
3300
0220
,
0330
0022
0033
0202
,
0303
0000
2002
0000
3003
0000
2200
3300
,
0220
0330
0022
0033
0000
0000
2020
0000
,
3030
0220
0330
0202
,
0303
0022
0033
0220
,
0330
2200
3300
2002
,
3003
0000
2020
3030
0202
0303
2020
3030
,
0000
2200
3300
0220
,
0330
0022
0033
2002
,
3003
1001
1100
0000
,
0110
0011
0011
1010
,
1010
0000
0110
0100
0001
0010
0100
1000
,
0010
0100
0001
1000
0100
1000
0100
0010
,
0001
1000
0010
0100
0001
1000
0100
0010
,
0001
1000
0001
0100
0001
0010
0100
1000
,
0010
0100
0002
2003
3200
0320
0032
0003
,
1000
0100
1000
0000
0220
0330
0202
0303
,
0022
0033
0100
1000
0001
1000
0200
0000
,
0320
0032
2003
3020
,
0030
0000
0100
0001
0100
0001
0200
0000
,
0310
1000
0200
0300
0220
0330
0022
0033
,
0202
0303
0100
0010
1000
0010
1000
0000
,
0100
0000
0010
0001
1000
0001
0020
0000
,
0000
0000
0130
1000
0001
0100
0020
0000
,
1030
0100
0010
0001
1000
0001
0100
0000
,
0010
0000
1000
0100
0010
0001
2000
0000
,
3001
0000
0202
0303
0220
0330
2020
3030
,
0000
0000
0001
1000
0100
0010
0002
0000
,
1003
0100
2000
0000
3002
0000
0203
0000
,
0320
0000
1030
0100
0010
0001
1000
0000
,
1001
0000
0001
0100
0010
1000
0002
0000
,
0000
0000
0203
0000
,
0000
0000
0000
0000
,
0000
0000
0000
0000
,
0000
0000
0000
0000
,
0000
0000
0000
0000
,
0000
0000
0000
0000
,
0000
0000
0000
0000
,
0000
0000
0000
0000
,
0000
0000
0000
0000
,
0000
0000
0000
0000
,
0000
0000
0000
0000
,
0000
0000
0000
0000
,
0000
0000
0000
0000
,
0000
0000
0000
0000
,
0000
0000
0000
0000
0000
0000
0310
1000
0100
1000
0010
0100
,
0001
0010
0001
1000
0100
0010
0001
1000
0001
0100
0001
0010
,
0001
0010
0100
1000
0010
0100
0001
1000
0100
1000
0100
0010
,
0001
0000
1000
0000
0010
0000
0100
0000
0001
0000
0010
0000
0001
0000
0000
0010
0000
0000
0100
0000
0000
1000
0000
0000
,
0001
0000
0000
0010
0000
0000
0100
0000
0000
1000
0000
0000
0001
0000
1000
0000
0010
0000
1000
0000
0010
0000
0100
0000
,
0001
0010
0001
0010
0100
1000
0010
0100
0001
1000
0100
1000
,
0100
0010
0001
1000
0010
0100
0001
0010
0001
1000
0100
0010
,
0002
0203
0320
0030
,
0000
0000
0000
0000
0000
0000
1000
0100
0010
0001
1000
0010
,
0100
0001
0010
0001
1000
0100
0010
0100
1000
0100
1000
0010
,
0100
0001
0010
0001
1000
0100
0010
0001
1000
0001
0100
0001
,
0010
0000
0100
0000
1000
0000
0001
0000
0100
0000
0001
0000
1000
0000
0000
0100
0000
0000
0010
0000
0000
0001
0000
0000
,
1000
0000
0000
0010
0000
0000
0100
0000
0000
0001
0000
0000
0010
0000
0100
0000
1000
0000
0001
0000
0100
0000
0001
0000
,
1000
0100
1000
0100
0010
0001
0010
0001
1000
0010
0100
0001
,
0010
0001
1000
0100
0010
0001
2000
0000
0000
3002
0000
0000
,
0003
0110
1010
1100
,
0110
0000
0011
0000
0101
0100
0010
1000
,
0100
0010
0001
1000
0010
1000
0010
0100
,
0001
0010
0100
1000
0001
0100
0001
1000
,
0100
1000
0010
0100
0002
0000
0023
0000
,
0230
0000
0300
0000
1000
0001
0100
0001
,
1000
0010
0100
0001
0010
0001
1000
0100
,
0010
0001
1000
0010
1000
0010
0100
0001
,
0010
0100
2000
0000
3001
0100
0001
0100
,
0002
0000
0000
0000
,
0000
0000
0000
0000
,
0000
0000
0000
0000
,
MMM3
0000
0000
0000
;

//---------------dance-single - ----------------
#NOTES:
     dance-single:
     :
     Easy:
     14:
     1.000,1.000,0.681,1.000,1.000,1380.000,109.000,217.000,3.000,0.000:

0000
0000
0000
0000
,
1000
0001
0100
0001
0020
0000
0130
1000
,
0010
0110
0101
0011
,
0100
1000
0001
1000
0002
0000
0103
0000
,
0110
1010
1200
0000
,
0310
0001
1000
0001
0100
0000
0010
1000
,
0100
0010
0001
1000
0001
0100
0001
0010
,
0100
1000
0001
0100
0001
1000
0100
0010
,
0001
1000
0001
0010
0001
1000
0100
0010
,
0001
1000
0100
1000
0010
0100
0001
0010
0001
1000
0100
0010
,
0001
1000
0100
1000
0001
0100
0001
1000
0010
0100
0001
0010
,
0001
1000
0100
0010
0100
1000
0010
0100
0001
0010
0001
1000
,
0001
1001
1001
0000
,
1000
0100
0010
0001
1000
0001
0100
0001
,
0010
0100
1000
0100
1000
0010
0100
0001
,
0010
0001
1000
0100
0010
0001
1000
0001
,
1000
0100
1000
0001
1000
0001
0100
0001
,
2000
3001
0100
0001
0010
0100
1000
0010
,
0100
0001
1000
0100
0010
0001
1000
0001
,
0010
0001
1000
0100
0010
0001
1000
0010
,
1000
0010
0100
0001
0010
0001
0010
0100
,
1000
0001
0100
0001
1000
0010
1000
0010
,
0100
0001
0010
0100
1000
0001
0100
0001
,
1000
0100
1000
0100
0010
0001
0010
0001
,
1000
0010
0100
0001
0010
0001
1000
0100
,
1000
0001
0100
0001
1000
0010
0100
0001
,
1000
0100
1000
0100
0010
0001
0100
0001
,
0100
0001
0010
0100
1000
0010
1000
0010
,
1000
0100
0010
0001
1000
0010
0100
0001
,
0010
0100
0010
0001
1000
0100
1000
0001
,
0100
0001
1000
0100
0010
0001
1000
0001
,
0020
0230
0000
2300
,
0000
0000
3020
0030
0220
0330
0100
0001
,
0020
0000
0230
0000
2300
0000
3010
0100
,
0002
0000
0023
0000
0230
0000
1300
0010
,
0200
0000
0310
0000
2020
3030
1000
0000
,
0100
0000
0010
0000
0001
0000
2000
0000
0000
0000
0000
0000
0000
0000
0000
3000
0000
0000
1001
0000
0000
0000
0000
0000
,
0101
0110
1010
1100
,
0100
0010
0001
0000
0000
0000
1000
0100
,
0110
0011
0101
0110
,
0010
1000
0200
0000
0000
0000
0000
0000
,
0320
0000
0000
0000
,
0000
0000
0000
0000
,
0000
0000
0000
0000
,
0000
0000
0000
0000
,
0000
0000
0000
0000
,
0000
0000
0000
0000
,
0000
0000
0000
0000
,
0000
0000
0000
0000
,
0000
0000
0000
0000
,
0000
0000
0000
0000
,
0000
0000
0000
0000
,
0000
0000
0000
0000
,
0000
0000
0000
0000
,
0000
0000
0000
0000
,
0000
0000
0000
0000
,
0000
0000
0000
0000
,
0031
1000
0100
1000
0010
0100
0001
0010
0001
1000
0001
0100
,
0010
1000
0100
1000
0010
1000
0001
0100
0001
0010
0100
0010
,
0001
1000
0010
0100
0010
1000
0100
1000
0001
0100
0010
1000
,
0100
1000
0001
0100
0010
1000
0100
1000
0010
0100
0001
0010
,
0001
1000
0001
0100
0010
1000
0100
1000
0010
0100
0001
0010
,
0001
1000
0100
0010
0001
1000
0010
0100
0001
0010
0001
1000
,
0100
1000
0010
0100
0001
0010
0200
0000
0000
2300
0000
0000
,
3020
0030
0000
0000
,
0100
0001
0010
0100
1000
0010
0100
0001
1000
0100
1000
0001
,
0100
0010
1000
0100
0010
0001
1000
0010
0100
0001
0010
0001
,
1000
0100
0010
0001
1000
0001
0100
0010
1000
0100
1000
0010
,
0100
0001
0010
0001
1000
0100
0010
0001
1000
0001
0100
0001
,
0010
0100
1000
0001
0010
0100
1000
0001
0100
0010
1000
0001
,
0100
0000
0010
0000
1000
0000
0100
0000
0010
0000
0001
0000
1000
0000
0000
0001
0000
0000
1000
0000
0000
0001
0000
0000
,
1000
0000
0000
0000
2200
3300
0220
0330
,
0022
0033
0000
0000
0000
0000
0000
0000
,
1000
0010
1000
0010
1000
0010
1000
0010
,
0100
0010
0100
0010
0100
0010
0100
0010
,
1000
0100
1000
0100
1000
0100
1000
0100
,
0010
0001
0010
0001
0010
0001
0010
0001
,
1000
0010
1000
0010
1000
0010
1000
0010
,
0100
0010
0100
0010
0100
0010
0100
0010
,
0100
0001
0100
0001
0100
0001
0100
0001
,
0010
0001
0010
0001
0010
0001
0010
0001
,
1000
0100
1000
0100
1000
0100
1000
0100
,
0010
0001
0010
0001
0010
0001
0010
0001
,
1000
0001
1000
0001
1000
0001
1000
0001
,
0100
0001
0100
0001
0100
0001
0100
0001
,
0100
0010
0100
0010
0100
0010
0100
0010
,
1000
0010
1000
0010
1000
0010
1000
0100
,
0020
0000
0032
0000
0003
0000
2200
3300
,
2002
3003
0202
0303
0200
0300
0200
0300
,
0010
1000
0100
1000
0010
0100
0001
0010
0100
1000
0001
0100
,
0001
1000
0100
0010
0001
1000
0010
1000
0001
0010
0001
1000
,
0100
0010
0001
1000
0010
0100
0001
0010
0001
1000
0100
0010
,
0001
1000
0001
0100
0001
1000
0100
1000
0010
0100
0001
0010
,
0100
1000
0100
0010
0002
0000
1003
0100
,
2000
3000
0202
0303
0220
0330
2020
3030
,
0100
0010
0001
1000
0200
0300
0220
0330
,
0022
0033
0202
0303
2002
3003
0000
0000
,
1000
0100
0010
0001
2000
0000
3001
0100
,
0202
0303
0220
0330
2020
3030
2200
3300
,
0100
0010
0001
1000
0010
0100
0001
0010
,
0001
1000
0100
1000
0010
1000
0010
0100
,
0001
1000
0100
1000
0010
0100
0001
0010
0100
1000
0001
0100
,
0001
1000
0010
0100
0001
1000
0100
1000
0010
0100
0001
0010
,
0100
1000
0001
0100
0010
1000
0100
1000
0010
0100
0001
0010
,
0001
1000
0100
0010
0001
1000
0010
0100
0001
0010
0001
1000
,
0100
0010
0001
1000
0010
0100
0001
0010
0001
1000
0100
1000
,
0010
0100
0001
1000
0010
0100
0001
1000
0100
1000
0010
0100
,
0001
0010
0001
1000
0100
0010
0001
1000
0001
0100
0010
1000
,
0100
1000
0010
0100
0001
0010
0100
1000
0001
0100
0001
1000
,
0100
0010
0001
1000
0010
1000
0001
0010
0001
1000
0100
0010
,
0001
1000
0010
0100
0001
0010
0001
1000
0100
1000
0010
0100
,
0001
1000
0010
1000
0001
0100
0010
1000
0100
1000
0001
0100
,
0001
0010
0100
1000
0010
0100
0010
1000
0100
0010
0001
1000
,
0001
0010
0001
1000
0100
0010
0001
1000
0010
0100
0001
1000
,
0100
1000
0010
0100
0001
0010
0001
1000
0100
0010
0001
1000
,
0004
4003
3040
0000
,
0430
0000
0000
0000
,
0302
0000
0023
0000
0000
0000
0130
1000
,
0001
1000
0002
0000
0000
0000
1003
0100
,
0020
0000
0000
0000
0031
1000
0010
0100
,
0002
0003
2002
0000
0000
3003
2200
3300
,
2002
3003
0202
0303
0022
0033
0220
0330
,
2200
3300
2002
3003
0000
0000
2020
3030
,
0220
0330
0202
0303
0220
0330
2020
3030
,
2000
3200
0000
0320
0000
0000
0000
0000
,
0000
0032
0000
0000
,
0000
0000
0000
0000
,
0000
0000
0000
0000
,
0000
0000
0000
0000
,
0000
0000
0000
0000
,
0000
0000
0000
0000
,
0000
0000
0000
0000
,
0000
0000
0000
0000
,
0000
0000
0000
0000
,
0000
0000
0000
0000
,
0000
0000
0000
0000
,
0000
0000
0000
0000
,
0000
0000
0000
0000
,
0000
0000
0000
0000
,
0000
0000
0000
1003
0100
0010
0001
1000
0010
0100
0001
0010
,
0001
1000
0100
0010
0001
1000
0010
0100
0010
1000
0100
0010
,
0001
1000
0001
0100
0010
1000
0100
1000
0010
0100
0001
0010
,
0001
1000
0100
0010
0001
1000
0010
0100
0001
0010
0001
1000
,
0100
0010
0001
1000
0010
1000
0001
0100
0010
1000
0100
1000
,
0010
0100
0001
0010
0001
1000
0100
0010
0001
1000
0010
0100
,
0001
0010
0001
1000
0100
1000
0010
0100
0001
0010
0001
1000
,
0010
0100
0001
1000
0000
0000
0000
0000
0000
0000
0000
0000
,
0000
0000
0000
0001
1000
0010
0100
0001
1000
0010
0100
0001
,
0010
0001
1000
0010
1000
0100
0010
0001
1000
0100
1000
0001
,
1000
0010
0100
0001
1000
0001
0010
0100
1000
0010
0100
0001
,
1000
0001
0010
0100
1000
0001
0100
0010
1000
0100
1000
0010
,
0100
0001
0010
0100
1000
0001
0100
0010
1000
0100
1000
0010
,
0100
0001
0010
0100
1000
0001
0100
0010
1000
0100
1000
0010
,
0100
0001
0010
0100
1000
0001
0100
0001
1000
0020
0000
0000
,
0230
0000
0302
0000
0000
0003
0011
0101
,
1001
0101
0202
0000
0303
0000
0220
0000
,
0330
2020
3030
2200
,
3300
0220
0330
0022
,
0033
0000
0202
0303
0220
0330
2020
3030
,
0000
2200
3300
0220
,
0330
0022
0033
0202
,
0303
0000
2002
0000
3003
0000
2200
3300
,
0220
0330
0022
0033
0000
0000
2020
0000
,
3030
0220
0330
0202
,
0303
0022
0033
0220
,
0330
2200
3300
2002
,
3003
0000
2020
3030
0202
0303
2020
3030
,
0000
2200
3300
0220
,
0330
0022
0033
2002
,
3003
1001
1100
0000
,
0110
0011
0011
1010
,
1010
0000
0110
0100
0001
0010
0100
1000
,
0010
0100
0001
1000
0100
1000
0100
0010
,
0001
1000
0010
0100
0001
1000
0100
0010
,
0001
1000
0001
0100
0001
0010
0100
1000
,
0010
0100
0002
2003
3200
0320
0032
0003
,
1000
0100
1000
0000
0220
0330
0202
0303
,
0022
0033
0100
1000
0001
1000
0200
0000
,
0320
0032
2003
3020
,
0030
0000
0100
0001
0100
0001
0200
0000
,
0310
1000
0200
0300
0220
0330
0022
0033
,
0202
0303
0100
0010
1000
0010
1000
0000
,
0100
0000
0010
0001
1000
0001
0020
0000
,
0000
0000
0130
1000
0001
0100
0020
0000
,
1030
0100
0010
0001
1000
0001
0100
0000
,
0010
0000
1000
0100
0010
0001
2000
0000
,
3001
0000
0202
0303
0220
0330
2020
3030
,
0000
0000
0001
1000
0100
0010
0002
0000
,
1003
0100
2000
0000
3002
0000
0203
0000
,
0320
0000
1030
0100
0010
0001
1000
0000
,
1001
0000
0001
0100
0010
1000
0002
0000
,
0000
0000
0203
0000
,
0000
0000
0000
0000
,
0000
0000
0000
0000
,
0000
0000
0000
0000
,
0000
0000
0000
0000
,
0000
0000
0000
0000
,
0000
0000
0000
0000
,
0000
0000
0000
0000
,
0000
0000
0000
0000
,
0000
0000
0000
0000
,
0000
0000
0000
0000
,
0000
0000
0000
0000
,
0000
0000
0000
0000
,
0000
0000
0000
0000
,
0000
0000
0000
0000
0000
0000
0310
1000
0100
1000
0010
0100
,
0001
0010
0001
1000
0100
0010
0001
1000
0010
0100
0001
0010
,
0001
1000
0100
1000
0001
0100
0010
1000
0001
0100
0010
1000
,
0100
0000
1000
0000
0010
0000
0100
0000
0001
0000
0010
0000
0001
0000
0000
0010
0000
0000
0100
0000
0000
1000
0000
0000
,
0001
0000
0000
0010
0000
0000
0100
0000
0000
1000
0000
0000
0001
0000
0100
0000
0010
0000
1000
0000
0100
0000
1000
0000
,
0010
0100
0001
0010
0001
1000
0100
0010
0001
1000
0010
0100
,
0001
0010
0001
1000
0100
0010
0001
1000
0010
0100
0001
1000
,
0002
0203
0320
0030
,
0000
0000
0000
0000
0000
0000
1000
0100
0010
0001
1000
0010
,
0100
0001
0010
0001
1000
0100
0010
0100
1000
0001
1000
0010
,
0100
0001
0010
0001
1000
0100
0010
0001
1000
0001
0100
0001
,
0010
0000
0100
0000
1000
0000
0001
0000
0100
0000
0001
0000
1000
0000
0000
0100
0000
0000
0010
0000
0000
0001
0000
0000
,
1000
0000
0000
0010
0000
0000
0100
0000
0000
0001
0000
0000
0010
0000
0100
0000
1000
0000
0001
0000
0100
0000
0001
0000
,
1000
0010
1000
0100
0010
0001
1000
0010
1000
0001
0100
0001
,
0010
0001
1000
0100
0010
0001
2000
0000
0000
3002
0000
0000
,
0003
0110
1010
1100
,
0110
0000
0011
0000
0101
0100
0010
1000
,
0100
0010
0001
1000
0010
1000
0010
0100
,
0001
0010
0100
1000
0001
0100
0001
1000
,
0100
1000
0010
0100
0002
0000
0023
0000
,
0230
0000
0300
0000
1000
0001
0100
0001
,
1000
0010
0100
0001
0010
0001
1000
0100
,
0010
0001
1000
0010
1000
0010
0100
0001
,
0010
0100
2000
0000
3001
0100
0001
0100
,
0002
0000
0000
0000
,
0000
0000
0000
0000
,
0000
0000
0000
0000
,
MMM3
0000
0000
0000
;

//---------------dance-single - ----------------
#NOTES:
     dance-single:
     :
     Medium:
     15:
     1.000,1.000,0.656,1.000,1.000,1521.000,105.000,212.000,3.000,0.000:

0000
0000
0000
0000
,
1000
0001
0100
0001
0020
0000
0130
1000
,
0010
0110
0101
0011
,
0100
1000
0001
1000
0002
0000
0103
0000
,
0110
1010
1200
0000
,
0310
0001
1000
0001
0100
0000
0010
1000
,
0100
0010
0001
1000
0001
0100
0001
0010
,
0100
1000
0001
0100
0001
1000
0100
0010
,
0001
1000
0001
0010
0001
1000
0100
0010
,
0001
1000
0100
1000
0010
0100
0001
0010
0001
1000
0100
0010
,
0001
1000
0100
1000
0001
0100
0001
1000
0010
0100
0001
0010
,
0001
1000
0100
0010
0100
1000
0010
0100
0001
0010
0001
1000
,
0001
0100
0010
1000
0100
0010
0001
1000
0010
0100
0001
0010
,
0100
1000
0001
0100
0010
1000
0100
1000
0010
0100
0001
0010
,
0100
1000
0001
0100
0010
1000
0100
1000
0001
0100
0010
1000
,
0001
0100
0001
0010
0001
1000
0100
0010
0001
1000
0010
0100
,
0001
0010
0001
1000
0100
1000
0010
0100
0001
1000
0001
0010
,
0001
1000
1000
0001
0001
1000
1000
0010
,
0100
0001
1000
0100
0010
0001
1000
0001
,
0010
0001
1000
0100
0010
0001
1000
0010
,
1000
0010
0100
0001
0010
0001
0010
0100
,
1000
0001
0100
0001
1000
0010
1000
0010
,
0100
0001
0010
0100
1000
0001
0100
0001
,
1000
0100
1000
0100
0010
0001
0010
0001
,
1000
0010
0100
0001
0010
0001
1000
0100
,
1000
0001
0100
0001
1000
0010
0100
0001
,
1000
0100
1000
0100
0010
0001
0100
0001
,
0100
0001
0010
0100
1000
0010
1000
0010
,
1000
0100
0010
0001
1000
0010
0100
0001
,
0010
0100
0010
0001
1000
0100
1000
0001
,
0100
0001
1000
0100
0010
0001
1000
0001
,
0020
0230
0000
2300
,
0000
0000
3020
0030
0220
0330
0100
0001
,
0020
0000
0230
0000
2300
0000
3010
0100
,
0002
0000
0023
0000
0230
0000
1300
0010
,
0200
0000
0310
0000
2020
3030
1000
0000
,
0100
0000
0010
0000
0001
0000
2000
0000
0000
0000
0000
0000
0000
0000
0000
3000
0000
0000
1001
0000
0000
0000
0000
0000
,
0101
0110
1010
1100
,
0100
0010
0001
0000
0000
0000
1000
0100
,
0110
0011
0101
0110
,
0010
1000
0200
0000
0000
0000
0000
0000
,
0320
0000
0000
0000
,
0000
0000
0000
0000
,
0000
0000
0000
0000
,
0000
0000
0000
0000
,
0000
0000
0000
0000
,
0000
0000
0000
0000
,
0000
0000
0000
0000
,
0000
0000
0000
0000
,
0000
0000
0000
0000
,
0000
0000
0000
0000
,
0000
0000
0000
0000
,
0000
0000
0000
0000
,
0000
0000
0000
0000
,
0000
0000
0000
0000
,
0000
0000
0000
0000
,
0000
0000
0000
0000
,
0031
1000
0100
1000
0010
0100
0001
0010
0001
1000
0001
0100
,
0010
1000
0100
1000
0010
1000
0001
0100
0001
0010
0100
0010
,
0001
1000
0010
0100
0010
1000
0100
1000
0001
0100
0010
1000
,
0100
1000
0001
0100
0010
1000
0100
1000
0010
0100
0001
0010
,
0001
1000
0001
0100
0010
1000
0100
1000
0010
0100
0001
0010
,
0001
1000
0100
0010
0001
1000
0010
0100
0001
0010
0001
1000
,
0100
1000
0010
0100
0001
0010
0100
1000
0001
0100
0001
1000
,
0100
0010
0001
1000
0010
1000
0001
0010
0001
1000
0100
0010
,
0001
0100
0010
1000
0100
1000
0010
0100
0001
0010
0001
1000
,
0100
0010
0001
1000
0010
0100
0001
0010
0001
1000
0100
1000
,
0001
0100
0010
1000
0100
1000
0010
0100
0001
0010
0001
1000
,
0100
0010
0001
1000
0010
0100
0001
0010
0001
1000
0100
1000
,
0010
0100
0001
0010
0100
0010
0001
1000
0100
0010
0100
1000
,
0010
0100
0001
1000
0100
0010
0001
1000
0100
1000
0010
0100
,
0001
0000
0000
0000
2200
3300
0220
0330
,
0022
0033
0000
0000
0000
0000
0000
0000
,
1000
0010
0100
0001
1000
0100
1000
0010
0100
0001
0010
0100
,
1000
0001
0100
0010
1000
0100
1000
0010
0100
0001
0010
0001
,
1000
0100
0010
0001
1000
0010
0100
0001
0010
0001
1000
0100
,
0010
0001
1000
0010
0100
0010
1000
0100
1000
0001
0100
0010
,
1000
0100
0010
0001
1000
0001
0010
0001
1000
0100
0010
0001
,
1000
0010
0100
0001
0010
0001
1000
0010
0100
0001
1000
0100
,
1000
0010
0100
0001
1000
0010
1000
0100
0010
0001
1000
0010
,
0100
0001
0010
0001
1000
0100
0010
0001
1000
0010
0100
0001
,
0010
0001
1000
0100
1000
0010
0100
0001
1000
0010
1000
0001
,
0010
0001
1000
0100
0010
0001
1000
0010
0100
0001
0010
0001
,
1000
0100
0010
0001
1000
0001
0100
0010
1000
0100
1000
0010
,
0100
0001
0010
0001
1000
0100
0010
0001
1000
0010
0100
0010
,
1000
0100
1000
0001
0100
0010
1000
0100
0010
0100
1000
0010
,
0100
0001
0010
0001
1000
0100
0010
0001
1000
0010
0100
0001
,
2000
0000
3002
0000
0003
0000
2200
3300
,
2002
3003
0202
0303
0200
0300
0200
0300
,
0010
1000
0100
1000
0010
0100
0001
0010
0100
1000
0001
0100
,
0001
1000
0100
0010
0001
1000
0010
1000
0001
0010
0001
1000
,
0100
0010
0001
1000
0010
0100
0001
0010
0001
1000
0100
0010
,
0001
1000
0001
0100
0001
1000
0100
1000
0010
0100
0001
0010
,
0100
1000
0100
0010
0002
0000
1003
0100
,
2000
3000
0202
0303
0220
0330
2020
3030
,
0100
0010
0001
1000
0200
0300
0220
0330
,
0022
0033
0202
0303
2002
3003
0000
0000
,
1000
0100
0010
0001
2000
0000
3001
0100
,
0202
0303
0220
0330
2020
3030
2200
3300
,
0100
0010
0001
1000
0010
0100
0001
0010
,
0001
1000
0100
1000
0010
1000
0010
0100
,
0001
1000
0100
1000
0010
0100
0001
0010
0100
1000
0001
0100
,
0001
1000
0010
0100
0001
1000
0100
1000
0010
0100
0001
0010
,
0100
1000
0001
0100
0010
1000
0100
1000
0010
0100
0001
0010
,
0001
1000
0100
0010
0001
1000
0010
0100
0001
0010
0001
1000
,
0100
0010
0001
1000
0010
0100
0001
0010
0001
1000
0100
1000
,
0010
0100
0001
1000
0010
0100
0001
1000
0100
1000
0010
0100
,
0001
0010
0001
1000
0100
0010
0001
1000
0001
0100
0010
1000
,
0100
1000
0010
0100
0001
0010
0100
1000
0001
0100
0001
1000
,
0100
0010
0001
1000
0010
1000
0001
0010
0001
1000
0100
0010
,
0001
1000
0010
0100
0001
0010
0001
1000
0100
1000
0010
0100
,
0001
1000
0010
1000
0001
0100
0010
1000
0100
1000
0001
0100
,
0001
0010
0100
1000
0010
0100
0010
1000
0100
0010
0001
1000
,
0001
0010
0001
1000
0100
0010
0001
1000
0010
0100
0001
1000
,
0100
1000
0010
0100
0001
0010
0001
1000
0100
0010
0001
1000
,
0004
4003
3040
0000
,
0430
0000
0000
0000
,
0302
0000
0023
0000
0000
0000
0130
1000
,
0001
1000
0002
0000
0000
0000
1003
0100
,
0020
0000
0000
0000
0031
1000
0010
0100
,
0002
0003
2002
0000
0000
3003
2200
3300
,
2002
3003
0202
0303
0022
0033
0220
0330
,
2200
3300
2002
3003
0000
0000
2020
3030
,
0220
0330
0202
0303
0220
0330
2020
3030
,
2000
3200
0000
0320
0000
0000
0000
0000
,
0000
0032
0000
0000
,
0000
0000
0000
0000
,
0000
0000
0000
0000
,
0000
0000
0000
0000
,
0000
0000
0000
0000
,
0000
0000
0000
0000
,
0000
0000
0000
0000
,
0000
0000
0000
0000
,
0000
0000
0000
0000
,
0000
0000
0000
0000
,
0000
0000
0000
0000
,
0000
0000
0000
0000
,
0000
0000
0000
0000
,
0000
0000
0000
0000
,
0000
0000
0000
1003
0100
0010
0001
1000
0010
0100
0001
0010
,
0001
1000
0100
0010
0001
1000
0010
0100
0010
1000
0100
0010
,
0001
1000
0001
0100
0010
1000
0100
1000
0010
0100
0001
0010
,
0001
1000
0100
0010
0001
1000
0010
0100
0001
0010
0001
1000
,
0100
0010
0001
1000
0010
1000
0001
0100
0010
1000
0100
1000
,
0010
0100
0001
0010
0001
1000
0100
0010
0001
1000
0010
0100
,
0001
0010
0001
1000
0100
1000
0010
0100
0001
0010
0001
1000
,
0010
0100
0001
1000
0000
0000
0000
0000
0000
0000
0000
0000
,
0000
0000
0000
0001
1000
0010
0100
0001
1000
0010
0100
0001
,
0010
0001
1000
0010
1000
0100
0010
0001
1000
0100
1000
0001
,
1000
0010
0100
0001
1000
0001
0010
0100
1000
0010
0100
0001
,
1000
0001
0010
0100
1000
0001
0100
0010
1000
0100
1000
0010
,
0100
0001
0010
0100
1000
0001
0100
0010
1000
0100
1000
0010
,
0100
0001
0010
0100
1000
0001
0100
0010
1000
0100
1000
0010
,
0100
0001
0010
0100
1000
0001
0100
0001
1000
0020
0000
0000
,
0230
0000
0302
0000
0000
0003
0011
0101
,
1001
0101
0202
0000
0303
0000
0220
0000
,
0330
2020
3030
2200
,
3300
0220
0330
0022
,
0033
0000
0202
0303
0220
0330
2020
3030
,
0000
2200
3300
0220
,
0330
0022
0033
0202
,
0303
0000
2002
0000
3003
0000
2200
3300
,
0220
0330
0022
0033
0000
0000
2020
0000
,
3030
0220
0330
0202
,
0303
0022
0033
0220
,
0330
2200
3300
2002
,
3003
0000
2020
3030
0202
0303
2020
3030
,
0000
2200
3300
0220
,
0330
0022
0033
2002
,
3003
1001
1100
0000
,
0110
0011
0011
1010
,
1010
0000
0000
0100
0001
0010
0100
1000
0001
0100
0001
1000
,
0100
0010
0001
1000
0010
1000
0001
0010
0001
1000
0100
0010
,
0001
1000
0100
1000
0010
0100
0001
0010
0100
1000
0010
0100
,
0010
1000
0100
0010
0001
1000
0010
0100
0001
0010
0001
1000
,
0100
0000
0010
0000
0001
0000
2000
0000
0000
3002
0000
0000
0203
0000
0000
0320
0000
0000
2030
0000
0000
3000
0000
0000
,
0001
0001
1000
0000
0220
0330
0202
0303
,
0022
0033
0100
1000
0001
1000
0200
0000
,
0320
0032
2003
3020
,
0030
0000
0100
0001
0100
0001
0200
0000
,
0310
1000
0200
0300
0220
0330
0022
0033
,
0202
0303
0100
0010
1000
0010
1000
0000
,
0100
0000
0010
0001
1000
0001
0020
0000
,
0000
0000
0130
1000
0001
0100
0020
0000
,
1030
0100
0010
0001
1000
0001
0100
0000
,
0010
0000
1000
0100
0010
0001
2000
0000
,
3001
0000
0202
0303
0220
0330
2020
3030
,
0000
0000
0001
1000
0100
0010
0002
0000
,
1003
0100
2000
0000
3002
0000
0203
0000
,
0320
0000
1030
0100
0010
0001
1000
0000
,
1001
0000
0001
0100
0010
1000
0002
0000
,
0000
0000
0203
0000
,
0000
0000
0000
0000
,
0000
0000
0000
0000
,
0000
0000
0000
0000
,
0000
0000
0000
0000
,
0000
0000
0000
0000
,
0000
0000
0000
0000
,
0000
0000
0000
0000
,
0000
0000
0000
0000
,
0000
0000
0000
0000
,
0000
0000
0000
0000
,
0000
0000
0000
0000
,
0000
0000
0000
0000
,
0000
0000
0000
0000
,
0000
0000
0000
0000
0000
0000
0310
1000
0100
1000
0010
0100
,
0001
0010
0001
1000
0100
0010
0001
1000
0010
0100
0001
0010
,
0001
1000
0100
1000
0001
0100
0010
1000
0001
0100
0010
1000
,
0100
0000
1000
0000
0010
0000
0100
0000
0001
0000
0010
0000
0001
0000
0000
0010
0000
0000
0100
0000
0000
1000
0000
0000
,
0001
0000
0000
0010
0000
0000
0100
0000
0000
1000
0000
0000
0001
0000
0100
0000
0010
0000
1000
0000
0100
0000
1000
0000
,
0010
0100
0001
0010
0001
1000
0100
0010
0001
1000
0010
0100
,
0001
0010
0001
1000
0100
0010
0001
1000
0010
0100
0001
1000
,
0002
0203
0320
0030
,
0000
0000
0000
0000
0000
0000
1000
0100
0010
0001
1000
0010
,
0100
0001
0010
0001
1000
0100
0010
0100
1000
0001
1000
0010
,
0100
0001
0010
0001
1000
0100
0010
0001
1000
0001
0100
0001
,
0010
0000
0100
0000
1000
0000
0001
0000
0100
0000
0001
0000
1000
0000
0000
0100
0000
0000
0010
0000
0000
0001
0000
0000
,
1000
0000
0000
0010
0000
0000
0100
0000
0000
0001
0000
0000
0010
0000
0100
0000
1000
0000
0001
0000
0100
0000
0001
0000
,
1000
0010
1000
0100
0010
0001
1000
0010
1000
0001
0100
0001
,
0010
0001
1000
0100
0010
0001
2000
0000
0000
3002
0000
0000
,
0003
0110
1010
1100
,
0110
0000
0000
0011
0000
0000
0001
1000
0010
0100
0001
1000
,
0100
1000
0010
0100
0001
0010
0001
1000
0100
0010
0001
1000
,
0010
0100
0001
0010
0001
1000
0100
0010
0100
1000
0010
0100
,
0001
0010
0001
1000
0100
0010
0002
0000
0000
0023
0000
0000
,
0230
0000
0000
0300
0000
0000
1000
0001
0100
0001
1000
0010
,
0100
0001
0010
0001
1000
0100
0010
0001
1000
0010
0100
0010
,
1000
0100
1000
0001
0100
0010
1000
0100
1000
0001
0010
0100
,
0010
0001
1000
0100
0010
0001
1000
0010
0100
0001
1000
0100
,
2000
0000
0000
0000
,
0000
0000
0000
0000
,
0000
0000
0000
0000
,
3MMM
0000
0000
0000
;

//---------------dance-single - ----------------
#NOTES:
     dance-single:
     :
     Hard:
     17:
     1.000,1.000,0.606,1.000,1.000,1646.000,97.000,194.000,3.000,0.000:

0000
0000
0000
0000
,
1000
0001
0100
0001
0020
0000
0130
1000
,
0010
0110
0101
0011
,
0100
1000
0001
1000
0002
0000
0103
0000
,
0110
1010
1200
0000
,
0310
0001
1000
0001
0100
0000
0010
1000
,
0100
0010
0001
1000
0001
0100
0001
0010
,
0100
1000
0001
0100
0001
1000
0100
0010
,
0001
1000
0001
0010
0001
1000
0100
0010
,
0001
1000
0100
1000
0010
0100
0001
0010
0001
1000
0100
0010
,
0001
1000
0100
1000
0001
0100
0001
1000
0010
0100
0001
0010
,
0001
1000
0100
0010
0100
1000
0010
0100
0001
0010
0001
1000
,
0001
0100
0010
1000
0100
0010
0001
1000
0010
0100
0001
0010
,
0100
1000
0001
0100
0010
1000
0100
1000
0010
0100
0001
0010
,
0100
1000
0001
0100
0010
1000
0100
1000
0001
0100
0010
1000
,
0001
0100
0001
0010
0001
1000
0100
0010
0001
1000
0010
0100
,
0001
0010
0001
1000
0100
1000
0010
0100
0001
1000
0001
0010
,
0100
1000
0001
0100
0001
1000
0100
1000
0010
0100
0001
0010
,
0100
1000
0001
0100
0010
1000
0100
1000
0010
0100
0001
0010
,
0001
1000
0100
0010
0001
1000
0010
1000
0001
0010
0001
1000
,
0100
0010
0001
1000
0010
0100
0010
1000
0100
1000
0001
0100
,
0010
1000
0100
1000
0001
0010
0001
1000
0100
0010
0001
1000
,
0010
0100
0001
0010
0001
1000
0100
0010
0100
1000
0010
0100
,
0001
1000
0001
0010
0001
1000
0100
0010
0100
1000
0010
0100
,
0001
0010
0001
1000
0100
0010
0100
1000
0010
0100
0001
1000
,
0001
0010
0001
1000
0100
0010
0001
1000
0010
0100
0010
1000
,
0001
0010
0100
0010
0001
1000
0100
1000
0001
0100
0010
1000
,
0100
1000
0001
0010
0100
0010
0001
1000
0010
1000
0001
0010
,
0001
1000
0010
0100
0001
1000
0100
1000
0010
0100
0001
0010
,
0100
0010
0001
1000
0100
0010
0001
1000
0001
0010
0001
1000
,
0010
0100
0001
1000
0100
1000
0001
0100
0001
0010
0100
1000
,
0020
0230
0000
0302
,
0000
0003
0020
0030
0220
0330
0001
0001
,
0020
0000
0230
0000
2300
0000
3010
0100
,
0002
0000
0023
0000
0230
0000
1300
0010
,
0200
0000
0310
0000
2020
3030
1000
0000
,
0100
0000
0010
0000
0001
0000
2000
0000
0000
0000
0000
0000
0000
0000
0000
3000
0000
0000
1001
0000
0000
0000
0000
0000
,
0101
0110
1010
1100
,
0100
0010
0001
0000
0000
0000
1000
0100
,
0110
0011
0101
0110
,
0010
1000
0200
0000
0000
0000
0000
0000
,
0320
0000
0000
0000
,
0000
0000
0000
0000
,
0000
0000
0000
0000
,
0000
0000
0000
0000
,
0000
0000
0000
0000
,
0000
0000
0000
0000
,
0000
0000
0000
0000
,
0000
0000
0000
0000
,
0000
0000
0000
0000
,
0000
0000
0000
0000
,
0000
0000
0000
0000
,
0000
0000
0000
0000
,
0000
0000
0000
0000
,
0000
0000
0000
0000
,
0000
0000
0000
0000
,
0000
0000
0000
0000
,
0031
1000
0100
1000
0010
0100
0001
0010
0001
1000
0001
0100
,
0010
1000
0100
1000
0010
1000
0001
0100
0001
0010
0100
0010
,
0001
1000
0010
0100
0010
1000
0100
1000
0001
0100
0010
1000
,
0100
1000
0001
0100
0010
1000
0100
1000
0010
0100
0001
0010
,
0001
1000
0001
0100
0010
1000
0100
1000
0010
0100
0001
0010
,
0001
1000
0100
0010
0001
1000
0010
0100
0001
0010
0001
1000
,
0100
1000
0010
0100
0001
0010
0100
1000
0001
0100
0001
1000
,
0100
0010
0001
1000
0010
1000
0001
0010
0001
1000
0100
0010
,
0001
0100
0010
1000
0100
1000
0010
0100
0001
0010
0001
1000
,
0100
0010
0001
1000
0010
0100
0001
0010
0001
1000
0100
1000
,
0001
0100
0010
1000
0100
1000
0010
0100
0001
0010
0001
1000
,
0100
0010
0001
1000
0010
0100
0001
0010
0001
1000
0100
1000
,
0010
0100
0001
0010
0100
0010
0001
1000
0100
0010
0100
1000
,
0010
0100
0001
1000
0100
0010
0001
1000
0100
1000
0010
0100
,
0001
0000
0000
0000
2200
3300
0220
0330
,
0022
0033
0000
0000
0000
0000
0000
0000
,
1000
0010
0100
0001
1000
0100
1000
0010
0100
0001
0010
0100
,
1000
0001
0100
0010
1000
0100
1000
0010
0100
0001
0010
0001
,
1000
0100
0010
0001
1000
0010
0100
0001
0010
0001
1000
0100
,
0010
0001
1000
0010
0100
0010
1000
0100
1000
0001
0100
0010
,
1000
0100
0010
0001
1000
0001
0010
0001
1000
0100
0010
0001
,
1000
0010
0100
0001
0010
0001
1000
0010
0100
0001
1000
0100
,
1000
0010
0100
0001
1000
0010
1000
0100
0010
0001
1000
0010
,
0100
0001
0010
0001
1000
0100
0010
0001
1000
0010
0100
0001
,
0010
0001
1000
0100
1000
0010
0100
0001
1000
0010
1000
0001
,
0010
0001
1000
0100
0010
0001
1000
0010
0100
0001
0010
0001
,
1000
0100
0010
0001
1000
0001
0100
0010
1000
0100
1000
0010
,
0100
0001
0010
0001
1000
0100
0010
0001
1000
0010
0100
0010
,
1000
0100
1000
0001
0100
0010
1000
0100
0010
0100
1000
0010
,
0100
0001
0010
0001
1000
0100
0010
0001
1000
0010
0100
0001
,
1000
0100
1000
0010
0100
0001
0010
0001
,
1000
0100
1000
0010
0100
0001
1000
0001
,
0001
1000
0100
1000
0010
0100
0001
0010
0100
1000
0001
0100
,
0001
1000
0100
0010
0001
1000
0010
1000
0001
0010
0001
1000
,
0100
0010
0001
1000
0010
0100
0001
0010
0001
1000
0100
0010
,
0001
1000
0001
0100
0001
1000
0100
1000
0010
0100
0001
0010
,
0100
1000
0100
0010
0002
0000
1003
0100
,
2000
3000
0202
0303
0220
0330
2020
3030
,
0100
0010
0001
1000
0200
0300
0220
0330
,
0022
0033
0202
0303
2002
3003
0000
0000
,
1000
0100
0010
0001
2000
0000
3001
0100
,
0202
0303
0220
0330
2020
3030
2200
3300
,
0100
0010
0001
1000
0010
0100
0001
0010
,
0001
1000
0100
1000
0010
1000
0010
0100
,
0001
1000
0100
1000
0010
0100
0001
0010
0100
1000
0001
0100
,
0001
1000
0010
0100
0001
1000
0100
1000
0010
0100
0001
0010
,
0100
1000
0001
0100
0010
1000
0100
1000
0010
0100
0001
0010
,
0001
1000
0100
0010
0001
1000
0010
0100
0001
0010
0001
1000
,
0100
0010
0001
1000
0010
0100
0001
0010
0001
1000
0100
1000
,
0010
0100
0001
1000
0010
0100
0001
1000
0100
1000
0010
0100
,
0001
0010
0001
1000
0100
0010
0001
1000
0001
0100
0010
1000
,
0100
1000
0010
0100
0001
0010
0100
1000
0001
0100
0001
1000
,
0100
0010
0001
1000
0010
1000
0001
0010
0001
1000
0100
0010
,
0001
1000
0010
0100
0001
0010
0001
1000
0100
1000
0010
0100
,
0001
1000
0010
1000
0001
0100
0010
1000
0100
1000
0001
0100
,
0001
0010
0100
1000
0010
0100
0010
1000
0100
0010
0001
1000
,
0001
0010
0001
1000
0100
0010
0001
1000
0010
0100
0001
1000
,
0100
1000
0010
0100
0001
0010
0001
1000
0100
0010
0001
1000
,
0004
4003
3040
0000
,
0430
0000
0000
0000
,
0302
0000
0023
0000
0000
0000
0130
1000
,
0001
1000
0002
0000
0000
0000
1003
0100
,
0020
0000
0000
0000
0031
1000
0010
0100
,
0002
0003
2002
0000
0000
3003
2200
3300
,
2002
3003
0202
0303
0022
0033
0220
0330
,
2200
3300
2002
3003
0000
0000
2020
3030
,
0220
0330
0202
0303
0220
0330
2020
3030
,
2000
3200
0000
0320
0000
0000
0000
0000
,
0000
0032
0000
0000
,
0000
0000
0000
0000
,
0000
0000
0000
0000
,
0000
0000
0000
0000
,
0000
0000
0000
0000
,
0000
0000
0000
0000
,
0000
0000
0000
0000
,
0000
0000
0000
0000
,
0000
0000
0000
0000
,
0000
0000
0000
0000
,
0000
0000
0000
0000
,
0000
0000
0000
0000
,
0000
0000
0000
0000
,
0000
0000
0000
0000
,
0000
0000
0000
1003
0100
0010
0001
1000
0010
0100
0001
0010
,
0001
1000
0100
0010
0001
1000
0010
0100
0010
1000
0100
0010
,
0001
1000
0001
0100
0010
1000
0100
1000
0010
0100
0001
0010
,
0001
1000
0100
0010
0001
1000
0010
0100
0001
0010
0001
1000
,
0100
0010
0001
1000
0010
1000
0001
0100
0010
1000
0100
1000
,
0010
0100
0001
0010
0001
1000
0100
0010
0001
1000
0010
0100
,
0001
0010
0001
1000
0100
1000
0010
0100
0001
0010
0001
1000
,
0010
0100
0001
1000
0100
1000
0010
0100
0001
0010
0001
1000
,
0100
0010
0001
1000
0100
1000
0010
0100
0001
0010
0100
1000
,
0010
0100
0001
0010
0001
1000
0100
0010
0001
1000
0010
1000
,
0001
0100
0010
1000
0100
1000
0001
0010
0100
0010
0001
1000
,
0100
0010
0001
1000
0010
1000
0001
0100
0001
1000
0100
1000
,
0010
0100
0001
0010
0100
1000
0001
0100
0001
1000
0010
0100
,
0001
0010
0100
1000
0010
0100
0010
1000
0100
0010
0001
0100
,
0001
0010
0100
0010
0001
1000
0100
0010
0001
2000
0000
0000
,
3020
0000
0000
0000
0000
0000
0230
0000
0000
0000
0000
0000
0000
0000
0300
0000
0000
0000
0110
0000
0000
0101
0000
0000
,
0011
0110
2200
0000
3300
0000
2002
0000
,
3003
2020
3030
2200
,
3300
0220
0330
0022
,
0033
0000
0202
0303
0220
0330
2020
3030
,
0000
2200
3300
0220
,
0330
0022
0033
0202
,
0303
0000
2002
0000
3003
0000
2200
3300
,
0220
0330
0022
0033
0000
0000
2020
0000
,
3030
0220
0330
0202
,
0303
0022
0033
0220
,
0330
2200
3300
2002
,
3003
0000
2020
3030
0202
0303
2020
3030
,
0000
2200
3300
0220
,
0330
0022
0033
2002
,
3003
1001
1100
0000
,
0110
0011
0011
1010
,
1010
0000
0000
0100
0001
0010
0100
1000
0001
0100
0001
1000
,
0100
0010
0001
1000
0010
1000
0001
0010
0001
1000
0100
0010
,
0001
1000
0100
1000
0010
0100
0001
0010
0100
1000
0010
0100
,
0010
1000
0100
0010
0001
1000
0010
0100
0001
0010
0001
1000
,
0100
0000
0010
0000
0001
0000
2000
0000
0000
3002
0000
0000
0203
0000
0000
0320
0000
0000
2030
0000
0000
3000
0000
0000
,
0001
0001
1000
0000
0220
0330
0202
0303
,
0022
0033
0100
1000
0001
1000
0200
0000
,
0320
0032
2003
3020
,
0030
0000
0100
0001
0100
0001
0200
0000
,
0310
1000
0200
0300
0220
0330
0022
0033
,
0202
0303
0100
0010
1000
0010
1000
0000
,
0100
0000
0010
0001
1000
0001
0020
0000
,
0000
0000
0130
1000
0001
0100
0020
0000
,
1030
0100
0010
0001
1000
0001
0100
0000
,
0010
0000
1000
0100
0010
0001
2000
0000
,
3001
0000
0202
0303
0220
0330
2020
3030
,
0000
0000
0001
1000
0100
0010
0002
0000
,
1003
0100
2000
0000
3002
0000
0203
0000
,
0320
0000
1030
0100
0010
0001
1000
0000
,
1001
0000
0001
0100
0010
1000
0002
0000
,
0000
0000
0203
0000
,
0000
0000
0000
0000
,
0000
0000
0000
0000
,
0000
0000
0000
0000
,
0000
0000
0000
0000
,
0000
0000
0000
0000
,
0000
0000
0000
0000
,
0000
0000
0000
0000
,
0000
0000
0000
0000
,
0000
0000
0000
0000
,
0000
0000
0000
0000
,
0000
0000
0000
0000
,
0000
0000
0000
0000
,
0000
0000
0000
0000
,
0000
0000
0000
0000
0000
0000
0310
1000
0100
1000
0010
0100
,
0001
0010
0001
1000
0100
0010
0001
1000
0010
0100
0001
0010
,
0001
1000
0100
1000
0001
0100
0010
1000
0001
0100
0010
1000
,
0100
1000
0010
0100
0001
0010
0001
1000
0100
1000
0010
0100
,
0001
0010
0100
1000
0001
1000
0010
0100
0010
1000
0100
1000
,
0010
0100
0001
0010
0001
1000
0100
0010
0001
1000
0010
0100
,
0001
0010
0001
1000
0100
0010
0001
1000
0010
0100
0001
1000
,
0001
0100
0010
1000
0100
1000
0010
0100
0001
0010
0100
1000
,
0001
0100
0010
1000
0100
0010
0001
1000
0100
1000
0010
0100
,
0001
0010
0100
1000
0001
0100
0010
1000
0100
1000
0010
0100
,
0001
0010
0001
1000
0100
0010
0001
1000
0010
0100
0001
0010
,
0001
1000
0100
0010
0001
1000
0001
0010
0100
1000
0001
0100
,
0001
1000
0100
0010
0001
1000
0010
0100
0010
1000
0100
0010
,
0001
1000
0010
0100
0001
0010
0001
1000
0100
0010
0001
1000
,
0010
0100
0001
0010
0100
1000
0001
0100
0010
1000
0100
1000
,
0010
0100
0001
0010
0100
1000
0001
0100
0010
1000
0100
1000
,
0010
0100
0001
0010
0100
1000
0001
1000
0010
0100
0001
1000
,
0100
1000
0010
0100
0001
0010
0001
1000
0100
0010
0001
1000
,
0010
0100
0001
0010
0001
1000
0100
0010
0100
1000
0010
0100
,
0001
0010
0001
1000
0100
0010
0001
1000
0100
1000
0010
0100
,
0001
0010
0100
1000
0001
0100
0010
1000
0100
1000
0010
0100
,
0001
0010
0100
1000
0001
0100
0001
1000
0100
0010
0001
1000
,
0010
0100
0001
0010
0001
1000
0100
0010
0001
1000
0010
0100
,
0001
0010
0001
1000
0100
0010
0001
1000
0010
0100
0001
1000
,
0002
0000
0000
0000
,
0000
0000
0000
0000
,
0000
0000
0000
0000
,
MMM3
0000
0000
0000
;

//---------------dance-single - ----------------
#NOTES:
     dance-single:
     :
     Challenge:
     18:
     1.000,1.000,0.337,0.768,1.000,1836.000,54.000,123.000,3.000,0.000:

0000
0000
0000
0000
,
1000
0001
0100
0001
0020
0000
0130
1000
,
0010
0110
0101
0011
,
0100
1000
0001
1000
0002
0000
0103
0000
,
0110
1010
1200
0000
,
0310
0001
1000
0001
0100
0000
0010
1000
,
0100
0010
0001
1000
0001
0100
0001
0010
,
0100
1000
0001
0100
0001
1000
0100
0010
,
0001
1000
0001
0010
0001
1000
0100
0010
,
0001
1000
0100
1000
0010
0100
0001
0010
0001
1000
0100
0010
,
0001
1000
0100
1000
0001
0100
0001
1000
0010
0100
0001
0010
,
0001
1000
0100
0010
0100
1000
0010
0100
0001
0010
0001
1000
,
0001
0100
0010
1000
0100
0010
0001
1000
0010
0100
0001
0010
,
0100
1000
0001
0100
0010
1000
0100
1000
0010
0100
0001
0010
,
0100
1000
0001
0100
0010
1000
0100
1000
0001
0100
0010
1000
,
0001
0100
0001
0010
0001
1000
0100
0010
0001
1000
0010
0100
,
0001
0010
0001
1000
0100
1000
0010
0100
0001
1000
0001
0010
,
0100
1000
0001
0100
0001
1000
0100
1000
0010
0100
0001
0010
,
0100
1000
0001
0100
0010
1000
0100
1000
0010
0100
0001
0010
,
0001
1000
0100
0010
0001
1000
0010
1000
0001
0010
0001
1000
,
0100
0010
0001
1000
0010
0100
0010
1000
0100
1000
0001
0100
,
0010
1000
0100
1000
0001
0010
0001
1000
0100
0010
0001
1000
,
0010
0100
0001
0010
0001
1000
0100
0010
0100
1000
0010
0100
,
0001
1000
0001
0010
0001
1000
0100
0010
0100
1000
0010
0100
,
0001
0010
0001
1000
0100
0010
0100
1000
0010
0100
0001
1000
,
0001
0010
0001
1000
0100
0010
0001
1000
0010
0100
0010
1000
,
0001
0010
0100
0010
0001
1000
0100
1000
0001
0100
0010
1000
,
0100
1000
0001
0010
0100
0010
0001
1000
0010
1000
0001
0010
,
0001
1000
0010
0100
0001
1000
0100
1000
0010
0100
0001
0010
,
0100
0010
0001
1000
0100
0010
0001
1000
0001
0010
0001
1000
,
0010
0100
0001
1000
0100
1000
0001
0100
0001
0010
0100
1000
,
0001
0100
0001
0010
0100
1000
0010
0100
0001
1000
0100
0010
,
0001
1000
0010
0100
0001
0010
0100
1000
0010
0100
0001
1000
,
0020
0000
2030
3000
2000
0000
3010
0100
,
0002
0000
0023
0000
0230
0000
1300
0010
,
0200
0000
0310
0000
2020
3030
1000
0000
,
0100
0000
0010
0000
0001
0000
2000
0000
0000
0000
0000
0000
0000
0000
0000
3000
0000
0000
1001
0000
0000
0000
0000
0000
,
0101
0110
1010
1100
,
0100
0010
0001
0000
0000
0000
1000
0100
,
0110
0011
0101
0110
,
0010
1000
0200
0000
0000
0000
0000
0000
,
0320
0000
0000
0000
,
0000
0000
0000
0000
,
0000
0000
0000
0000
,
0000
0000
0000
0000
,
0000
0000
0000
0000
,
0000
0000
0000
0000
,
0000
0000
0000
0000
,
0000
0000
0000
0000
,
0000
0000
0000
0000
,
0000
0000
0000
0000
,
0000
0000
0000
0000
,
0000
0000
0000
0000
,
0000
0000
0000
0000
,
0000
0000
0000
0000
,
0000
0000
0000
0000
,
0000
0000
0000
0000
,
0031
1000
0100
1000
0010
0100
0001
0010
0001
1000
0001
0100
,
0010
1000
0100
1000
0010
1000
0001
0100
0001
0010
0100
0010
,
0001
1000
0010
0100
0010
1000
0100
1000
0001
0100
0010
1000
,
0100
1000
0001
0100
0010
1000
0100
1000
0010
0100
0001
0010
,
0001
1000
0001
0100
0010
1000
0100
1000
0010
0100
0001
0010
,
0001
1000
0100
0010
0001
1000
0010
0100
0001
0010
0001
1000
,
0100
1000
0010
0100
0001
0010
0100
1000
0001
0100
0001
1000
,
0100
0010
0001
1000
0010
1000
0001
0010
0001
1000
0100
0010
,
0001
0100
0010
1000
0100
1000
0010
0100
0001
0010
0001
1000
,
0100
0010
0001
1000
0010
0100
0001
0010
0001
1000
0100
1000
,
0001
0100
0010
1000
0100
1000
0010
0100
0001
0010
0001
1000
,
0100
0010
0001
1000
0010
0100
0001
0010
0001
1000
0100
1000
,
0010
0100
0001
0010
0100
0010
0001
1000
0100
0010
0100
1000
,
0010
0100
0001
1000
0100
0010
0001
1000
0100
1000
0010
0100
,
0001
0000
0000
0000
2200
3300
0220
0330
,
0022
0033
0000
0000
0000
0000
0000
0000
,
1000
0010
0100
0001
1000
0100
1000
0010
0100
0001
0010
0100
,
1000
0001
0100
0010
1000
0100
1000
0010
0100
0001
0010
0001
,
1000
0100
0010
0001
1000
0010
0100
0001
0010
0001
1000
0100
,
0010
0001
1000
0010
0100
0010
1000
0100
1000
0001
0100
0010
,
1000
0100
0010
0001
1000
0001
0010
0001
1000
0100
0010
0001
,
1000
0010
0100
0001
0010
0001
1000
0010
0100
0001
1000
0100
,
1000
0010
0100
0001
1000
0010
1000
0100
0010
0001
1000
0010
,
0100
0001
0010
0001
1000
0100
0010
0001
1000
0010
0100
0001
,
0010
0001
1000
0100
1000
0010
0100
0001
1000
0010
1000
0001
,
0010
0001
1000
0100
0010
0001
1000
0010
0100
0001
0010
0001
,
1000
0100
0010
0001
1000
0001
0100
0010
1000
0100
1000
0010
,
0100
0001
0010
0001
1000
0100
0010
0001
1000
0010
0100
0010
,
1000
0100
1000
0001
0100
0010
1000
0100
0010
0100
1000
0010
,
0100
0001
0010
0001
1000
0100
0010
0001
1000
0010
0100
0001
,
1000
0100
1000
0010
0100
0001
0010
0100
1000
0001
0100
0001
,
1000
0100
0010
0001
1000
0010
0100
0001
0010
0100
1000
0001
,
1000
0100
1000
0010
0100
0001
0010
0100
1000
0001
0100
0001
,
1000
0100
0010
0001
1000
0010
0100
0001
0010
0001
1000
0100
,
0010
0001
1000
0010
0100
0001
0010
0001
1000
0100
0010
0001
,
1000
0010
0100
0010
1000
0100
0010
0001
1000
0001
0100
0001
,
1000
1000
0100
0010
0002
0000
1003
0100
,
2000
3000
0202
0303
0220
0330
2020
3030
,
0100
0010
0001
1000
0200
0300
0220
0330
,
0022
0033
0202
0303
2002
3003
0000
0000
,
1000
0100
0010
0001
2000
0000
3001
0100
,
0202
0303
0220
0330
2020
3030
2200
3300
,
0100
0010
0001
1000
0010
0100
0001
0010
,
0001
1000
0100
1000
0010
1000
0010
0100
,
0001
1000
0100
1000
0010
0100
0001
0010
0100
1000
0001
0100
,
0001
1000
0010
0100
0001
1000
0100
1000
0010
0100
0001
0010
,
0100
1000
0001
0100
0010
1000
0100
1000
0010
0100
0001
0010
,
0001
1000
0100
0010
0001
1000
0010
0100
0001
0010
0001
1000
,
0100
0010
0001
1000
0010
0100
0001
0010
0001
1000
0100
1000
,
0010
0100
0001
1000
0010
0100
0001
1000
0100
1000
0010
0100
,
0001
0010
0001
1000
0100
0010
0001
1000
0001
0100
0010
1000
,
0100
1000
0010
0100
0001
0010
0100
1000
0001
0100
0001
1000
,
0100
0010
0001
1000
0010
1000
0001
0010
0001
1000
0100
0010
,
0001
1000
0010
0100
0001
0010
0001
1000
0100
1000
0010
0100
,
0001
1000
0010
1000
0001
0100
0010
1000
0100
1000
0001
0100
,
0001
0010
0100
1000
0010
0100
0010
1000
0100
0010
0001
1000
,
0001
0010
0001
1000
0100
0010
0001
1000
0010
0100
0001
1000
,
0100
1000
0010
0100
0001
0010
0001
1000
0100
0010
0001
1000
,
0004
4003
3040
0000
,
0430
0000
0000
0000
,
0302
0000
0023
0000
0000
0000
0130
1000
,
0001
1000
0002
0000
0000
0000
1003
0100
,
0020
0000
0000
0000
0031
1000
0010
0100
,
0002
0003
2002
0000
0000
3003
2200
3300
,
2002
3003
0202
0303
0022
0033
0220
0330
,
2200
3300
2002
3003
0000
0000
2020
3030
,
0220
0330
0202
0303
0220
0330
2020
3030
,
2000
3200
0000
0320
0000
0000
0000
0000
,
0000
0032
0000
0000
,
0000
0000
0000
0000
,
0000
0000
0000
0000
,
0000
0000
0000
0000
,
0000
0000
0000
0000
,
0000
0000
0000
0000
,
0000
0000
0000
0000
,
0000
0000
0000
0000
,
0000
0000
0000
0000
,
0000
0000
0000
0000
,
0000
0000
0000
0000
,
0000
0000
0000
0000
,
0000
0000
0000
0000
,
0000
0000
0000
0000
,
0000
0000
0000
1003
0100
0010
0001
1000
0010
0100
0001
0010
,
0001
1000
0100
0010
0001
1000
0010
0100
0010
1000
0100
0010
,
0001
1000
0001
0100
0010
1000
0100
1000
0010
0100
0001
0010
,
0001
1000
0100
0010
0001
1000
0010
0100
0001
0010
0001
1000
,
0100
0010
0001
1000
0010
1000
0001
0100
0010
1000
0100
1000
,
0010
0100
0001
0010
0001
1000
0100
0010
0001
1000
0010
0100
,
0001
0010
0001
1000
0100
1000
0010
0100
0001
0010
0001
1000
,
0010
0100
0001
1000
0100
1000
0010
0100
0001
0010
0001
1000
,
0100
0010
0001
1000
0100
1000
0010
0100
0001
0010
0100
1000
,
0010
0100
0001
0010
0001
1000
0100
0010
0001
1000
0010
1000
,
0001
0100
0010
1000
0100
1000
0001
0010
0100
0010
0001
1000
,
0100
0010
0001
1000
0010
1000
0001
0100
0001
1000
0100
1000
,
0010
0100
0001
0010
0100
1000
0001
0100
0001
1000
0010
0100
,
0001
0010
0100
1000
0010
0100
0010
1000
0100
0010
0001
0100
,
0001
0010
0100
0010
0001
1000
0100
0010
0001
1000
0010
0100
,
0010
1000
0100
0010
0001
1000
0010
0100
0001
0010
0100
1000
,
0001
0100
0001
1000
0100
0010
0001
1000
0010
0100
0001
0010
,
0001
1000
0100
0010
0001
1000
0010
0100
0010
1000
0100
1000
,
0001
0100
0010
1000
0100
0010
0001
1000
0010
1000
0001
0010
,
0001
1000
0100
0010
0001
1000
0010
0100
0001
0010
0001
1000
,
0100
0010
0001
1000
0010
0100
0010
1000
0100
1000
0001
0100
,
0010
1000
0100
0010
0001
1000
0001
0010
0100
1000
0001
0100
,
0001
1000
0100
0010
0001
1000
0010
1000
0001
0010
0001
1000
,
0100
0010
0001
1000
0010
0100
0001
0010
0001
1000
0100
0010
,
0001
1000
0010
0100
0010
1000
0100
1000
0001
0100
0010
1000
,
0100
0010
0001
1000
0010
1000
0001
0010
0001
1000
0100
0010
,
0001
1000
0010
0100
0001
0010
0001
1000
0100
0010
0001
1000
,
0010
0100
0010
1000
0100
1000
0001
0100
0010
1000
0100
0010
,
0001
1000
0010
1000
0001
0010
0001
1000
0100
0010
0001
1000
,
0010
0100
0001
0010
0001
1000
0100
0010
0001
1000
0010
1000
,
0001
0010
0100
1000
0001
0100
0001
1000
0100
0010
0001
1000
,
0010
0100
0010
1000
0100
0010
0001
1000
0001
0010
0001
1000
,
0100
0010
0001
1000
0001
0010
0100
1000
0001
0100
0001
1000
,
0100
0010
0001
1000
0010
1000
0001
0010
0001
1000
0100
0010
,
0001
1000
0100
1000
0010
0100
0001
0010
0100
1000
0010
0100
,
0010
1000
0100
0010
0001
1000
0010
0100
0001
0010
0001
1000
,
0100
0000
0010
0000
0001
0000
2000
0000
0000
3002
0000
0000
0203
0000
0000
0320
0000
0000
2030
0000
0000
3000
0000
0000
,
0001
0001
1000
0000
0220
0330
0202
0303
,
0022
0033
0100
1000
0001
1000
0200
0000
,
0320
0032
2003
3020
,
0030
0000
0100
0001
0100
0001
0200
0000
,
0310
1000
0200
0300
0220
0330
0022
0033
,
0202
0303
0100
0010
1000
0010
1000
0000
,
0100
0000
0010
0001
1000
0001
0020
0000
,
0000
0000
0130
1000
0001
0100
0020
0000
,
1030
0100
0010
0001
1000
0001
0100
0000
,
0010
0000
1000
0100
0010
0001
2000
0000
,
3001
0000
0202
0303
0220
0330
2020
3030
,
0000
0000
0001
1000
0100
0010
0002
0000
,
1003
0100
2000
0000
3002
0000
0203
0000
,
0320
0000
1030
0100
0010
0001
1000
0000
,
1001
0000
0001
0100
0010
1000
0002
0000
,
0000
0000
0203
0000
,
0000
0000
0000
0000
,
0000
0000
0000
0000
,
0000
0000
0000
0000
,
0000
0000
0000
0000
,
0000
0000
0000
0000
,
0000
0000
0000
0000
,
0000
0000
0000
0000
,
0000
0000
0000
0000
,
0000
0000
0000
0000
,
0000
0000
0000
0000
,
0000
0000
0000
0000
,
0000
0000
0000
0000
,
0000
0000
0000
0000
,
0000
0000
0000
0000
0000
0000
0310
1000
0100
1000
0010
0100
,
0001
0010
0001
1000
0100
0010
0001
1000
0010
0100
0001
0010
,
0001
1000
0100
1000
0001
0100
0010
1000
0001
0100
0010
1000
,
0100
1000
0010
0100
0001
0010
0001
1000
0100
1000
0010
0100
,
0001
0010
0100
1000
0001
1000
0010
0100
0010
1000
0100
1000
,
0010
0100
0001
0010
0001
1000
0100
0010
0001
1000
0010
0100
,
0001
0010
0001
1000
0100
0010
0001
1000
0010
0100
0001
1000
,
0001
0100
0010
1000
0100
1000
0010
0100
0001
0010
0100
1000
,
0001
0100
0010
1000
0100
0010
0001
1000
0100
1000
0010
0100
,
0001
0010
0100
1000
0001
0100
0010
1000
0100
1000
0010
0100
,
0001
0010
0001
1000
0100
0010
0001
1000
0010
0100
0001
0010
,
0001
1000
0100
0010
0001
1000
0001
0010
0100
1000
0001
0100
,
0001
1000
0100
0010
0001
1000
0010
0100
0010
1000
0100
0010
,
0001
1000
0010
0100
0001
0010
0001
1000
0100
0010
0001
1000
,
0010
0100
0001
0010
0100
1000
0001
0100
0010
1000
0100
1000
,
0010
0100
0001
0010
0100
1000
0001
0100
0010
1000
0100
1000
,
0010
0100
0001
0010
0100
1000
0001
1000
0010
0100
0001
1000
,
0100
1000
0010
0100
0001
0010
0001
1000
0100
0010
0001
1000
,
0010
0100
0001
0010
0001
1000
0100
0010
0100
1000
0010
0100
,
0001
0010
0001
1000
0100
0010
0001
1000
0100
1000
0010
0100
,
0001
0010
0100
1000
0001
0100
0010
1000
0100
1000
0010
0100
,
0001
0010
0100
1000
0001
0100
0001
1000
0100
0010
0001
1000
,
0010
0100
0001
0010
0001
1000
0100
0010
0001
1000
0010
0100
,
0001
0010
0001
1000
0100
0010
0001
1000
0010
0100
0001
1000
,
0002
0000
0000
0000
,
0000
0000
0000
0000
,
0000
0000
0000
0000
,
MMM3
0000
0000
0000
;
