#TITLE:Final Fantasy IX;
#SUBTITLE:- You're Not Alone!;
#ARTIST:植松伸夫;
#TITLETRANSLIT:;
#SUBTITLETRANSLIT:;
#ARTISTTRANSLIT:Nobuo Uematsu;
#CREDIT:;
#BANNER:You're Not Alone-banner.png;
#BACKGROUND:You're Not Alone-bg.png;
#LYRICSPATH:;
#CDTITLE:You're Not Alone-cdtitle.PNG;
#MUSIC:93 - You're Not Alone!.mp3;
#OFFSET:-0.366;
#SAMPLESTART:41.000;
#SAMPLELENGTH:26.000;
#SELECTABLE:YES;
#BPMS:0.000=70.000;
#STOPS:;
#BGCHANGES:;
// cache tags:
#FIRSTBEAT:4.000;
#LASTBEAT:175.750;
#SONGFILENAME:Songs/toune 2/You're Not Alone/You're Not Alone.sm;
#HASMUSIC:1;
#HASBANNER:1;
#MUSICLENGTH:156.243;
// end cache tags

//---------------dance-single - ----------------
#NOTES:
     dance-single:
     :
     Easy:
     3:
     0.214,0.224,0.179,0.218,0.013,172.000,28.000,34.000,0.000,0.000:  // measure 1
0000
0000
0000
0000
,  // measure 2
2000
3000
0002
0003
,  // measure 3
2000
0000
0100
3100
,  // measure 4
0002
0003
0202
0303
,  // measure 5
0010
1001
0100
1001
,  // measure 6
0001
0000
0000
0000
1000
1000
1000
0000
0100
0000
0000
0000
1001
0000
0000
0000
,  // measure 7
0001
0001
0001
0100
0100
0000
0100
0000
,  // measure 8
1010
0101
0100
1001
,  // measure 9
0010
1001
0100
1001
,  // measure 10
1000
0000
0000
0000
0001
0001
0001
0000
0100
0000
0000
0000
1001
0000
0000
0000
,  // measure 11
1000
1000
1000
0100
0100
0000
0100
0000
,  // measure 12
0011
1100
0100
1001
,  // measure 13
0100
1001
0010
1001
,  // measure 14
1000
0000
0000
0000
0001
0001
0001
0000
0010
0000
0000
0000
1001
0000
0000
0000
,  // measure 15
1000
1000
1000
0010
0010
0000
0010
0000
,  // measure 16
0101
1010
0010
1001
,  // measure 17
0100
1001
0010
1001
,  // measure 18
0001
0000
0000
0000
1000
1000
1000
0000
0010
0000
0000
0000
1001
0000
0000
0000
,  // measure 19
0001
0001
0001
0010
0010
0000
0010
0000
,  // measure 20
1100
0000
0011
0000
0010
0000
0100
0100
,  // measure 21
2000
0000
3200
0000
0302
0003
1000
0100
,  // measure 22
0002
0003
0001
0001
0010
0100
1000
0000
,  // measure 23
1000
0100
0100
0010
,  // measure 24
2002
0000
0000
3003
,  // measure 25
0100
0100
0100
0100
0100
0000
1000
0100
,  // measure 26
0100
0100
0001
1100
,  // measure 27
0002
0000
2003
0000
,  // measure 28
3020
0000
0230
0300
,  // measure 29
2000
0000
3020
0000
0032
0003
1000
0010
,  // measure 30
2000
3000
1000
1000
0100
0010
0001
0000
,  // measure 31
0001
0010
0010
0100
,  // measure 32
2002
0000
0000
3003
,  // measure 33
0010
0010
0010
0010
0010
0000
0001
0010
,  // measure 34
0010
0010
1000
0011
,  // measure 35
2000
0000
3002
0000
,  // measure 36
0203
0000
0000
0300
,  // measure 37
2000
0000
3002
0000
,  // measure 38
2003
0000
3002
0000
,  // measure 39
2003
0000
3002
0000
,  // measure 40
2003
0000
3002
0000
,  // measure 41
1003
0100
0001
0100
,  // measure 42
1000
0100
0001
0100
,  // measure 43
1000
0100
0001
0100
,  // measure 44
0100
0100
0200
0300
;

//---------------dance-single - ----------------
#NOTES:
     dance-single:
     :
     Medium:
     7:
     0.311,0.392,0.128,0.294,0.198,274.000,20.000,46.000,0.000,0.000:  // measure 1
0000
0000
0000
0000
,  // measure 2
2200
0000
0000
0300
0002
0000
0000
3000
,  // measure 3
0020
0000
0000
0030
2000
0000
0000
0003
,  // measure 4
0200
0000
0000
0300
0002
0000
3003
0000
,  // measure 5
0010
0000
1000
0000
0010
0100
1001
0000
,  // measure 6
0010
0000
0000
0000
0001
0001
0001
0000
0010
0000
0100
0000
1001
0000
0000
0000
,  // measure 7
0100
0100
0100
0001
0001
0000
0001
1000
,  // measure 8
0100
0000
1000
0000
1000
1000
1000
0000
0001
0000
0000
0000
0110
0000
0000
0000
,  // measure 9
0100
0000
1000
0000
0100
0010
1001
0000
,  // measure 10
1000
0000
0000
0000
0100
0100
0100
0000
0010
0000
0001
0000
1001
0000
0000
0000
,  // measure 11
0010
0010
0010
0001
0001
0000
0001
1000
,  // measure 12
0010
0000
1000
0000
1000
1000
1000
0000
0100
0000
0000
0000
1001
0000
0000
0000
,  // measure 13
0100
0000
0001
0000
0100
0010
1001
0000
,  // measure 14
0100
0000
0000
0000
1000
1000
1000
0000
0100
0000
0010
0000
1001
0000
0000
0000
,  // measure 15
0010
0010
0010
1000
1000
0000
1000
0001
,  // measure 16
0010
0000
0001
0000
0001
0001
0001
0000
1000
0000
0000
0000
0110
0000
0000
0000
,  // measure 17
0010
0000
0001
0000
0010
0100
1001
0000
,  // measure 18
0001
0000
0000
0000
0010
0010
0010
0000
0100
0000
1000
0000
1001
0000
0000
0000
,  // measure 19
0100
0100
0100
1000
1000
0000
1000
0001
,  // measure 20
0100
0000
0001
0000
0001
0001
0001
0000
0010
0000
0000
0000
0010
0000
0000
0000
,  // measure 21
1000
0000
0000
0100
0000
0000
0100
0000
0000
0000
0000
0000
0000
0000
1000
0000
1000
0000
0000
0100
0000
0000
0100
0000
0000
0000
0000
0000
0000
0000
0000
0000
,  // measure 22
0001
0000
0000
0010
0000
0000
0010
0000
0000
0000
0000
0000
0000
0000
0001
0000
0001
0000
0000
0010
0000
0000
0010
0000
0000
0000
0000
0000
0000
0000
0000
0000
,  // measure 23
0010
0000
0000
0100
0000
0000
0100
0000
0000
0000
0000
0000
0000
0000
1000
0000
1000
0000
0000
0100
0000
0000
0100
0000
0000
0000
0000
0000
0000
0000
0000
0000
,  // measure 24
0100
0000
0000
0010
0000
0000
0010
0000
0000
0000
0000
0000
0000
0000
0001
0000
0001
0000
0000
0010
0000
0000
0010
0000
0000
0000
0000
0000
0000
0000
0000
0000
,  // measure 25
0001
0000
0000
1000
0000
0000
0100
0000
0000
0000
0000
0000
0000
0000
0001
0000
0001
0000
0000
0100
0000
0000
1000
0000
0000
0000
0000
0000
0000
0000
0000
0000
,  // measure 26
1000
0000
0000
0001
0000
0000
0010
0000
0000
0000
0000
0000
0000
0000
1000
0000
1000
0000
0000
0010
0000
0000
0001
0000
0000
0000
0000
0000
0000
0000
0000
0000
,  // measure 27
0010
0000
0000
1000
0000
0000
0100
0000
0000
0000
0000
0000
0000
0000
0010
0000
0010
0000
0000
0001
0000
0000
0100
0000
0000
0000
0000
0000
0000
0000
0000
0000
,  // measure 28
0010
0000
0010
0000
0010
0000
1000
0100
,  // measure 29
2002
0003
0200
0300
0002
3003
0010
0010
,  // measure 30
2002
0000
3000
0000
2000
3000
0200
0300
2000
3000
0020
0030
2000
0000
3003
0000
,  // measure 31
0220
0000
0030
0000
0002
0003
0320
0030
2002
0000
3003
0000
0220
0000
0330
0000
,  // measure 32
2002
0000
0000
3003
,  // measure 33
0020
0030
2000
3000
0200
0300
0002
0003
0200
0300
0000
0000
0100
0000
0100
0000
,  // measure 34
2002
0000
0003
0000
0020
0030
0200
0300
0020
0030
0200
0300
0002
0000
3003
0000
,  // measure 35
0202
0000
0000
0000
0300
0000
1000
1000
2000
0000
3000
0000
0200
0000
0300
0000
,  // measure 36
2000
0000
0000
3003
,  // measure 37
1000
1000
1000
0000
1000
1000
1000
0000
1000
1000
1000
0000
1000
1000
1000
0000
,  // measure 38
0001
0001
0001
0000
0001
0001
0001
0000
0001
0001
0001
0000
0001
0001
0001
0000
,  // measure 39
0010
0010
0010
0000
0010
0010
0010
0000
0010
0010
0010
0000
0010
0010
0010
0000
,  // measure 40
0100
0100
0100
0000
0100
0100
0100
0000
0100
0100
0100
0000
0100
0100
0100
0000
,  // measure 41
1000
0000
1000
0000
0010
0010
0010
0000
,  // measure 42
0001
0000
0001
0000
0001
0001
0001
0000
0100
0000
0100
0000
0100
0000
0000
0000
,  // measure 43
1000
1000
1000
0001
0001
0000
0001
0100
,  // measure 44
0001
0000
0100
0000
0100
0100
0100
0000
0020
0000
0000
0000
0030
0000
0000
0000
;

//---------------dance-single - ----------------
#NOTES:
     dance-single:
     :
     Hard:
     10:
     0.615,0.700,0.800,1.000,0.371,390.000,125.000,158.000,0.000,0.000:  // measure 1
0000
0000
0000
0000
,  // measure 2
2100
0100
0100
0000
0010
0010
3010
0000
0102
0100
0100
0000
0010
0010
0010
0000
,  // measure 3
0010
0010
0010
0000
1000
1000
1003
0000
2100
0100
0100
0000
0001
0001
0001
0000
,  // measure 4
0100
0100
0100
0000
0100
0100
3100
0000
2002
0000
0000
0000
3003
0000
0000
0000
,  // measure 5
1100
0000
0101
0000
0011
1100
2002
3003
,  // measure 6
0110
0000
0110
0000
0001
0100
1000
0000
0011
0000
1100
0000
2002
0000
3003
0000
,  // measure 7
1010
0101
0011
1100
2002
3003
0110
1001
,  // measure 8
1100
0000
0011
0000
0100
0010
0110
0000
0220
0000
0330
0000
1001
0000
0000
0000
,  // measure 9
1010
0000
0011
0000
0101
1010
2002
3003
,  // measure 10
0110
0000
0110
0000
0001
0010
1000
0000
0101
0000
1010
0000
2002
0000
3003
0000
,  // measure 11
1100
0011
1010
0101
2002
3003
0110
1001
,  // measure 12
1010
0000
0101
0000
0010
0001
0100
0000
2020
0000
3030
0000
1001
0000
0000
0000
,  // measure 13
0022
0000
0033
0000
2020
0000
3030
0000
2200
3300
0022
0033
1001
0000
1000
0000
,  // measure 14
0220
0330
0220
0330
1000
0010
0001
0000
2200
3300
0022
0033
2002
0000
3003
0000
,  // measure 15
0202
0303
2020
3030
2200
3300
0022
0033
2002
0000
3003
0000
0110
0000
1001
0000
,  // measure 16
0022
0033
2200
3300
0010
0100
0110
0000
0220
0000
0330
0000
1001
0000
0000
0000
,  // measure 17
0202
0000
0303
0000
2200
0000
3300
0000
2020
3030
0202
0303
1001
0000
1000
0000
,  // measure 18
0220
0330
0220
0330
1000
0100
0001
0000
2020
3030
0202
0303
2002
0000
3003
0000
,  // measure 19
0022
0033
2200
3300
0202
0303
2020
3030
2002
0000
3003
0000
0110
0000
1001
0000
,  // measure 20
0202
0303
2020
3030
0100
1000
0010
0000
0202
0000
0303
0000
0010
0000
0010
0000
,  // measure 21
1000
0100
0000
1000
0100
0000
1000
0100
0000
1000
0100
0000
1000
0000
1000
0100
1000
0001
0000
1000
0001
0000
1000
0001
0000
1000
0001
0000
1000
0000
1000
0001
,  // measure 22
0010
0001
0000
0010
0001
0000
0010
0001
0000
0010
0001
0000
0010
0000
0010
0001
0010
0100
0000
0010
0100
0000
0010
0100
0000
0010
0100
0000
0010
0000
0010
0100
,  // measure 23
0010
1000
0000
0010
1000
0000
0010
1000
0000
0010
1000
0000
0010
0000
0010
1000
0001
1000
0000
0001
1000
0000
0001
1000
0000
0001
1000
0000
0001
0000
0001
1000
,  // measure 24
0010
1000
0000
0010
1000
0000
0010
1000
0000
0010
1000
0000
0010
0000
0010
1000
0001
0100
0000
0001
0100
0000
0001
0100
0000
0001
0100
0000
0001
0000
0001
0100
,  // measure 25
0202
0303
2200
3300
2020
3030
0022
0033
2002
0000
0003
0000
0200
0300
3200
0300
,  // measure 26
2002
0000
3003
0000
2020
3030
0202
0303
0022
0033
2200
3300
0220
0000
0330
0000
,  // measure 27
0022
0000
0000
0000
0030
0000
1000
1000
0200
0000
0300
0000
0020
0000
0033
0000
,  // measure 28
2002
0000
0000
0000
0000
3003
0011
1100
,  // measure 29
0010
0000
0001
0100
0010
0000
0001
0010
0010
0000
0001
1000
0010
0000
1000
0010
,  // measure 30
0100
0000
1000
0010
0100
0000
1000
0100
0100
0000
1000
0001
0100
0000
1001
0000
,  // measure 31
0100
0000
0010
0001
0100
0000
0010
0100
0100
0000
0010
0010
1000
0000
0010
1000
,  // measure 32
0100
0000
0010
1000
0100
0000
0010
0100
0100
0000
0010
0010
0001
0000
0110
0000
,  // measure 33
2020
3030
0022
0033
0202
0303
2200
3300
2002
0000
3000
0000
0020
0030
0023
0030
,  // measure 34
2002
0000
3003
0000
0202
0303
2020
3030
2200
3300
0022
0033
0220
0000
0330
0000
,  // measure 35
2200
0000
0000
0000
0300
0000
0001
0001
0020
0000
0030
0000
0200
0000
3300
0000
,  // measure 36
2002
0000
0000
3003
,  // measure 37
1000
0100
1000
0000
0001
0100
0001
0000
1000
0010
1000
0000
0001
0010
0001
0000
,  // measure 38
0010
1000
0100
0000
0010
1000
0100
0000
0010
0001
0100
0000
0010
0001
0100
0000
,  // measure 39
0100
0001
0010
0000
0100
0001
0010
0000
0100
1000
0010
0000
0100
1000
0010
0000
,  // measure 40
0001
0010
0100
0000
1000
0010
0100
0000
0001
0010
0100
0000
1000
0010
0100
0000
,  // measure 41
2000
0000
0002
0003
0100
0010
0002
3003
,  // measure 42
0002
0000
0100
0000
1000
1000
1000
0000
0010
0000
0100
0000
2000
0000
3003
0000
,  // measure 43
1010
1100
0101
0011
2002
0003
0100
3100
,  // measure 44
0001
0000
0100
0000
0001
0100
0100
0000
2002
0000
0000
0000
3003
0000
0000
0000
;

//---------------dance-single - ----------------
#NOTES:
     dance-single:
     :
     Challenge:
     12:
     0.800,0.942,1.000,0.941,0.694,523.000,179.000,147.000,0.000,53.000:  // measure 1
0000
0000
0000
0000
,  // measure 2
1000
0100
0010
0001
1000
0100
0010
0001
1000
0001
0100
0010
1000
0001
0100
0010
,  // measure 3
2001
0010
0100
0010
3002
0100
0010
0100
2003
0010
0100
0010
3002
0100
0010
0100
,  // measure 4
1020
0100
0003
0100
1000
0100
0001
0130
2002
0010
0100
0000
0010
0100
0010
3003
,  // measure 5
0021
0130
2001
3100
0101
0110
1011
0000
,  // measure 6
0101
0000
1010
0000
0101
1000
1010
0000
0101
0000
0110
0000
1011
0000
0000
0000
,  // measure 7
0111
0111
1011
1101
2001
3100
0011
1100
,  // measure 8
1010
0000
0101
0000
1010
0001
0101
0000
2002
0000
0000
0000
3013
0100
0010
0100
,  // measure 9
1020
0130
1002
0103
1100
0110
1011
0000
,  // measure 10
1100
0000
0011
0000
1100
0010
0011
0000
1100
0000
0110
0000
1011
0000
0000
0000
,  // measure 11
1110
1110
1011
1101
2001
3010
0101
1010
,  // measure 12
0110
0000
1100
0000
0010
0001
1110
0000
2002
0000
0100
0000
3103
0000
0100
0000
,  // measure 13
1200
0000
0310
0000
1002
0000
0013
0000
2020
3030
0220
0330
2200
0000
3301
0000
,  // measure 14
2020
3030
0202
0303
1010
0001
0101
0000
2020
3030
0220
0330
0202
0000
1303
0000
,  // measure 15
2200
3300
2020
3030
0202
0303
2011
3010
0202
0000
1303
0000
2200
3300
0022
0033
,  // measure 16
0202
0303
2020
3030
0101
1000
1010
0000
2002
0000
0000
0000
3103
0010
0100
0010
,  // measure 17
0201
0000
0310
0000
2001
0000
3010
0000
0022
0033
0220
0330
1101
0000
0000
0000
,  // measure 18
0022
0033
2200
3300
0011
0100
1100
0000
0022
0033
0220
0330
1101
0000
0000
0000
,  // measure 19
0220
0330
0202
0303
2002
3003
0022
0033
0022
0000
0133
0000
2020
3030
0202
0303
,  // measure 20
0220
0330
0022
0033
0100
1000
0111
0000
1011
0000
0000
0000
0220
0330
0220
0330
,  // measure 21
1000
0100
0000
0010
0001
0000
1000
0100
0000
0010
0001
0000
1000
0000
0010
0001
1000
0100
0000
0010
0001
0000
1000
0100
0000
0010
0001
0000
1000
0000
0010
0001
,  // measure 22
1000
0100
0000
0010
0001
0000
0010
0100
0000
1000
0100
0000
0001
0000
0010
0100
1000
0100
0000
0010
0001
0000
0010
0100
0000
1000
0100
0000
0001
0000
0010
0100
,  // measure 23
1000
0001
0000
0100
0010
0000
1000
0001
0000
0100
0010
0000
1000
0000
0100
0010
0001
1000
0000
0010
0100
0000
0001
1000
0000
0010
0100
0000
0001
0000
0010
0100
,  // measure 24
0110
1001
0000
0110
1001
0000
0110
1001
0000
0110
1001
0000
0110
0000
0110
1001
0110
1001
0000
0110
1001
0000
0110
1001
0000
0110
1001
0000
0110
0000
0110
1001
,  // measure 25
0001
0010
0000
0001
0010
0000
0001
0010
0000
0001
0010
0000
0001
0000
0001
0010
1000
0010
0000
1000
0010
0000
1000
0010
0000
1000
0010
0000
1000
0000
1000
0010
,  // measure 26
1000
0100
0000
1000
0100
0000
1000
0100
0000
1000
0100
0000
1000
0000
1000
0100
0001
0100
0000
0001
0100
0000
0001
0100
0000
0001
0100
0000
0001
0000
0001
0100
,  // measure 27
0010
0100
0000
0010
0100
0000
0010
0100
0000
0010
0100
0000
0010
0000
0010
0100
0001
1000
0000
0001
1000
0000
0001
1000
0000
0001
1000
0000
0001
0000
0001
1000
,  // measure 28
0100
0010
0000
0100
0010
0000
0100
0010
0000
0100
0010
0000
0100
0000
0100
0010
1000
0001
0000
1000
0001
0000
1000
0001
0000
1000
0001
0000
1000
0000
1000
0001
,  // measure 29
1020
0000
1000
1030
1002
0000
1000
1003
1200
0000
1000
1300
1002
0003
1002
1003
,  // measure 30
1002
0000
1000
1003
1020
0030
1200
1300
1020
0030
1002
1003
0200
0000
1300
0000
,  // measure 31
0021
0000
0001
0031
2001
3000
0201
0301
2001
0000
3001
0001
0201
0000
0001
0301
,  // measure 32
2001
0000
0001
0001
0001
0000
0001
0001
0001
0000
0001
0001
0000
0000
3001
0000
,  // measure 33
0022
0033
2020
3030
2200
3300
0202
0303
2020
0000
3130
0000
0202
0303
2020
3030
,  // measure 34
2002
0000
3003
0000
1102
0003
2011
3000
1102
0003
2011
3000
1102
0003
0110
0000
,  // measure 35
0220
0000
0000
0000
0300
0000
0001
0001
2200
0000
3300
0000
0230
0000
0310
0000
,  // measure 36
2002
0000
0100
0100
0100
0000
0100
0100
0100
0000
0100
0100
0000
0000
3103
0000
,  // measure 37
0010
0001
0100
0100
0010
1000
0100
0100
0010
0001
0100
0100
0010
1000
0100
0100
,  // measure 38
0001
1000
0010
0010
1000
0001
0010
0010
0001
1000
0100
0100
1000
0001
0100
0100
,  // measure 39
0010
0100
1000
1000
0100
0010
0001
0001
0010
0100
1000
1000
0100
0010
0001
0001
,  // measure 40
1001
0110
1001
1001
1001
0110
1001
1001
1001
0110
1001
1001
1001
0110
1001
1001
,  // measure 41
0020
0000
0000
0000
0200
0000
0030
0000
0002
0003
0020
0030
2300
0000
3000
0000
,  // measure 42
0220
0030
2000
3000
0010
0010
0310
0000
0002
0003
0200
0300
1011
0000
0000
0000
,  // measure 43
0110
1100
0101
0010
1011
0000
1000
0100
,  // measure 44
0110
0000
0001
0000
0010
1000
0100
0000
2002
0000
0000
0000
3013
0100
0010
1101
;
